#TITLE:Hipnotizadas (Live from the Olympic Stadium of Barcelona);
#SUBTITLE:;
#ARTIST:Lunae;
#MUSIC:Hipnotizadas (Live from the Olympic Stadium of Barcelona).ogg;
#BANNER:Hipnotizadas (Live from the Olympic Stadium of Barcelona).png;
#BACKGROUND:Hipnotizadas (Live from the Olympic Stadium of Barcelona)-bg.png;
#LYRICSPATH:;
#CDTITLE:;
#SAMPLESTART:61.656;
#SAMPLELENGTH:15.538000000000004;
#OFFSET:0.344;
#BPMS:0.000000=130.000000;
#STOPS:;
#TIMESIGNATURES:0.000000=4=4;
#BGCHANGES:;
#FGCHANGES:;
#ATTACKS:;
#SPEEDS:0.000000=1.000000=0.000000=0;
#SCROLLS:0.000000=1.000000;
#KEYSOUNDS:;

//---------------dance-single - ---------------
#NOTES:
     dance-single:
     :
     Challenge:
     17:
     0,0,0,0,0:
// measure 0
0000
0000
0000
0000
,  // measure 1
0000
0000
0000
0000
,  // measure 2
1001
0000
1000
0001
1001
0000
0001
1000
1001
0000
0011
0000
0110
0000
1100
0000
,  // measure 3
1001
0000
1000
0001
0010
0000
0011
0000
0110
0000
0010
0100
1000
0000
1100
0000
,  // measure 4
0110
0000
0001
1000
0010
0000
0100
0000
0100
0010
1000
0000
1010
0000
0101
0000
,  // measure 5
1001
0000
0001
0100
0010
0000
1010
0000
0202
0303
0000
0000
2002
3003
0000
0000
,  // measure 6
1100
0000
1000
0001
1001
0000
1000
0001
0011
0000
0110
0000
1100
0000
0110
0000
,  // measure 7
0021
0100
1000
0100
0001
0001
0100
1000
,  // measure 8
0130
0000
1000
0010
1000
0000
0100
0000
1000
0001
0010
0000
0100
1000
0010
0000
,  // measure 9
0110
0000
1000
0010
0100
0000
0010
0000
2020
3030
0000
0000
0202
0303
1001
0000
,  // measure 10
0110
0100
1000
0100
,  // measure 11
0010
0100
1000
1001
,  // measure 12
0001
0100
0010
0100
,  // measure 13
0001
1000
0100
1001
,  // measure 14
1010
0000
0010
0100
0001
0100
0010
1000
1010
0000
0010
1000
0100
0010
0001
0010
,  // measure 15
0110
0000
0010
0100
1000
0100
0010
0001
0100
0010
0100
0000
0001
0010
0001
0000
,  // measure 16
1001
0000
0001
0100
0010
1000
0100
0001
0101
0000
0001
0100
1000
0010
0100
0001
,  // measure 17
0101
0000
0001
0100
0010
1000
0100
0010
0001
0100
0001
0000
0010
0100
0010
0000
,  // measure 18
0021
0000
0000
0001
0000
0000
0031
0000
0002
0000
0000
1000
0000
0000
1003
0000
,  // measure 19
2000
0000
0000
0100
0000
0000
3100
0000
0200
0000
0000
0010
0000
0000
0310
0000
,  // measure 20
0020
0000
0000
0001
0000
0000
0031
0000
0002
0000
0000
1000
0000
0000
1003
0000
,  // measure 21
2000
0000
0000
0001
0000
0000
3001
0000
0002
0000
0000
0010
0000
0000
0013
0000
,  // measure 22
0020
0000
0000
0100
0000
0000
0130
0000
0200
0000
0000
1000
0000
0000
1300
0000
,  // measure 23
2000
0000
0000
0001
0000
0000
3001
0000
0002
0000
0000
0010
0000
0000
0013
0000
,  // measure 24
0020
0000
0000
0100
0000
0000
0130
0000
0200
0000
0000
1000
0000
0000
1300
0000
,  // measure 25
2000
0000
0000
0001
0000
0000
3001
0000
1001
0000
0000
0110
0010
0000
1000
0000
,  // measure 26
2002
3003
0000
0000
0001
0000
0100
0000
0020
0000
0000
0000
1030
0000
0010
0000
,  // measure 27
0220
0330
0000
0000
0100
0000
0001
0000
0020
0000
0030
0000
0110
0000
1000
0000
,  // measure 28
0002
0000
0000
0023
0000
0000
2030
0000
3200
0000
0000
0302
0000
0000
0023
0000
,  // measure 29
0000
0000
0200
0000
0000
0000
0330
0000
0100
1000
0000
1000
0010
0000
0100
0000
,  // measure 30
0220
0330
0000
0000
0001
0000
0100
0000
0020
0000
0000
0000
1030
0000
0010
0000
,  // measure 31
0220
0330
0000
0000
1000
0000
0100
0000
0020
0000
0030
0000
0110
0000
0010
0000
,  // measure 32
0100
0000
0100
0010
0000
0010
0100
0000
1000
0000
0100
0010
0000
0010
0100
0000
,  // measure 33
1100
0000
0100
0001
0000
0100
1000
0000
1001
0000
0001
0000
0010
0000
0001
0000
,  // measure 34
1001
0000
0001
0100
0101
0000
0100
0010
0110
0000
1010
0000
0110
0000
0101
0000
,  // measure 35
1001
0000
1000
0001
0010
0000
0011
0000
1100
0000
0100
1000
0010
0000
1010
0000
,  // measure 36
0101
0000
0001
1000
0001
0000
1001
0000
1000
0100
0010
0000
0001
0100
0010
0000
,  // measure 37
1010
0000
1000
0100
0010
0000
0011
0000
2200
3300
0000
0000
0022
0033
0000
0000
,  // measure 38
1001
0000
0001
1000
1010
0000
1000
0010
0110
0000
0101
0000
1001
0000
1010
0000
,  // measure 39
0120
1000
0100
0001
0100
1000
0100
1030
,  // measure 40
1010
0000
1000
0001
0100
0000
0001
0000
0010
0100
1000
0000
0010
0100
1000
0000
,  // measure 41
1100
0000
1000
0100
0010
0000
1000
0000
2002
3003
0000
0000
0220
0330
0000
0000
,  // measure 42
1001
0000
1000
0010
1010
0000
0010
0100
0101
0000
1010
0000
1100
0000
0011
0000
,  // measure 43
0010
0000
0100
1000
0010
0000
1010
0000
0101
0000
0100
0001
0010
0000
0011
0000
,  // measure 44
1100
0000
1000
0100
0010
0000
1001
0000
1000
0001
0010
0000
0100
1000
0010
0000
,  // measure 45
0110
0000
0010
1000
0100
0000
0010
0000
0022
0033
0000
0000
0220
0330
0000
0000
,  // measure 46
1100
0000
0100
1000
1001
0000
1000
0001
0101
0000
0110
0000
1100
0000
0110
0000
,  // measure 47
1020
0001
0100
1000
0001
1000
0001
0130
,  // measure 48
1100
0000
0100
1000
0010
0000
1010
0000
0010
1000
0001
0000
0010
0100
1000
0000
,  // measure 49
1100
0000
1000
0001
0010
0000
0100
0000
2200
3300
0000
0000
0022
0033
0000
0000
,  // measure 50
1001
0000
0001
0100
0010
0100
0001
0000
1001
0000
1000
0100
0010
0100
1000
0000
,  // measure 51
1001
0000
0001
0100
0010
1000
0100
0010
0001
0100
0001
0100
1000
0100
1000
0100
,  // measure 52
0101
0000
0001
0100
0010
1000
0100
0010
0011
0000
0010
0100
1000
0001
0100
0010
,  // measure 53
1010
0000
0010
1000
0001
0010
0100
1000
0010
0100
0010
0100
0001
0100
0001
0100
,  // measure 54
0110
0000
0010
0100
0000
0001
0100
0001
0010
0000
0010
0100
0000
0100
1000
0100
,  // measure 55
0010
0000
0010
0001
0000
0001
0100
0010
1000
0100
1000
0000
1100
0000
1001
0000
,  // measure 56
0011
0000
0010
0100
0000
0100
1000
0001
0100
0000
0100
0010
0000
0010
1000
0001
,  // measure 57
0010
0000
0010
0100
0000
0100
1000
0001
0100
0000
0010
0100
0000
0010
0100
0000
,  // measure 58
2002
3003
0000
0000
;

//---------------dance-double - ---------------
#NOTES:
     dance-double:
     :
     Challenge:
     18:
     0,0,0,0,0:
// measure 0
00000000
00000000
00000000
00000000
,  // measure 1
00000000
00000000
00000000
00000000
,  // measure 2
00011000
00000000
00001000
00010000
00010100
00000000
00010000
00001000
00101000
00000000
00110000
00000000
01100000
00000000
11000000
00000000
,  // measure 3
10100000
00000000
10000000
00100000
01000000
00000000
01010000
00000000
10010000
00000000
10000000
00010000
00100000
00000000
01100000
00000000
,  // measure 4
11000000
00000000
10000000
00100000
01000000
00000000
10010000
00000000
10000000
01000000
00010000
00000000
00001000
00000100
00000001
00000000
,  // measure 5
00001001
00000000
00000001
00000100
00000010
00000000
00001010
00000000
00000202
00000000
00000303
00000000
00002020
00000000
00003030
00000000
,  // measure 6
00001100
00000000
00001000
00000100
00010100
00000000
00010000
00001000
00101000
00000000
00110000
00000000
01100000
00000000
10100000
00000000
,  // measure 7
00210000
01000000
10000000
01000000
00010000
00010000
01000000
10300000
,  // measure 8
01000000
00000000
10000000
00100000
01000000
00000000
01100000
00000000
01000000
00010000
00100000
00000000
01000000
10000000
00100000
00000000
,  // measure 9
10100000
00000000
10000000
00100000
01000000
00000000
01100000
00000000
02020000
00000000
03030000
00000000
00011000
00000000
00010100
00000000
,  // measure 10
00001100
00000100
00001000
00000100
00000002
00000003
00000200
00000300
,  // measure 11
00000220
00000330
00000100
00000010
00002000
00003000
00002002
00003003
,  // measure 12
00010000
00000010
00100000
00001000
20000000
30000000
20020000
30030000
,  // measure 13
00020000
00030000
01000000
00100000
02200000
00000000
03300000
00000000
,  // measure 14
10010000
00000000
10000000
00010000
00100000
00010000
01000000
00100000
10100000
00000000
10000000
00100000
01000000
00010000
00100000
01000000
,  // measure 15
01100000
00000000
01000000
00100000
00010000
01000000
00001000
00010000
00000100
00001000
00000100
00001000
00000010
00000100
00000001
00000010
,  // measure 16
00000110
00000000
00000010
00000001
00000100
00000010
00001000
00000100
00000110
00000000
00000100
00000010
00000001
00000100
00000010
00001000
,  // measure 17
00001010
00000000
00000010
00000100
00000001
00000010
00000100
00001000
00000010
00000100
00001000
00010000
00100000
00000000
10100000
00000000
,  // measure 18
01020000
00000000
00000000
01000000
00000000
00000000
01030000
00000000
02000000
00000000
00000000
00100000
00000000
00000000
03100000
00000000
,  // measure 19
00200000
00000000
00000000
10000000
00000000
00000000
10300000
00000000
10010000
00000000
00000000
00110000
00000000
00000000
00011000
00000000
,  // measure 20
00002100
00000000
00000000
00000100
00000000
00000000
00003100
00000000
00000200
00000000
00000000
00000010
00000000
00000000
00000310
00000000
,  // measure 21
00000020
00000000
00000000
00000001
00000000
00000000
00000031
00000000
00001001
00000000
00000000
00011000
00000000
00000000
10010000
00000000
,  // measure 22
02100000
00000000
00000000
00100000
00000000
00000000
03100000
00000000
00200000
00000000
00000000
00010000
00000000
00000000
00310000
00000000
,  // measure 23
00020000
00000000
00000000
10000000
00000000
00000000
10030000
00000000
10010000
00000000
00000000
01001000
00000000
00000000
00010100
00000000
,  // measure 24
00001020
00000000
00000000
00001000
00000000
00000000
00001030
00000000
00002000
00000000
00000000
00000100
00000000
00000000
00003100
00000000
,  // measure 25
00000200
00000000
00000000
00000001
00000000
00000000
00000301
00000000
00000101
00000000
00000000
00000110
00000000
00000000
00001100
00000000
,  // measure 26
00021000
00030000
00000000
00000000
00001000
00000000
01000000
00000000
00200000
00000000
00000000
00000000
10300000
00000000
00100000
00000000
,  // measure 27
01200000
00300000
00000000
00000000
01000000
00000000
00010000
00000000
00200000
00000000
00300000
00000000
01100000
00000000
00100000
00000000
,  // measure 28
00020000
00000000
00000000
02030000
00000000
00000000
23000000
00000000
30200000
00000000
00000000
00320000
00000000
00000000
02030000
00000000
,  // measure 29
00000000
00000000
00200000
00000000
00000000
00000000
03300000
00000000
01000000
00010000
00000000
01000000
00100000
00000000
01000000
00000000
,  // measure 30
10020000
00030000
00000000
00000000
10000000
00000000
01000000
00000000
00200000
00000000
00000000
00000000
00310000
00000000
00100000
00000000
,  // measure 31
02100000
03000000
00000000
00000000
01000000
00000000
10000000
00000000
00200000
00000000
00300000
00000000
01100000
00000000
00100000
00000000
,  // measure 32
10000000
00000000
10000000
00010000
00000000
00010000
00100000
00000000
00110000
00000000
00100000
00001000
00000000
00001000
00010000
00000000
,  // measure 33
00011000
00000000
00010000
00000010
00000000
00001000
00000010
00000000
00000110
00000000
00000010
00000000
00001000
00000000
00000001
00000000
,  // measure 34
00000101
00000000
00000001
00000100
00000101
00000000
00000100
00000010
00000110
00000000
00001010
00000000
00001100
00000000
00000110
00000000
,  // measure 35
00000011
00000000
00000001
00000100
00000010
00000000
00001010
00000000
00001100
00000000
00000100
00001000
00000010
00000000
00001010
00000000
,  // measure 36
00000101
00000000
00000001
00000100
00000010
00000000
00001010
00000000
00001000
00000100
00000010
00000000
00000001
00000100
00000010
00000000
,  // measure 37
00001010
00000000
00000010
00001000
00000100
00000000
00000010
00000000
00000220
00000330
00000000
00000000
00011000
00000000
00000000
00000000
,  // measure 38
01010000
00000000
00010000
01000000
01010000
00000000
00010000
01000000
01100000
00000000
10100000
00000000
01100000
00000000
01010000
00000000
,  // measure 39
01200000
10000000
01000000
00010000
01000000
10000000
10000000
01300000
,  // measure 40
01000000
00000000
00010000
01000000
00100000
00000000
10100000
00000000
10000000
01000000
00100000
00000000
00010000
01000000
00100000
00000000
,  // measure 41
10100000
00000000
10000000
00010000
00100000
00000000
00110000
00000000
00022000
00033000
00000000
00000000
00001010
00000000
00000000
00000000
,  // measure 42
00001100
00000000
00001000
00000100
00001100
00000000
00001000
00000001
00001001
00000000
00000011
00000000
00000110
00000000
00000011
00000000
,  // measure 43
00001001
00000000
00000001
00000100
00000010
00000000
00001010
00000000
00000101
00000000
00001000
00000100
00000010
00000000
00000011
00000000
,  // measure 44
00001100
00000000
00001000
00000100
00000010
00000000
00001001
00000000
00001000
00000001
00000100
00000000
00000001
00001000
00000100
00000000
,  // measure 45
00000110
00000000
00000010
00000100
00001000
00000000
00000001
00000000
00002002
00003003
00000000
00000000
00011000
00000000
00000000
00000000
,  // measure 46
01010000
00000000
00010000
01000000
11000000
00000000
10000000
01000000
01010000
00000000
00110000
00000000
01100000
00000000
11000000
00000000
,  // measure 47
01200000
00010000
01000000
10000000
01000000
01000000
00010000
01300000
,  // measure 48
01000000
00000000
10000000
00010000
01000000
00000000
10010000
00000000
10000000
00010000
00100000
00000000
00010000
10000000
00100000
00000000
,  // measure 49
10100000
00000000
10000000
00100000
01000000
00000000
00100000
00000000
20200000
30300000
00000000
00000000
02020000
03030000
00000000
00000000
,  // measure 50
00011000
00000000
00010000
00001000
00100000
00001000
00010000
00000000
00011000
00000000
00001000
00010000
00000010
00010000
00001000
00000000
,  // measure 51
00011000
00000000
00010000
00001000
01000000
00001000
00010000
00000100
00010000
00001000
00100000
00001000
00010000
00001000
00100000
00001000
,  // measure 52
00011000
00000000
00001000
00010000
00000010
00010000
00001000
00010000
00011000
00000000
00010000
00001000
00100000
00001000
00010000
00001000
,  // measure 53
00011000
00000000
00010000
00001000
00100000
00001000
00010000
00000100
00010000
00001000
00100000
00001000
00010000
00001000
00100000
00001000
,  // measure 54
00011000
00000000
00010000
00000010
00000100
00000010
00001000
00000001
00001001
00000000
00000001
00000010
00000100
00000010
00000001
00001000
,  // measure 55
00001001
00000000
00000001
00000100
00000010
00001000
00000100
00000010
00000001
00000010
00000100
00000010
00000100
00001000
00000100
00001000
,  // measure 56
00001100
00000000
00001000
00000100
00010000
00001000
00100000
00010000
00110000
00000000
00100000
01000000
10000000
00010000
01000000
00001000
,  // measure 57
00011000
00000000
00010000
00000100
00001000
00000010
00000100
00000001
00000010
00000100
00000010
00000100
00001000
00000010
00001010
00000000
,  // measure 58
00022000
00033000
00000000
00000000
;
