#TITLE:Heaven;
#SUBTITLE:(D.U.S Special);
#ARTIST:DJ Sammy & Yanou featuring DO;
#MUSIC:Heaven (D.U.S Special).ogg;
#BANNER:;
#BACKGROUND:;
#LYRICSPATH:;
#CDTITLE:;
#SAMPLESTART:62.604;
#SAMPLELENGTH:15;
#BPMS:0.000000=137.400000,
4.000000=138.040000,
100.000000=138.000000
;
#STOPS:;
#TIMESIGNATURES:;
#BGCHANGES:;
#FGCHANGES:;
#ATTACKS:;
#SPEEDS:0.000000=0.000010=0.000000=0,
2.000000=1.000000=2.000000=0,
68.000000=0.001000=1.738000=1,
72.000000=1.000000=8.000000=0,
136.000000=0.001000=4.000000=0,
140.000000=1.000000=4.000000=0,
216.000000=0.005000=8.000000=0,
224.000000=12.000000=4.000000=0
;
#SCROLLS:;
#DISPLAYBPM:138;

//---------------dance-single - ---------------
#NOTES:
     dance-single:
     :
     Challenge:
     16:
     0,0,0,0,0:
// measure 0
0000
0000
0000
0000
,  // measure 1
1000
0010
0100
0001
0010
0100
1000
0010
,  // measure 2
0200
0000
0010
0000
0010
0000
0310
0100
,  // measure 3
0001
0010
0100
1000
0010
0100
1000
0100
,  // measure 4
0002
0000
1000
0000
1000
0000
1003
0010
,  // measure 5
0100
0010
1000
0001
0010
0100
1000
0001
,  // measure 6
2000
0000
0001
0000
3001
0100
0010
1000
,  // measure 7
0200
0001
1000
0001
,  // measure 8
1300
0000
0000
0001
0000
0000
1000
0000
0010
0100
0000
0001
0010
0000
0100
0000
,  // measure 9
2200
0000
3300
0000
0220
0000
0330
0000
0011
0000
0010
0100
0000
1000
0010
0000
,  // measure 10
0210
0000
0001
0000
1000
0000
0001
0000
0310
0000
0010
1000
0000
1000
0001
0000
,  // measure 11
0022
0000
0033
0000
0220
0000
0330
0000
1100
0000
1000
0001
0000
0001
0100
0000
,  // measure 12
0110
0000
0010
0000
1000
0000
0001
0000
0010
0000
0100
1000
0000
1000
0010
0000
,  // measure 13
2010
3000
0010
0000
0120
0030
0100
0000
0102
0003
0100
0001
0010
0001
0100
0000
,  // measure 14
0102
0003
0100
0000
0210
0300
0010
0000
2010
3000
0010
1000
0100
1000
0010
0000
,  // measure 15
2010
3000
0010
0000
0120
0030
0100
0000
0101
0100
0001
0010
0100
1000
0010
0100
,  // measure 16
0101
0000
0100
0000
0110
0000
0010
0000
1010
0000
1000
0100
0010
0001
0010
0000
,  // measure 17
0022
0000
0000
0033
,  // measure 18
0011
0000
0010
0000
0100
0000
1000
0100
0010
0000
0001
0000
0100
0000
0010
0000
,  // measure 19
1000
0000
0001
0000
0010
0000
0100
1000
0010
0000
0100
0000
1000
0000
0100
0000
,  // measure 20
0001
0000
0100
0000
1000
0100
0010
1000
0100
0000
0010
0000
0001
0000
0010
0000
,  // measure 21
0100
0000
1000
0000
0010
0000
0100
0001
0010
0000
0100
0000
1100
1000
0010
0100
,  // measure 22
1000
0000
0100
0000
0001
0000
0010
0100
1000
0000
0010
0000
0110
0000
0100
0000
,  // measure 23
0001
0000
0010
0000
0100
0000
1000
0010
0100
0001
0010
0000
0110
0000
0010
0000
,  // measure 24
0001
0000
1000
0010
0100
0000
1000
0100
0010
0000
1000
0001
0010
0100
1000
0010
,  // measure 25
0220
0330
0202
0303
1001
1000
1100
0100
,  // measure 26
0110
0000
0010
0000
0001
0000
0100
0010
1000
0001
0010
0000
0110
0000
0100
0000
,  // measure 27
1000
0000
0010
0000
0100
0000
1000
0100
0010
1000
0001
0000
0011
0000
0010
0000
,  // measure 28
0100
0000
1000
0000
0010
0000
0100
1000
0100
0001
0010
0100
1000
0000
0010
0000
,  // measure 29
0100
0000
0001
0000
0011
0000
0001
0100
0010
1000
0001
0000
0011
0010
0100
1000
,  // measure 30
1100
0000
0100
0000
1000
0000
0010
0100
1000
0100
0010
0000
1010
0000
0010
0000
,  // measure 31
0110
0000
0100
0000
0101
0000
0100
0001
0010
0100
1000
0000
1001
0000
1000
0000
,  // measure 32
0100
0000
0010
0000
1010
0000
0010
0001
0100
0010
1000
0000
1010
0000
0010
0100
,  // measure 33
0001
0010
0100
1000
0010
0100
1000
0100
0001
0010
1000
0010
0001
0100
0010
1000
,  // measure 34
0002
0023
0000
0230
2300
3020
0230
2300
,  // measure 35
3200
0000
0000
0000
0000
0000
0310
0000
0010
1000
0001
0010
0100
1000
0010
0100
,  // measure 36
0101
0000
0001
0000
1001
0000
1000
0000
1010
0000
1000
0010
0100
0001
0010
0000
,  // measure 37
0011
0000
1010
0000
0011
0000
0101
0000
1100
0000
0100
0001
0010
0100
1000
0000
,  // measure 38
1010
0000
0010
0000
0110
0000
0100
0000
0101
0000
0100
0001
0010
0100
1000
0000
,  // measure 39
1100
0000
0011
0000
1010
0000
0101
0000
1001
0000
1000
0010
0100
0001
0010
0000
,  // measure 40
0100
1000
0001
0100
0020
0000
0130
0000
0100
0001
0010
0100
2000
0000
3001
0000
,  // measure 41
0001
0010
0100
1000
0020
0000
0130
0000
0100
1000
0100
0010
1000
0000
0001
0000
,  // measure 42
0020
0000
0100
0000
0001
0000
1000
0000
0100
0000
0001
0001
0000
0100
0130
0000
,  // measure 43
0100
1000
0010
0000
0100
0001
0010
0100
1000
0000
1000
0010
0000
0010
0100
1000
,  // measure 44
0100
0000
0001
0100
0010
0000
1000
0001
0010
0000
0100
1000
0010
0000
0100
0000
,  // measure 45
0201
0000
0000
0000
1000
0000
0000
0000
0301
0000
0001
1000
0010
0000
0100
0000
,  // measure 46
1100
0000
0100
0010
1000
0000
0001
0010
0100
1000
0010
0100
1000
0100
0001
0010
,  // measure 47
0210
0000
0000
0000
1000
0000
0000
0000
0020
0030
0300
0010
0110
0000
0011
0000
,  // measure 48
0001
0000
0100
0010
1000
0000
0100
0010
0001
0000
0100
0010
1000
0000
0001
0010
,  // measure 49
0100
0000
1000
0010
0100
0000
1000
0100
0010
0000
1000
0100
0010
0001
0100
0010
,  // measure 50
1000
0100
0001
0100
1000
0010
0100
0001
0010
0100
1000
0010
0001
0010
1000
0100
,  // measure 51
0010
0001
0100
1000
0100
0010
1000
0001
0010
0010
0100
0100
1000
0001
1000
0001
,  // measure 52
0021
0000
0000
0000
0130
0000
1000
0000
1002
0000
0000
0000
0103
0000
0001
0010
,  // measure 53
1010
0010
0001
0100
0010
1000
0001
0010
0100
1000
0010
0100
1000
0100
0001
0010
,  // measure 54
0100
1000
0010
0100
1000
0100
0010
1000
0100
0010
1000
0010
0001
0100
0010
1000
,  // measure 55
0001
0010
1000
0010
0100
1000
0010
0100
0001
0010
0100
1000
0010
0100
1000
0100
,  // measure 56
0220
0000
0000
0330
;

//---------------dance-double - ---------------
#NOTES:
     dance-double:
     :
     Challenge:
     18:
     0,0,0,0,0:
// measure 0
00000000
00000000
00000000
00000000
,  // measure 1
00010000
00001000
00100000
01000000
10000000
00100000
00010000
00001000
,  // measure 2
00000020
00000000
00000001
00000000
00000001
00000000
00000031
00000100
,  // measure 3
00000010
00001000
00000001
00000010
01000000
00100000
00010000
10000000
,  // measure 4
00200000
00000000
01000000
00000000
01300000
00000000
01000000
00010000
,  // measure 5
00100000
00000010
00001000
00000010
00000100
00000001
00000010
00000100
,  // measure 6
00002000
00000000
00000001
00000000
00003001
00000001
00000100
00000010
,  // measure 7
00002000
00000001
00010000
00003001
,  // measure 8
00000001
00000000
00000100
00000010
00000000
00001000
00000010
00000000
00000100
00000010
00010000
00001000
00100000
00000000
01000000
00000000
,  // measure 9
11000000
00000000
01000000
00000000
00100000
00000000
00010000
00000000
01000000
00000000
00100000
10000000
00000000
10000000
00010000
00000000
,  // measure 10
00011000
00000000
00001000
00000000
00010000
00000000
00000010
00000000
00000100
00000000
00000001
00000010
00000000
00000010
00000100
00000000
,  // measure 11
00001100
00000000
00000001
00000000
00000101
00000000
00001000
00000000
00001010
00000000
00000010
00010000
00000000
00010000
00001000
00000000
,  // measure 12
00011000
00000000
00001000
00000000
00100000
00000000
01000000
00000000
10000000
00000000
00100000
01000000
00000000
01000000
10000000
00000000
,  // measure 13
11000000
00000000
01000000
00000000
01010000
00000000
00010000
00000000
00110000
00000000
00100000
00001000
00000000
00010000
00000010
00000000
,  // measure 14
00000110
00000000
00000100
00000000
00000101
00000000
00000001
00000000
00000011
00000000
00000010
00000100
00000000
00010000
00001000
00000000
,  // measure 15
00011000
00000000
01010000
00000000
00011000
00000000
00001100
00000000
00011000
00000000
00001000
00100000
00000000
01000000
10000000
00100000
,  // measure 16
01100000
00000000
01000000
00000000
01010000
00000000
00010000
00000000
00110000
00000000
00100000
00001000
00010000
00000010
00000100
00000000
,  // measure 17
00000220
00000000
00000000
00000330
,  // measure 18
00000110
00000000
00000100
00000000
00000010
00000000
00001000
00000001
00000010
00000100
00001000
00000000
00001010
00000000
00000010
00000000
,  // measure 19
00000100
00000000
00001000
00000000
00001100
00000000
00001000
00000100
00000010
00010000
00001000
00000000
00011000
00000000
00001000
00000000
,  // measure 20
00100000
00000000
01000000
00000000
11000000
00000000
01000000
10000000
00100000
01000000
10000000
00000000
11000000
00000000
01000000
00000000
,  // measure 21
00010000
00000000
00100000
00000000
00101000
00000000
00100000
00001000
00010000
00000010
00000100
00000001
00001001
00000000
00000001
00000100
,  // measure 22
00000020
00002030
00003200
00020300
00032000
00203000
02300000
23000000
,  // measure 23
30100000
00000000
01000000
00000000
01010000
00000000
01000000
00100000
10000000
00001000
00010000
00000000
00001001
00000000
00000001
00000100
,  // measure 24
00000010
00000000
00010000
00001000
00100000
00000000
01000000
10000000
00010000
00000000
01000000
00001000
00010000
00000010
00000100
00000001
,  // measure 25
00002002
00000000
00003003
00000000
00011000
00000000
00000000
00000000
10010000
00010000
01000000
00100000
10100000
00000000
00100000
00000000
,  // measure 26
01000000
00000000
00010000
00000000
00110000
00000000
00100000
00001000
00010000
00000010
00000100
00000000
00001100
00000000
00000100
00000000
,  // measure 27
00000001
00000000
00010000
00000000
00011000
00000000
00001000
00100000
01000000
10000000
00100000
00000000
01100000
00000000
00100000
00000000
,  // measure 28
10000000
00000000
00010000
00000000
00110000
00000000
00100000
01000000
10000000
00010000
01000000
00000000
11000000
00000000
01000000
00000000
,  // measure 29
00010000
00000000
00100000
00000000
00101000
00000000
00100000
00010000
01000000
00001000
00010000
00000000
00000100
00001000
00000010
00000100
,  // measure 30
00000001
00000000
00000010
00000000
00000110
00000000
00000010
00000001
00001000
00000010
00000100
00000000
00001100
00000000
00000100
00000000
,  // measure 31
00000010
00000000
00010000
00000000
00011000
00000000
00010000
00100000
01000000
00010000
10000000
00000000
11000000
00000000
01000000
10000000
,  // measure 32
00100000
00000000
01000000
00010000
00100000
00000000
00002000
00000000
01000000
00000000
00100000
00000000
00013000
00000000
00001000
00000000
,  // measure 33
00010000
00000100
00001000
00000010
00000100
00000001
00000010
00001000
00000010
00000001
00000100
00000010
00001000
00000001
00000010
00000100
,  // measure 34
00020000
00032000
00203000
00302000
00023000
00030020
00000230
00000302
,  // measure 35
00000203
00000000
00000000
00000000
00000000
00000000
00000320
00000000
00001030
00000000
00000010
00000000
00000100
00000001
00000010
00001000
,  // measure 36
00011000
00000000
00010000
00000000
00000010
00000000
00001000
00000000
00010000
00001000
00000010
00000100
00000001
00000010
00000100
00000000
,  // measure 37
00011000
00000000
00010000
00000000
00100000
00000000
10000000
00000000
01000000
00001000
01000000
10000000
00100000
01000000
00010000
00000000
,  // measure 38
00110000
00000000
00100000
00000000
01000000
00000000
10000000
00000000
00001000
00010000
00000010
00000100
00000001
00000010
00000100
00000000
,  // measure 39
00001100
00000000
00001000
00000000
00001010
00000000
00000010
00000000
00000100
00000001
00000010
00001000
00000010
00000100
00001000
00000010
,  // measure 40
00010010
00000000
00010000
00000000
00011000
00000000
00001000
00000000
00101000
00000000
00100000
01000000
10000000
00100000
01000000
00000000
,  // measure 41
11000000
01000000
01010000
00010000
00110000
01100000
11000000
01100000
,  // measure 42
00120000
00000000
01000000
00000000
10000000
00000000
01000000
00000000
00001000
00000000
10000000
10000000
00000000
00100000
00130000
00000000
,  // measure 43
00010000
00100000
01000000
00000000
10000000
00100000
01000000
00010000
00100000
00001000
00010000
00000000
00011000
00000000
00001010
00000000
,  // measure 44
00000110
00000000
00000100
00000001
00000010
00000000
00000100
00001000
00000010
00000100
00010000
00000100
00000010
00000000
00001000
00000000
,  // measure 45
00001002
00000000
00000013
00000000
00000021
00000000
00000130
00000000
00000210
00000000
00001300
00000001
00000100
00000010
00010000
00000000
,  // measure 46
00011000
00000000
00001000
00100000
01000000
00000000
10000000
00100000
01000000
10000000
01000000
00010000
00100000
01000000
10000000
00000000
,  // measure 47
10020000
00130000
00102000
00013000
00021000
00030010
00001010
00000010
,  // measure 48
00000100
00000001
00000010
00000100
00001000
00000010
00000100
00001000
00000100
00000010
00001000
00000001
00000010
00000100
00001000
00000010
,  // measure 49
00010000
00001000
00100000
01000000
10000000
00100000
01000000
00010000
00100000
01000000
10000000
00100000
00010000
00001000
00000010
00000001
,  // measure 50
00000100
00000010
00001000
00000100
00000010
00010000
00000010
00000100
00001000
00000010
00000100
00001000
00010000
01000000
00100000
00010000
,  // measure 51
10000000
00100000
01000000
00010000
00100000
00000010
00001000
00000001
00000010
00000010
00000100
00000100
00001000
00000001
00001000
00000001
,  // measure 52
00000012
00000000
00000103
00000000
00002010
00000000
00003100
00000000
00012000
00000000
00013000
00000000
10010000
00000000
00010000
10000000
,  // measure 53
00100000
01000000
00010000
00100000
00001000
00010000
00000010
00000100
00000001
00000010
00000100
00001000
00000010
00010000
00001000
00100000
,  // measure 54
01000000
10000000
00100000
10000000
01000000
00100000
00010000
10000000
00100000
01000000
10000000
01000000
00100000
10000000
00010000
00100000
,  // measure 55
00000010
00001000
00000001
00000010
00000100
00001000
00000010
00000100
00001000
00000100
00000001
00000010
00001000
00010000
00100000
01000000
,  // measure 56
02200000
00000000
00000000
03300000
;
