#VERSION:0.83;
#TITLE:Hashirinukeru kimi e, Hurry Up!;
#SUBTITLE:;
#ARTIST:Ichiro Yoshida;
#TITLETRANSLIT:;
#SUBTITLETRANSLIT:;
#ARTISTTRANSLIT:;
#GENRE:;
#CREDIT:;
#ORIGIN:;
#MUSIC:Hashirinukeru kimi e, Hurry Up!.ogg;
#BANNER:Hashirinukeru kimi e, Hurry up!.png;
#BACKGROUND:Hashirinukeru kimi e, Hurry up!-bg.png;
#JACKET:Hashirinukeru kimi e, Hurry up!-jacket.png;
#DISCIMAGE:;
#CDIMAGE:;
#SELECTABLE:YES;
#LYRICSPATH:;
#CDTITLE:;
#SAMPLESTART:51.477;
#SAMPLELENGTH:14.546;
#OFFSET:1.25;
#BPMS:0.000000=132.000000;
#STOPS:;
#WARPS:;
#DELAYS:;
#SPEEDS:0.000000=1.000000=0.000000=0;
#SCROLLS:0.000000=1.000000;
#TICKCOUNTS:;
#TIMESIGNATURES:0.000000=4=4;
#LABELS:;
#COMBOS:;
#FAKES:;
#BGCHANGES:;
#FGCHANGES:;
#ATTACKS:;
#KEYSOUNDS:;

//---------------dance-single - ---------------
#NOTEDATA:;
#CHARTNAME:;
#CHARTSTYLE:;
#CREDIT:;
#STEPSTYPE:dance-single;
#DESCRIPTION:;
#DIFFICULTY:Beginner;
#METER:3;
#METERF:3;
#RADARVALUES:0,0,0,0,0;
#NOTES:
// measure 0
0000
0000
0000
0000
,  // measure 1
1000
0000
0001
0000
,  // measure 2
1000
1000
1000
0000
,  // measure 3
0001
0000
1000
0000
,  // measure 4
0001
0001
0001
0000
,  // measure 5
0010
0000
0100
0000
,  // measure 6
0010
0010
0010
0000
,  // measure 7
0100
0000
0010
0000
,  // measure 8
0100
0100
0100
0000
,  // measure 9
1001
0000
1000
0000
,  // measure 10
1010
0000
0010
0000
,  // measure 11
0110
0000
0100
0000
,  // measure 12
0101
0000
0001
0000
,  // measure 13
1000
1000
1000
0000
,  // measure 14
0001
0001
0001
0000
,  // measure 15
0010
0010
0010
0000
,  // measure 16
0001
0001
0001
0000
,  // measure 17
0100
0100
0100
0000
,  // measure 18
0010
0010
0010
0000
,  // measure 19
1000
0000
0001
0000
,  // measure 20
0010
0000
0001
0000
,  // measure 21
0100
0100
0100
0000
,  // measure 22
0010
0010
0010
0000
,  // measure 23
1000
1000
1000
0000
,  // measure 24
0001
0001
0001
0000
,  // measure 25
0010
0010
0010
0000
,  // measure 26
0100
0100
0100
0000
,  // measure 27
1000
1000
1000
0000
,  // measure 28
0001
0001
0001
0000
,  // measure 29
1001
0000
0001
0000
,  // measure 30
1000
1000
1000
0000
,  // measure 31
0001
0000
1000
0000
,  // measure 32
0001
0001
0001
0000
,  // measure 33
0100
0000
0010
0000
,  // measure 34
0100
0100
0100
0000
,  // measure 35
0010
0000
0100
0000
,  // measure 36
0010
0010
0010
0000
,  // measure 37
0000
0110
0000
0100
,  // measure 38
0000
0001
0001
0001
,  // measure 39
0000
0010
0000
0100
,  // measure 40
0000
1000
1000
1000
,  // measure 41
0000
0001
0000
0100
,  // measure 42
0000
0010
0010
0010
,  // measure 43
0000
1000
0000
0001
,  // measure 44
0000
0010
0010
0010
,  // measure 45
0000
0100
0000
0100
,  // measure 46
0000
1000
1000
1000
,  // measure 47
0000
0001
0000
0001
,  // measure 48
0000
0100
0100
0100
,  // measure 49
0000
0010
0000
0100
,  // measure 50
0000
0001
0001
0001
,  // measure 51
0000
1000
0000
0100
,  // measure 52
0000
0010
0010
0010
,  // measure 53
0000
0110
0000
0000
;

//---------------dance-single - ---------------
#NOTEDATA:;
#CHARTNAME:;
#CHARTSTYLE:;
#CREDIT:;
#STEPSTYPE:dance-single;
#DESCRIPTION:;
#DIFFICULTY:Easy;
#METER:8;
#METERF:8;
#RADARVALUES:0,0,0,0,0;
#NOTES:
// measure 0
0000
0000
0000
0000
,  // measure 1
1001
1000
0001
0100
,  // measure 2
0010
0010
0010
0100
,  // measure 3
0001
0001
0010
0100
,  // measure 4
1000
1000
1000
0010
,  // measure 5
0110
0010
1000
0001
,  // measure 6
0010
0010
0010
0100
,  // measure 7
1000
0001
0100
0010
,  // measure 8
1000
1000
1000
0001
,  // measure 9
0011
0010
0100
1100
,  // measure 10
1001
0001
0100
0010
,  // measure 11
1010
0010
0100
0101
,  // measure 12
1001
1000
0100
0010
,  // measure 13
0001
0001
0100
0010
,  // measure 14
1000
1000
0001
0010
,  // measure 15
0100
0100
1000
0001
,  // measure 16
0100
0100
0010
0100
,  // measure 17
0001
0001
0010
0100
,  // measure 18
1000
1000
0001
0100
,  // measure 19
0010
1000
0001
0010
,  // measure 20
0100
1000
0010
0110
,  // measure 21
1001
0001
0010
0100
,  // measure 22
1000
1001
0110
1010
,  // measure 23
0101
0001
0010
0100
,  // measure 24
1100
1000
0010
0100
,  // measure 25
1100
0100
0010
1000
,  // measure 26
0001
0011
1100
1010
,  // measure 27
0101
0001
0011
0010
,  // measure 28
0110
0100
1000
0001
,  // measure 29
0101
0001
0010
0100
,  // measure 30
1000
1000
1000
0010
,  // measure 31
0100
1000
0100
0001
,  // measure 32
0010
0010
0010
0100
,  // measure 33
1100
0100
0110
0010
,  // measure 34
0011
1010
0101
1100
,  // measure 35
1001
0001
0011
0010
,  // measure 36
0110
1100
1001
0101
,  // measure 37
0000
1001
1000
0100
,  // measure 38
0010
0001
0010
0100
,  // measure 39
1000
0010
0100
1000
,  // measure 40
0100
0001
0010
0100
,  // measure 41
0010
0001
0100
0010
,  // measure 42
1000
0001
0010
1000
,  // measure 43
0010
0001
0100
0010
,  // measure 44
1000
0100
0001
0100
,  // measure 45
0010
0011
0010
0100
,  // measure 46
1000
0001
0001
0001
,  // measure 47
0100
0010
0100
0001
,  // measure 48
0010
0100
0100
1000
,  // measure 49
0010
0110
0010
1000
,  // measure 50
0001
0010
0010
0010
,  // measure 51
0100
1000
0001
0100
,  // measure 52
0010
0100
0100
0001
,  // measure 53
1000
1001
0000
0000
;

//---------------dance-single - ---------------
#NOTEDATA:;
#CHARTNAME:;
#CHARTSTYLE:;
#CREDIT:;
#STEPSTYPE:dance-single;
#DESCRIPTION:;
#DIFFICULTY:Medium;
#METER:12;
#METERF:12;
#RADARVALUES:0,0,0,0,0;
#NOTES:
// measure 0
0000
0000
0000
0000
,  // measure 1
1001
0000
0000
0000
1000
0000
0000
0001
0000
0000
0100
0000
0000
0001
0000
0000
,  // measure 2
1000
0000
0100
0000
1000
0000
0100
0000
1000
0000
0000
0001
0000
0000
0100
0000
,  // measure 3
0010
0000
0000
0000
0100
0000
0000
0001
0000
0000
0010
0000
0000
0100
0000
0000
,  // measure 4
1000
0000
0001
0000
1000
0000
0001
0000
0010
0000
0000
0100
0000
0000
1000
0000
,  // measure 5
0001
0100
0010
0000
1000
0100
0010
0000
,  // measure 6
0001
0010
0100
0000
1000
0010
0100
0000
,  // measure 7
1000
0100
0010
0000
1000
0100
0010
0000
,  // measure 8
0001
0010
0100
0000
0010
0100
1000
0000
,  // measure 9
0101
0001
0010
0100
,  // measure 10
1100
0100
1000
0010
,  // measure 11
0110
0100
0001
0010
,  // measure 12
0011
0010
0100
1000
,  // measure 13
0001
0000
0000
1000
0000
0000
0001
0000
1000
0000
0000
0000
0001
0000
0000
0000
,  // measure 14
0010
0000
0000
0001
0000
0000
0010
0000
0001
0000
0000
0000
0010
0000
0000
0000
,  // measure 15
0100
0000
0000
0010
0000
0000
0100
0000
0010
0000
0000
0000
0001
0000
0000
0000
,  // measure 16
0100
0000
0000
0010
0000
0000
0100
0000
0010
0000
0000
0000
1000
0000
0000
0000
,  // measure 17
0100
0000
0000
1000
0000
0000
0100
0000
1000
0000
0000
0000
0001
0000
0000
0000
,  // measure 18
0100
0000
0000
0010
0000
0000
0100
0000
0010
0000
0000
0000
1000
0000
0000
0000
,  // measure 19
0200
0320
0032
2003
,  // measure 20
3020
0000
0000
0000
0130
0000
0000
0001
0000
0100
0000
0000
0010
0000
0100
0000
,  // measure 21
0001
0000
0000
0000
0010
0000
0000
0100
0000
1000
0000
0000
0001
0000
1000
0000
,  // measure 22
0100
0000
0000
0000
0010
0000
0000
0100
0000
1000
0000
0000
0001
0000
0100
0000
,  // measure 23
0010
0000
0000
0000
1000
0000
0000
0001
0000
0010
0000
0000
0100
0000
1000
0000
,  // measure 24
0010
0000
0000
0000
0100
0000
0000
1000
0000
0100
0000
0000
0001
0000
1000
0000
,  // measure 25
0100
0000
0000
0000
0010
0000
0000
0001
0000
0010
0000
0000
0100
0000
1000
0000
,  // measure 26
0001
0000
0000
0000
0100
0000
0000
1000
0000
0100
0000
0000
0001
0000
1000
0000
,  // measure 27
0100
0100
0100
1000
0001
0100
0010
0000
,  // measure 28
1000
1000
1000
0001
0010
0000
0011
0000
,  // measure 29
1100
0000
0000
0000
1000
0000
0000
0001
0000
0000
0100
0000
0000
0010
0000
0000
,  // measure 30
1000
0000
0001
0000
1000
0000
0001
0000
1000
0000
0000
0100
0000
0000
0010
0000
,  // measure 31
0001
0000
0000
0000
0100
0000
0000
1000
0000
0000
0100
0000
0000
0001
0000
0000
,  // measure 32
1000
0000
0100
0000
0010
0000
0100
0000
1000
0000
0000
0001
0000
0000
0100
0000
,  // measure 33
0010
0000
0000
0000
1000
0000
0000
0001
0000
0000
0010
0000
0000
0100
0000
0000
,  // measure 34
0010
0000
0001
0000
0010
0000
0001
0000
0010
0000
0000
0100
0000
0000
1000
0000
,  // measure 35
0001
0000
0000
0000
0100
0000
0000
0010
0000
0000
1000
0000
0000
0001
0000
0000
,  // measure 36
0010
0000
0100
0000
1000
0000
0100
0000
0110
0000
0000
0011
0000
0000
1001
0000
,  // measure 37
0000
0000
0000
0000
1010
0000
0000
0000
0010
0000
0000
0100
0000
0000
0001
0000
,  // measure 38
0000
1000
0000
0000
0100
0000
0010
0000
0100
0000
0010
0000
0001
0000
0000
0100
,  // measure 39
0000
0000
0010
0000
1000
0000
0000
0000
0001
0000
0000
0010
0000
0000
0100
0000
,  // measure 40
0000
1000
0000
0000
0010
0000
0100
0000
0010
0000
0100
0000
0020
0000
0000
0000
,  // measure 41
1030
0000
0000
0000
0001
0000
0000
0000
0010
0000
0000
0100
0000
0000
1000
0000
,  // measure 42
0000
0001
0000
0000
0100
0000
0010
0000
1000
0000
0010
0000
0100
0000
0000
0001
,  // measure 43
0000
0000
1000
0000
0100
0000
0000
0000
0010
0000
0000
0001
0000
0000
0100
0000
,  // measure 44
0000
0010
0000
0000
1000
0000
0001
0000
0010
0000
0001
0000
1000
0000
0000
0010
,  // measure 45
0000
0100
0001
0100
0010
1000
0100
0010
,  // measure 46
0001
0000
0001
0010
0100
1000
0010
0100
,  // measure 47
1000
0000
1000
0100
0001
1000
0100
0010
,  // measure 48
0001
0000
0001
0010
0100
1000
0001
0100
,  // measure 49
0010
0200
0001
1000
,  // measure 50
0010
0000
0001
0000
1000
0000
0301
0010
,  // measure 51
0001
0200
1000
0000
0001
0000
0010
0000
,  // measure 52
0301
0000
0000
0000
0001
0000
1000
0000
0100
0000
1000
0000
0010
0000
0000
0100
,  // measure 53
0000
0001
2002
0000
0000
0000
0000
0000
,  // measure 54
0000
0000
3003
0000
;

//---------------dance-single - ---------------
#NOTEDATA:;
#CHARTNAME:;
#CHARTSTYLE:;
#CREDIT:;
#STEPSTYPE:dance-single;
#DESCRIPTION:;
#DIFFICULTY:Hard;
#METER:15;
#METERF:15;
#RADARVALUES:0,0,0,0,0;
#NOTES:
// measure 0
0000
0000
0000
0000
,  // measure 1
1002
0000
0000
0000
2003
0000
0000
3001
0000
0000
0100
0000
0000
0010
0000
0000
,  // measure 2
1000
0000
0010
0000
0100
0000
0010
0000
1000
0000
0000
0001
0000
0000
0010
0000
,  // measure 3
0200
0000
0000
0000
2300
0000
0000
3001
0000
0000
0100
0000
0000
0010
0000
0000
,  // measure 4
1000
0000
0010
0000
0100
0000
0010
0000
1010
0000
1000
0100
0010
0000
0011
0000
,  // measure 5
0110
0000
0100
1000
0001
0000
0100
0000
0010
0000
0100
0001
0010
0000
0100
0000
,  // measure 6
1100
0000
1010
0000
0110
0000
1010
0000
1001
0000
0001
0010
0100
0000
0010
0000
,  // measure 7
0001
0000
0100
0010
1000
0000
0001
0000
0010
0000
1000
0010
0100
0000
1000
0000
,  // measure 8
1010
0000
0101
0000
0011
0000
1100
0000
1001
0001
0100
0010
0100
0001
0010
0100
,  // measure 9
2100
0000
3002
0000
0203
0000
0310
0100
,  // measure 10
0102
0000
1003
1000
0200
0000
0310
0100
,  // measure 11
2100
0000
3002
0000
0103
0010
0100
0001
,  // measure 12
0021
0000
0130
1000
0002
0000
0103
0010
,  // measure 13
0110
0000
0000
0010
0100
0000
0001
0000
2001
0000
0000
0000
3100
0000
0000
0000
,  // measure 14
0110
0000
0000
0010
0100
0000
1000
0000
1002
0000
0000
0000
0103
0000
0000
0000
,  // measure 15
0110
0000
0000
0010
1000
0000
0001
0000
0021
0000
0000
0000
0130
0000
0000
0000
,  // measure 16
1100
0000
0000
0100
1000
0000
0001
0000
0201
0000
0000
0000
0310
0000
0000
0000
,  // measure 17
1010
0000
0000
0010
0100
0000
0001
0000
0021
0000
0000
0000
1030
0000
0000
0000
,  // measure 18
0011
0000
0000
0001
0010
0000
0100
0000
2001
0000
0000
0000
3100
0000
0010
0000
,  // measure 19
0001
0000
1001
0000
1010
0000
1000
0010
0100
0010
0000
1000
0001
0000
0010
0000
,  // measure 20
0100
0000
0010
0000
0001
0100
0010
1000
0001
0010
0000
0100
0010
0000
0001
0000
,  // measure 21
1001
0000
1000
0000
0010
0000
0100
0010
1000
0001
0000
0001
0010
0000
0100
0000
,  // measure 22
1000
0000
0001
0000
0101
0001
0010
0100
1000
0010
0000
0100
0010
0000
1000
0000
,  // measure 23
1001
0000
0001
0000
0010
0000
0100
1000
0001
0100
0000
0100
1000
0000
0100
0000
,  // measure 24
0110
0000
0010
0000
1000
0000
0001
0010
0100
0010
0000
0001
1000
0000
0010
0000
,  // measure 25
0110
0000
0010
0000
1000
0000
0001
0010
0100
1000
0000
1000
0010
0000
0100
0000
,  // measure 26
1100
0000
0100
0000
0001
0000
1000
0100
0010
0001
0000
0001
0010
0000
0100
0000
,  // measure 27
1100
0000
1001
0000
0101
0000
0001
0100
0010
0100
0000
0100
0001
0000
1000
0000
,  // measure 28
1001
0000
0011
0000
1001
0000
0001
0100
0010
1000
0001
0010
0100
1000
0010
0100
,  // measure 29
1200
0000
0000
0000
0001
0000
0000
0010
0000
0000
1000
0000
0000
0001
0000
0000
,  // measure 30
1000
0000
1000
0000
0001
0000
0001
0000
0010
0000
0000
0001
0000
0000
1300
0000
,  // measure 31
0102
0000
0000
0000
0010
0000
0000
1000
0000
0000
0100
0000
0000
0010
0000
0000
,  // measure 32
1000
0000
1000
0000
0010
0000
0013
0000
0011
0000
0001
0010
0100
0000
1100
0000
,  // measure 33
1001
0000
0000
0000
0101
0000
0000
0001
0100
0000
0010
0000
0100
0001
0000
0000
,  // measure 34
0011
0000
0010
0000
0110
0000
0010
0000
0011
0000
0001
0100
0010
0000
1010
0000
,  // measure 35
0101
0000
0001
0000
1001
0000
1000
0100
0010
0000
0001
0000
0100
0010
0000
0000
,  // measure 36
1010
0000
1001
0000
0011
0000
0101
0101
2002
3003
0000
0202
0303
0000
2020
3030
,  // measure 37
0000
0000
0000
0000
1001
0000
0001
0000
0010
0000
0100
0010
0001
0000
0100
0000
,  // measure 38
0010
1000
0000
0000
1001
0000
0011
0000
1001
0000
1010
0000
0110
0000
0100
0010
,  // measure 39
1000
0000
1010
0000
1001
0000
0001
0100
0010
0000
0100
0001
0010
0000
0100
0000
,  // measure 40
1000
0001
0100
0000
0110
0000
0100
0001
0010
0000
0110
0000
1100
0100
0010
0001
,  // measure 41
0100
0010
1000
0001
0011
0000
0010
0000
0110
0000
0100
1000
0010
0000
0100
0000
,  // measure 42
1000
0100
0000
0000
0101
0000
0001
0000
1001
0000
1000
0000
1100
0000
0100
1000
,  // measure 43
0010
0000
0100
0000
1100
0000
0100
0001
0010
0000
0100
1000
0001
0000
0100
0000
,  // measure 44
1000
0100
0000
0000
0101
0000
0100
0001
0010
0000
0100
0000
1001
0000
0100
1000
,  // measure 45
0001
0100
0020
0230
0302
2003
3200
0320
,  // measure 46
0032
0000
0023
0000
0230
0300
0200
0300
2000
3000
2000
3000
0200
0000
2300
0000
,  // measure 47
3002
0023
0230
2300
3002
0203
2300
3200
,  // measure 48
0320
0000
2030
0000
3002
0003
0002
0003
2000
3000
2000
3000
0020
0000
0230
0000
,  // measure 49
2300
0000
3200
0000
0301
0000
0100
0001
0010
0000
0100
1000
0010
0000
0100
0010
,  // measure 50
1000
0000
0001
0010
0100
0000
1000
0000
0001
0000
0100
0000
0010
0000
0100
0001
,  // measure 51
1000
0000
0100
0000
0010
0000
0001
0010
0100
0000
1000
0010
0100
0000
1000
0100
,  // measure 52
0001
0000
0010
0100
1000
0000
0001
0000
0100
0000
0010
0000
0110
0000
0100
0010
,  // measure 53
1000
0000
1001
0001
0022
0000
0000
0000
0000
0000
0000
0000
0000
0000
0000
0000
,  // measure 54
0000
0000
0033
0000
;
