#TITLE:Haengbok -super euro version-;
#SUBTITLE:(D.U.S Special);
#ARTIST:H.O.T;
#MUSIC:Haengbok -super euro version- (D.U.S Special).ogg;
#BANNER:Haengbok -super euro version- (D.U.S Special).png;
#BACKGROUND:Haengbok -super euro version- (D.U.S Special)-bg.png;
#LYRICSPATH:;
#CDTITLE:;
#SAMPLESTART:54.633999;
#SAMPLELENGTH:18.702000;
#OFFSET:-0.089;
#BPMS:0.000000=154.000000,
72.000000=308.000000,
72.500000=154.000000,
72.750000=308.000000,
73.250000=154.000000,
73.500000=308.000000,
74.000000=154.000000,
74.250000=308.000000,
74.750000=154.000000,
75.000000=308.000000,
75.500000=154.000000,
75.750000=308.000000,
76.250000=154.000000,
76.500000=308.000000,
77.000000=154.000000,
77.250000=308.000000,
77.750000=154.000000,
78.000000=308.000000,
78.500000=154.000000,
78.750000=308.000000,
79.250000=154.000000,
79.500000=308.000000,
80.000000=154.000000,
80.250000=308.000000,
80.750000=154.000000,
81.000000=308.000000,
81.500000=154.000000,
81.750000=308.000000,
82.250000=154.000000,
82.500000=308.000000,
83.000000=154.000000,
83.250000=308.000000,
83.750000=154.000000,
84.000000=308.000000,
84.500000=154.000000,
84.750000=308.000000,
85.250000=154.000000,
85.500000=308.000000,
86.000000=154.000000,
86.250000=308.000000,
86.750000=154.000000,
87.000000=308.000000,
87.500000=154.000000,
87.750000=308.000000,
88.250000=154.000000,
88.500000=308.000000,
89.000000=154.000000,
89.250000=308.000000,
89.750000=154.000000,
90.000000=308.000000,
90.500000=154.000000,
90.750000=308.000000,
91.250000=154.000000,
91.500000=308.000000,
92.000000=154.000000,
92.250000=308.000000,
92.750000=154.000000,
93.000000=308.000000,
93.500000=154.000000,
93.750000=308.000000,
94.250000=154.000000,
94.500000=308.000000,
95.000000=154.000000,
95.250000=308.000000,
95.750000=154.000000,
96.000000=308.000000,
96.500000=154.000000,
96.750000=308.000000,
97.250000=154.000000,
97.500000=308.000000,
98.000000=154.000000,
98.250000=308.000000,
98.750000=154.000000,
99.000000=308.000000,
99.500000=154.000000,
99.750000=308.000000,
100.250000=154.000000,
100.500000=308.000000,
101.000000=154.000000,
101.250000=308.000000,
101.750000=154.000000,
102.000000=308.000000,
102.500000=154.000000,
102.750000=308.000000,
103.250000=154.000000,
103.500000=308.000000,
104.000000=154.000000,
104.250000=308.000000,
104.750000=154.000000,
105.000000=308.000000,
105.500000=154.000000,
105.750000=308.000000,
106.250000=154.000000,
106.500000=308.000000,
107.000000=154.000000,
107.250000=308.000000,
107.750000=154.000000,
108.000000=308.000000,
108.500000=154.000000,
108.750000=308.000000,
109.250000=154.000000,
109.500000=308.000000,
110.000000=154.000000,
110.250000=308.000000,
110.750000=154.000000,
111.000000=308.000000,
111.500000=154.000000,
111.750000=308.000000,
112.250000=154.000000,
112.500000=308.000000,
114.500000=154.000000,
114.750000=308.000000,
115.250000=154.000000,
115.500000=308.000000,
116.000000=154.000000,
116.250000=308.000000,
116.750000=154.000000,
117.000000=308.000000,
117.500000=154.000000,
117.750000=308.000000,
118.250000=154.000000,
118.500000=308.000000,
119.000000=154.000000,
119.250000=308.000000,
119.750000=154.000000
;
#STOPS:;
#TIMESIGNATURES:0.000000=4=4;
#BGCHANGES:;
#FGCHANGES:;
#ATTACKS:;
#SPEEDS:0.000000=1.000000=0.000000=0;
#SCROLLS:0.000000=1.000000;
#TAGS:;
#PREVIEWVID:;
#KEYSOUNDS:;

//---------------dance-single - ---------------
#NOTES:
     dance-single:
     :
     Challenge:
     18:
     1.106019,1.107525,0.713660,0.486586,1.838215,716.000000,650.000000,66.000000,45.000000,0.000000,0.000000,0.000000,0.000000,0.000000,1.106019,1.107525,0.713660,0.486586,1.838215,716.000000,650.000000,66.000000,45.000000,0.000000,0.000000,0.000000,0.000000,0.000000:
// measure 0
0000
0000
0000
0000
,  // measure 1
0000
0000
0000
0000
,  // measure 2
1100
0000
1000
0000
0001
1000
0001
1000
0100
0010
0001
0010
0100
1000
0001
0100
,  // measure 3
0010
1000
0100
0010
1000
0010
0100
1000
0100
0010
0001
0100
1000
0100
0000
0000
,  // measure 4
0001
0010
0100
0001
0100
0010
0001
0100
1000
0100
0010
1000
0100
0001
0100
1000
,  // measure 5
0001
0100
0010
1000
0010
0100
0001
0010
0100
1000
0010
0100
0001
0010
1000
0010
,  // measure 6
0011
0000
0001
0000
0100
1000
0100
0001
0010
0100
1000
0010
0001
0010
1000
0100
,  // measure 7
0001
1000
0001
0100
1000
0010
0100
1000
0001
1000
0100
0010
1000
0001
0000
0000
,  // measure 8
0010
0100
1000
0010
0001
0010
0100
0001
0010
1000
0010
0100
1000
0010
0100
0001
,  // measure 9
0010
0100
1000
0010
0100
0001
0010
0100
1000
0010
0100
0001
0010
0100
1000
0001
,  // measure 10
1001
0101
1001
1100
1001
0110
0000
0220
,  // measure 11
0330
0110
1010
1001
0011
0220
0330
2200
,  // measure 12
3300
1100
1001
0101
0110
1010
1001
0011
,  // measure 13
0110
0000
1100
0000
1001
0000
0101
0000
0001
0100
0010
0000
1000
0100
0001
0100
,  // measure 14
1000
1100
1001
0101
0110
2020
3030
0202
,  // measure 15
0303
0011
1010
0011
0101
0220
0330
0110
,  // measure 16
1010
1001
0011
0110
0011
0101
0110
1010
,  // measure 17
1001
0000
1000
0001
0100
0000
0001
0000
0110
0000
0010
0000
1010
0000
1000
0000
,  // measure 18
0001
0000
0100
0010
0000
1000
0100
0000
0010
0001
0000
0100
1000
0000
0100
0010
,  // measure 19
0000
1000
0100
0000
0001
0100
0000
1000
0010
0000
0001
0010
0000
0100
0001
0000
,  // measure 20
0010
0100
0000
1000
0010
0000
0001
0010
0000
0100
0001
0000
0010
0100
0000
1000
,  // measure 21
0010
0000
0100
0001
0000
0010
1000
0000
0010
0100
0000
1000
0010
0000
0001
0010
,  // measure 22
0000
0100
0001
0000
0010
1000
0000
0010
0100
0000
1000
0010
0000
0100
0001
0000
,  // measure 23
0010
1000
0000
0010
0001
0000
0100
1000
0000
0100
0001
0000
0010
0100
0000
1000
,  // measure 24
0001
0000
0100
1000
0000
0100
0001
0000
1000
0100
0000
0001
0100
0000
0010
0001
,  // measure 25
0000
0100
1000
0000
0100
0010
0000
1000
0001
0000
0010
0100
0000
1000
0010
0000
,  // measure 26
0001
0010
0000
0100
0001
0000
0010
1000
0000
0010
0100
0000
1000
0010
0000
0100
,  // measure 27
0001
0000
1000
0100
0000
0010
0001
0000
0100
0010
0000
1000
0100
0000
0010
0001
,  // measure 28
0000
0100
0110
0000
0000
0000
0000
0000
0000
0000
0100
0001
0000
0010
0100
0000
,  // measure 29
1000
0010
0000
0001
0010
0000
0100
0010
0000
1000
0010
0000
0100
0001
0000
0010
,  // measure 30
0100
1000
0000
0001
0000
1001
0000
0001
0000
2000
0000
3200
0000
0320
0000
0032
,  // measure 31
0000
0103
0000
0010
0000
0110
0000
0010
0000
0200
0000
0302
0000
0023
0000
0230
,  // measure 32
0000
1300
0000
0010
0000
0110
0000
0010
0000
0200
0000
0302
0000
2003
0000
3200
,  // measure 33
0000
0310
0000
0100
1000
0000
1000
0010
0000
0100
0010
1000
0001
0010
0100
1000
,  // measure 34
0001
0100
0000
0010
0000
0110
0000
0010
0000
0200
0000
0302
0000
0023
0000
0230
,  // measure 35
0000
1300
0000
0001
0000
1001
0000
0001
0000
2000
0000
3020
0000
0230
0000
0302
,  // measure 36
0000
0013
0000
0010
0001
0000
0001
0100
0000
1000
0000
1000
0100
0000
0100
0010
,  // measure 37
0000
0011
0000
1001
0000
1010
0000
1001
0000
0101
0000
0110
0000
1010
0000
1001
,  // measure 38
0000
0011
0000
0001
0010
0000
0010
0100
0000
0100
1000
0010
0100
0001
1000
0100
,  // measure 39
0010
0001
0000
0001
0010
0000
0010
0100
0000
0100
1000
0010
0100
1000
0100
0001
,  // measure 40
0010
0100
0000
0100
1000
0000
1000
0010
0000
0100
0010
1000
0001
0010
0100
1000
,  // measure 41
0001
0100
0000
0100
0001
0000
0001
1000
0000
1000
0100
0001
0100
1000
0010
0100
,  // measure 42
0001
0010
0000
0010
0100
0000
0100
1000
0000
1000
0010
0100
1000
0100
0010
1000
,  // measure 43
0100
0010
0000
0010
0001
0000
0001
0100
0000
1000
0100
0001
0010
0100
1000
0010
,  // measure 44
0100
0001
0000
0001
0010
0000
0010
0100
0000
0100
1000
0010
0100
0001
0010
1000
,  // measure 45
0010
0100
0000
0100
1000
0000
1000
0010
0000
0010
0100
0001
0010
0100
0001
0100
,  // measure 46
0010
0001
0000
0001
1000
0000
1000
0010
0000
2000
0000
0000
0000
3001
0000
0000
,  // measure 47
0000
1000
0000
1000
0100
0010
0000
0010
0001
0100
0000
0100
0010
1000
0000
1000
,  // measure 48
0001
0020
0000
0032
0000
0203
0000
0320
0000
2030
0000
3020
0000
0230
0000
0302
,  // measure 49
0000
0013
0000
0010
0100
0000
0100
1000
0000
0001
0000
0001
0100
0000
0100
0010
,  // measure 50
0000
2000
0000
0010
0000
0100
0000
0001
0000
3100
1000
0010
0100
0001
0010
0100
,  // measure 51
1000
0001
0000
0010
0000
0100
0010
0001
0100
1000
0100
0010
1000
0001
0010
0100
,  // measure 52
1000
0010
0001
0010
0100
0001
0010
1000
0010
0100
1000
0010
0100
0001
2000
3000
,  // measure 53
0000
0100
1000
0010
0100
1000
0100
0010
1000
0100
0001
0100
1000
0010
0100
0001
,  // measure 54
0010
0100
1000
0010
0100
0001
0010
0100
0010
0001
0100
0010
1000
0100
0010
0001
,  // measure 55
0100
0110
0000
0010
0000
1000
0010
0100
1000
0100
0001
0010
0100
1000
0010
0100
,  // measure 56
1000
0100
0010
1000
0100
0001
0100
1000
0010
0100
0001
0010
0100
1000
0001
0000
,  // measure 57
0000
0100
0000
1000
0100
0001
0010
0100
1000
0010
0001
0010
1000
0100
0010
0001
,  // measure 58
0100
0010
1000
0100
0010
0001
0100
1000
0100
0001
1000
0100
0001
0100
0010
0001
,  // measure 59
1000
2020
0000
0000
0000
0000
0000
0000
0000
0000
0000
0000
0000
0000
0000
0000
,  // measure 60
0000
0000
0000
0000
,  // measure 61
3030
0000
0000
0000
;

//---------------dance-double - ---------------
#NOTES:
     dance-double:
     :
     Challenge:
     18:
     0,0,0,0,0:
// measure 0
00000000
00000000
00000000
00000000
,  // measure 1
00000000
00000000
00000000
00000000
,  // measure 2
00011000
00000000
00001000
00000000
00010000
00000100
00000010
00000001
00000100
00000010
00010000
00001000
00100000
01000000
10000000
00010000
,  // measure 3
01000000
10000000
01000000
00010000
00100000
01000000
10000000
00100000
00010000
00100000
01000000
00001000
00010000
00000200
00000300
00000000
,  // measure 4
00000100
00001000
00000010
00000100
00000001
00000010
00000100
00001000
00000010
00010000
00001000
00100000
01000000
10000000
00100000
01000000
,  // measure 5
00010000
00100000
01000000
10000000
00100000
01000000
00001000
00010000
00000100
00000010
00000001
00000100
00000010
00000100
00000001
00001000
,  // measure 6
00000100
00000000
00000010
00000000
00000100
00001000
00000010
00000100
00000001
00000010
00001000
00000010
00000100
00010000
00000010
00000100
,  // measure 7
00001000
00000100
00000001
00001000
00000100
00000010
00001000
00010000
00100000
01000000
00010000
10000000
01000000
00200000
00300000
00000000
,  // measure 8
01000000
10000000
00010000
01000000
00001000
00010000
00000010
00000100
00000001
00000010
00000100
00001000
00000010
00010000
00001000
00100000
,  // measure 9
01000000
10000000
00100000
01000000
00010000
00100000
00001000
00010000
00000010
00000100
00000001
00000010
00000100
00001000
00000010
00000100
,  // measure 10
00000001
00000101
00001100
00000101
00000011
00000220
00000330
00002200
,  // measure 11
00003300
00001100
00001010
00000110
00001010
00002002
00003003
00000022
,  // measure 12
00000033
00000011
00000110
00001100
00011000
00110000
01100000
11000000
,  // measure 13
10010000
00000000
01010000
00000000
10010000
00000000
11000000
00000000
01000000
10000000
00010000
00000000
01000000
00010000
10000000
01000000
,  // measure 14
00100000
00110000
11000000
00110000
00011000
00002200
00003300
00000022
,  // measure 15
00000033
00000101
00001010
00011000
01010000
02200000
03300000
01100000
,  // measure 16
10100000
00100000
01100000
01000000
01010000
00010000
00110000
00100000
,  // measure 17
00101000
00000000
00001000
00010000
00000010
00000000
00000100
00000000
00000110
00000000
00000010
00000000
00010010
00000000
00010000
00000000
,  // measure 18
00001000
00000000
00010000
00000100
00000000
00010000
00001000
00000000
00100000
01000000
00000000
10000000
00010000
00000000
01000000
10000000
,  // measure 19
00000000
01000000
00100000
00000000
10000000
01000000
00000000
00010000
01000000
00000000
10000000
00010000
00000000
01000000
00001000
00000000
,  // measure 20
00010000
00000010
00000000
00000100
00000001
00000000
00000010
00000100
00000000
00001000
00000010
00000000
00010000
00001000
00000000
00100000
,  // measure 21
01000000
00000000
10000000
00100000
00000000
00010000
00100000
00000000
01000000
00010000
00000000
10000000
01000000
00000000
00010000
01000000
,  // measure 22
00000000
10000000
00100000
00000000
01000000
00001000
00000000
00010000
00000010
00000000
00000100
00000001
00000000
00000010
00000100
00000000
,  // measure 23
00001000
00000010
00000000
00000100
00001000
00000000
00000100
00000001
00000000
00001000
00000100
00000000
00000010
00001000
00000000
00000010
,  // measure 24
00000100
00000000
00001000
00000010
00000000
00010000
00001000
00000000
00100000
01000000
00000000
10000000
00100000
00000000
01000000
10000000
,  // measure 25
00000000
01000000
00010000
00000000
10000000
01000000
00000000
00010000
01000000
00000000
10000000
00100000
00000000
00001000
00100000
00000000
,  // measure 26
01000000
00010000
00000000
10000000
01000000
00000000
00010000
00001000
00000000
00000100
00000010
00000000
00001000
00000100
00000000
00000010
,  // measure 27
00000001
00000000
00000100
00001000
00000000
00000100
00000010
00000000
00010000
00001000
00000000
00100000
01000000
00000000
10000000
00100000
,  // measure 28
00000000
01000000
02200000
00000000
00000000
00000000
03300000
00000000
00000000
00000000
01000000
00010000
00000000
00100000
01000000
00000000
,  // measure 29
10000000
00100000
00000000
00010000
00100000
00000000
10000000
01000000
00000000
00100000
00010000
00000000
01000000
00001000
00000000
00010000
,  // measure 30
00000010
00000100
00000000
00000001
00000000
00001001
00000000
00000001
00000000
00000100
00000000
00001000
00000000
00010000
00000000
01000000
,  // measure 31
00000000
10000000
00000000
00010000
00000000
10010000
00000000
10000000
00000000
01000000
00000000
00100000
00000000
00010000
00000000
00000010
,  // measure 32
00000000
00000001
00000000
00000100
00000000
00001000
00000000
00000100
00000000
00000001
00000000
00000010
00000000
00000100
00000000
00001000
,  // measure 33
00000000
00001010
00000000
00000010
00001000
00000000
00001000
00010000
00000000
00001000
00010000
01000000
10000000
01000000
00100000
00010000
,  // measure 34
01000000
00100000
00000000
10000000
00000000
10100000
00000000
10000000
00000000
01000000
00000000
00010000
00000000
00001000
00000000
00000100
,  // measure 35
00000000
00000001
00000000
00001000
00000000
00001001
00000000
00000001
00000000
00000100
00000000
00000010
00000000
00001000
00000000
00100000
,  // measure 36
00000000
10000000
00000000
10000000
00100000
00000000
00100000
01000000
00000000
00010000
00000000
10000000
01000000
00000000
01000000
00100000
,  // measure 37
00000000
00110000
00000000
01100000
00000000
11000000
00000000
01100000
00000000
00110000
00000000
00100010
00000000
00001010
00000000
00001001
,  // measure 38
00000000
00000011
00000000
00000001
00000010
00000000
00000010
00000100
00000000
00000100
00001000
00000010
00010000
00001000
00100000
01000000
,  // measure 39
10000000
00010000
00000000
00010000
10000000
00000000
10000000
00100000
00000000
01000000
00100000
10000000
00010000
00100000
01000000
10000000
,  // measure 40
00010000
01000000
00000000
01000000
10000000
00000000
10000000
01000000
00000000
01000000
00010000
00100000
01000000
10000000
00100000
01000000
,  // measure 41
00010000
00100000
00000000
00100000
01000000
00000000
01000000
10000000
00000000
10000000
00100000
01000000
10000000
01000000
00100000
10000000
,  // measure 42
01000000
00100000
00000000
00100000
00010000
00000000
00010000
01000000
00000000
01000000
00001000
00010000
00000100
00000010
00000001
00000100
,  // measure 43
00000010
00001000
00000000
00001000
00000010
00000000
00000010
00000100
00000000
00000100
00000001
00000010
00000100
00001000
00000001
00000100
,  // measure 44
00001000
00000100
00000000
00000100
00000010
00000000
00000010
00001000
00000000
00001000
00000001
00000010
00000100
00001000
00000001
00000100
,  // measure 45
00001000
00000100
00000000
00000100
00000001
00000000
00000001
00000010
00000000
00000100
00000010
00000001
00000100
00000010
00001000
00000001
,  // measure 46
00000010
00000100
00000000
00000100
00000010
00000000
00000010
00000001
00000000
00000002
00000000
00000000
00000000
00010003
00000000
00000000
,  // measure 47
00000000
00001000
00000000
00010000
00001000
00100000
00000000
00001000
00010000
00000100
00000000
00010000
00001000
10000000
00000000
00001000
,  // measure 48
00010000
00000002
00000000
00000000
00000000
00000010
00000000
00000000
00000000
00000100
00000000
00000000
00000000
00000013
00000000
00000000
,  // measure 49
00000000
00000100
00000000
00000100
00000010
00000000
00000010
00010000
00000000
00001000
00000000
01000000
00010000
00000000
00010000
00100000
,  // measure 50
00000000
01000000
00100000
01000000
00100000
01000000
00100000
01000000
00100000
00010000
01000000
00100000
10000000
00010000
00100000
01000000
,  // measure 51
00100000
00010000
00000000
01000000
00000000
10000000
01000000
00010000
00100000
01000000
10000000
00010000
01000000
10000000
01000000
00010000
,  // measure 52
00100000
01000000
10000000
00010000
01000000
00001000
00010000
00000100
00001000
00000001
00000010
00000100
00001000
00000001
00001000
00000000
,  // measure 53
00000000
00000001
00000010
00000100
00001000
00000001
00000100
00001000
00000100
00000010
00001000
00000100
00000010
00000001
00000100
00001000
,  // measure 54
00000100
00000010
00010000
00001000
00100000
00001000
00010000
00000100
00010000
00001000
01000000
00001000
00010000
00000100
00000010
00000001
,  // measure 55
00000100
00000010
00000000
00001000
00000000
00000100
00001000
00000010
00000100
00000001
00001000
00000100
00010000
00001000
00100000
00010000
,  // measure 56
01000000
00100000
10000000
00010000
00100000
01000000
10000000
00010000
01000000
10000000
01000000
00100000
10000000
01000000
00100000
00000000
,  // measure 57
00000000
01000000
10000000
00100000
01000000
00001000
00010000
00000010
00000100
00000001
00000010
00000100
00001000
00000001
00000100
00001000
,  // measure 58
00000100
00000001
00000010
00000100
00001000
00000010
00000100
00000001
00001000
00000100
00010000
00001000
01000000
00100000
01000000
00010000
,  // measure 59
10000000
20020000
00000000
00000000
00000000
00000000
00000000
00000000
00000000
00000000
00000000
00000000
00000000
00000000
00000000
00000000
,  // measure 60
00000000
00000000
00000000
00000000
,  // measure 61
30030000
00000000
00000000
00000000
;

//---------------para-single - ---------------
#NOTEDATA:;
#CHARTNAME:PARAPARA chart;
#CHARTSTYLE:;
#CREDIT:D.U.S;
#STEPSTYPE:para-single;
#DESCRIPTION:;
#DIFFICULTY:Beginner;
#METER:4;
#METERF:4.000000;
#RADARVALUES:0.273415,0.412923,0.183822,0.162195,0.070285,177.000000,160.000000,17.000000,15.000000,0.000000,1.000000,0.000000,0.000000,0.000000,0.273415,0.412923,0.183822,0.162195,0.070285,177.000000,160.000000,17.000000,15.000000,0.000000,1.000000,0.000000,0.000000,0.000000;
#NOTES:
#CHARTHASH:2999011433;
#BANNER:;
#LASTSECONDHINT:85.316429;
#NOTES:
00000
00000
00000
00000
,
00000
00000
00000
00000
,
00010
01000
00001
10000
,
01000
00010
10000
00001
,
00000
02000
00000
03010
,
00000
00000
00000
01010
,
00010
01000
00001
10000
,
01000
00010
10000
00001
,
00000
02000
00000
03010
,
00000
00000
00000
01010
,
00010
00100
01000
10000
,
01000
00100
00010
00001
,
00000
10000
00000
00001
,
00000
00000
02020
03030
,
00010
00100
01000
10000
,
01000
00100
00010
00001
,
00000
10000
00000
00001
,
00200
00000
00000
00000
00000
00000
00000
00000
01310
10001
00000
00000
00000
00000
00000
00000
,
01000
00000
00000
00010
00000
00000
00010
00100
,
01000
00000
00000
00000
00010
00000
00000
01000
,
00000
00000
01000
00100
00010
00000
00000
01000
,
00000
00000
00000
00000
00000
01000
00000
00000
,
00000
00000
00000
00010
00000
00000
00000
00000
,
00000
00010
00000
00000
00000
00000
00000
01000
,
00000
00000
00010
00000
00000
00010
00100
01000
,
00000
00000
00000
00010
00000
00000
01000
00000
,
00000
01000
00100
00010
00000
00000
00000
01000
,
00000
00000
00000
00000
00000
01000
00000
00000
,
00000
00000
00010
00000
,
00000
00010
00000
00000
,
10000
00000
00001
00100
,
00001
00000
00000
00100
,
01000
00010
01000
00010
,
00100
00100
00020
00030
,
10000
00000
00001
00100
,
00001
00000
10000
00100
,
20000
00000
00002
30003
,
01000
00010
01000
00010
01000
00010
01000
00010
,
02000
00000
00000
00000
00000
00000
00020
00000
00000
00000
00000
00000
03030
10001
00000
00000
00000
00000
00000
00000
00000
00000
00000
00000
00000
00000
00000
00000
00000
00000
00000
00000
,
01000
00100
00010
00001
,
00010
00100
01000
10000
,
01010
00000
10001
00000
,
01010
00000
10001
00000
,
00010
00100
01000
10000
,
01000
00100
00010
00001
,
01010
00000
10001
00000
,
01010
00000
10001
00000
,
00000
00000
02000
03000
,
00100
00010
00001
00000
,
00010
10000
01000
00001
,
02020
00000
00000
00000
00000
00000
00000
00000
03030
00000
00000
00000
00000
00000
00000
00000
00000
00000
00000
00000
00000
00000
00000
00000
00000
00000
00000
00000
00000
00000
00000
00010
,
00000
00000
00000
00000
00000
00000
00000
01000
00000
00000
00000
00000
00000
00000
00000
00001
00000
00000
00000
00000
00000
00000
00000
10000
00000
00000
00000
00000
00000
00000
00000
01000
,
00000
00000
00000
00000
00000
00000
00000
00010
00000
00000
00000
00000
00000
00000
00000
10000
00000
00000
00000
00000
00000
00000
00000
00001
00000
00000
00000
00000
00000
00000
00000
00000
,
00000
00000
00000
00000
00000
00000
00000
02000
00000
00000
00000
00000
00000
00000
00000
00000
00000
00000
00000
00000
00000
00000
00000
03010
00000
00000
00000
00000
00000
00000
00000
00000
,
00000
00000
00000
01010
,
00010
01000
00001
10000
,
01000
00010
10000
00001
,
00000
02000
00000
03010
,
00000
00000
00000
01010
;
