#TITLE:Get'em up to R.A.V.E;
#SUBTITLE:;
#ARTIST:Disconation;
#MUSIC:Get'em up to R.A.V.E.ogg;
#BANNER:Get'em up to R.A.V.E.png;
#BACKGROUND:Get'em up to R.A.V.E-bg.png;
#LYRICSPATH:;
#CDTITLE:;
#SAMPLESTART:58.366;
#SAMPLELENGTH:13.241;
#OFFSET:-5.4;
#BPMS:0.000000=145.000000;
#STOPS:;
#TIMESIGNATURES:0.000000=4=4;
#BGCHANGES:;
#FGCHANGES:;
#ATTACKS:;
#SPEEDS:0.000000=1.000000=0.000000=0;
#SCROLLS:0.000000=1.000000;
#KEYSOUNDS:;

//---------------dance-single - ---------------
#NOTES:
     dance-single:
     :
     Beginner:
     4:
     0,0,0,0,0:
// measure 0
0000
0000
0000
0000
,  // measure 1
0000
0000
0000
0000
,  // measure 2
0000
0000
0000
0000
,  // measure 3
0000
0000
0000
0000
,  // measure 4
1000
0000
1000
0000
,  // measure 5
0001
0000
0001
0000
,  // measure 6
0010
0000
0010
0000
,  // measure 7
0100
0100
0100
0100
,  // measure 8
0100
0000
1000
0000
,  // measure 9
0010
0000
0100
0000
,  // measure 10
0010
0000
1000
0000
,  // measure 11
0010
0000
0100
0000
,  // measure 12
0001
0001
0001
0000
,  // measure 13
0010
0000
0100
0000
,  // measure 14
0010
0010
0010
0000
,  // measure 15
0220
0000
0330
0000
,  // measure 16
2000
0000
3000
0000
,  // measure 17
0002
0000
0003
0000
,  // measure 18
0200
0000
0300
0000
,  // measure 19
0020
0000
0030
0000
,  // measure 20
2000
0000
3000
0000
,  // measure 21
0020
0000
0030
0000
,  // measure 22
2000
0000
3000
0000
,  // measure 23
0200
0000
0300
0000
,  // measure 24
1000
0000
1000
0000
,  // measure 25
0001
0000
0001
0000
,  // measure 26
0010
0000
0010
0000
,  // measure 27
0100
0000
0100
0000
,  // measure 28
0010
0000
0010
0000
,  // measure 29
0001
0000
0001
0000
,  // measure 30
1000
0000
1000
0000
,  // measure 31
0100
0000
0010
0010
,  // measure 32
0010
0010
0010
0000
,  // measure 33
0001
0001
0001
0000
,  // measure 34
1000
1000
1000
0000
,  // measure 35
0010
0010
0010
0000
,  // measure 36
0100
0100
0100
0000
,  // measure 37
0001
0001
0001
0000
,  // measure 38
1000
1000
1000
0000
,  // measure 39
0010
0010
0010
0000
,  // measure 40
0100
0100
0100
0000
,  // measure 41
0010
0010
0010
0000
,  // measure 42
1000
1000
1000
0000
,  // measure 43
0001
0001
0001
0000
,  // measure 44
0010
0010
0010
0000
,  // measure 45
0001
0001
0001
0000
,  // measure 46
1000
1000
1000
0000
,  // measure 47
0010
0010
0010
0000
,  // measure 48
0100
0100
0100
0000
,  // measure 49
0100
0000
0001
0000
,  // measure 50
1000
1000
1000
0000
,  // measure 51
1000
0000
0010
0000
,  // measure 52
0100
0100
0100
0000
,  // measure 53
0100
0000
0010
0000
,  // measure 54
1000
1000
1000
0000
,  // measure 55
1000
0000
0001
0000
,  // measure 56
2002
0000
0000
0000
,  // measure 57
0000
0000
3003
0000
,  // measure 58
1000
1000
1000
0000
,  // measure 59
0010
0000
0010
0000
,  // measure 60
0100
0100
0100
0000
,  // measure 61
0010
0000
0010
0000
,  // measure 62
0001
0001
0001
0000
,  // measure 63
0010
0000
0010
0000
,  // measure 64
0100
0100
0100
0000
,  // measure 65
1000
0000
1000
0000
,  // measure 66
0010
0010
0010
0000
,  // measure 67
0100
0000
0100
0000
,  // measure 68
0001
0001
0001
0000
,  // measure 69
0010
0000
0010
0000
,  // measure 70
0100
0100
0100
0000
,  // measure 71
1000
0000
1000
0000
,  // measure 72
0001
0001
0001
0000
,  // measure 73
0100
0000
0100
0000
,  // measure 74
0110
0000
0000
0000
;

//---------------dance-single - ---------------
#NOTES:
     dance-single:
     :
     Easy:
     8:
     0,0,0,0,0:
// measure 0
0000
0000
0000
0000
,  // measure 1
0000
0000
0000
0000
,  // measure 2
0000
0000
0000
0000
,  // measure 3
0000
0000
0000
0000
,  // measure 4
1000
0010
0100
0010
,  // measure 5
1000
0100
0010
0100
,  // measure 6
1000
0001
0100
0010
,  // measure 7
1010
0101
0011
1100
,  // measure 8
1000
0010
0001
0010
,  // measure 9
0100
0001
0010
0100
,  // measure 10
1000
0010
0100
0010
,  // measure 11
1000
0001
0010
0100
,  // measure 12
1000
1000
0010
0100
,  // measure 13
0001
0001
0010
0100
,  // measure 14
1000
0010
0100
0010
,  // measure 15
2020
0000
0000
3030
,  // measure 16
1010
0010
0100
0001
,  // measure 17
1000
0100
0001
0100
,  // measure 18
1000
0010
0100
0001
,  // measure 19
0010
0100
1000
0010
,  // measure 20
0100
0010
1000
0001
,  // measure 21
0010
0100
1000
0001
,  // measure 22
0200
0001
0310
0010
,  // measure 23
1000
0100
0010
0001
,  // measure 24
0101
0100
0010
1000
,  // measure 25
0100
0001
0100
1000
,  // measure 26
0010
0100
0001
0010
,  // measure 27
0100
1000
0010
0100
,  // measure 28
0001
0010
1000
0010
,  // measure 29
0100
1000
0010
0100
,  // measure 30
0002
1000
0103
0010
,  // measure 31
0220
0330
0100
0001
,  // measure 32
0101
1010
0101
1000
,  // measure 33
1100
0011
1100
0010
,  // measure 34
0110
1001
0110
0100
,  // measure 35
0101
1010
0101
1000
,  // measure 36
1100
0011
1100
0001
,  // measure 37
0101
1010
0101
1000
,  // measure 38
1010
0011
1010
1000
,  // measure 39
1100
0101
1100
1000
,  // measure 40
0001
0100
0010
0100
,  // measure 41
0001
1000
0010
1000
,  // measure 42
0100
1000
0010
0100
,  // measure 43
0001
1000
0010
0100
,  // measure 44
0001
0010
0100
0010
,  // measure 45
0001
0100
1000
0100
,  // measure 46
0010
1000
0100
0010
,  // measure 47
0100
1000
0010
0100
,  // measure 48
0101
0101
0001
0100
,  // measure 49
1000
0100
0001
0010
,  // measure 50
0011
0011
0010
0100
,  // measure 51
1000
0100
0010
0001
,  // measure 52
1001
1001
0001
0100
,  // measure 53
1000
0100
0010
1000
,  // measure 54
1010
1010
1000
0100
,  // measure 55
0010
0001
0100
1000
,  // measure 56
0200
0000
0302
0000
,  // measure 57
2000
0000
0000
3003
,  // measure 58
1001
1000
0100
0010
,  // measure 59
0001
0010
0100
1000
,  // measure 60
0010
0100
1000
0100
,  // measure 61
0010
1000
0010
0100
,  // measure 62
0001
0010
0100
0010
,  // measure 63
0001
1000
0010
0100
,  // measure 64
0010
1000
0001
0010
,  // measure 65
0100
0010
0001
0100
,  // measure 66
0101
0100
0010
1000
,  // measure 67
0100
0001
0100
1000
,  // measure 68
1100
1000
0010
0100
,  // measure 69
0001
0010
1000
0010
,  // measure 70
0011
0010
0100
1000
,  // measure 71
0010
0001
0010
1000
,  // measure 72
1010
1000
0100
0010
,  // measure 73
0001
0100
1000
0100
,  // measure 74
0101
0000
0000
0000
;

//---------------dance-single - ---------------
#NOTES:
     dance-single:
     :
     Medium:
     13:
     0,0,0,0,0:
// measure 0
0000
0000
0000
0000
,  // measure 1
0000
0000
0000
0000
,  // measure 2
0000
0000
0000
0000
,  // measure 3
0000
0000
0000
0000
,  // measure 4
1000
0000
0010
0000
0100
0001
0010
0000
,  // measure 5
0100
0000
0010
0000
0001
0100
0010
0000
,  // measure 6
1000
0000
0100
0000
0010
0100
1000
0000
,  // measure 7
1100
0000
0011
0000
1100
0100
0110
0010
,  // measure 8
0011
0000
0101
0000
0001
0100
1000
0000
,  // measure 9
1000
0100
0010
0000
0010
1000
0001
0000
,  // measure 10
1000
0000
0000
0100
0000
0000
0001
0000
0000
0100
0000
0000
1000
0000
0000
0000
,  // measure 11
2001
0100
0001
3010
,  // measure 12
1010
0010
1010
0000
0010
1000
0001
0000
,  // measure 13
0010
0000
0100
0000
0010
0001
1000
0000
,  // measure 14
0010
0000
0000
0001
0000
0000
0010
0000
0000
0100
0000
0000
0001
0000
0000
0000
,  // measure 15
2002
0000
3003
0110
,  // measure 16
1001
0000
1000
0000
0010
0100
0001
0000
,  // measure 17
0010
0000
0100
0000
0010
0001
1000
0000
,  // measure 18
0010
0000
0100
0000
0001
1000
0100
0000
,  // measure 19
0020
0001
1000
0031
,  // measure 20
0001
0000
0100
0000
0010
0100
0001
0000
,  // measure 21
1000
0000
0001
0000
0010
0100
0010
0001
,  // measure 22
2000
0001
0100
3010
,  // measure 23
0010
0000
0100
0000
0001
0001
1000
1000
,  // measure 24
0100
0000
1000
0000
0010
0100
0001
0000
,  // measure 25
1000
0000
0100
0000
0001
0100
1000
0000
,  // measure 26
0001
0000
0100
0000
0010
0100
0001
0000
,  // measure 27
1000
0000
0001
0000
0010
0001
1000
0000
,  // measure 28
0200
0000
0310
0010
0001
0000
0100
0000
,  // measure 29
1000
0000
0100
0000
0010
1000
0100
0010
,  // measure 30
0002
1000
0100
0013
,  // measure 31
0022
0000
0033
0000
0001
0010
0100
0010
,  // measure 32
0011
0000
0011
0000
0001
0010
0100
0000
,  // measure 33
1100
0000
1100
0000
0100
1000
0001
0000
,  // measure 34
1001
0000
1001
0000
1000
0001
0010
0000
,  // measure 35
0011
0000
0011
0000
0001
0010
0100
0000
,  // measure 36
0110
0000
0110
0000
0100
1000
0001
0000
,  // measure 37
1001
0000
1001
0000
1000
0010
0100
0000
,  // measure 38
0110
0000
0110
0000
0100
0001
0010
0000
,  // measure 39
0011
0000
0011
0000
0001
0010
0100
0000
,  // measure 40
1000
0000
0000
1000
0000
0000
0010
0000
0000
0010
0000
0000
0200
0000
0000
0000
,  // measure 41
0301
0000
0000
0001
0000
0000
0010
0000
0000
0010
0000
0000
0200
0000
0000
0000
,  // measure 42
1300
0000
0000
1000
0000
0000
0001
0000
0000
0001
0000
0000
0020
0000
0000
0000
,  // measure 43
0031
0000
0000
0001
0000
0000
0100
0000
0000
0100
0000
0000
0020
0000
0000
0000
,  // measure 44
1030
0000
0000
1000
0000
0000
0001
0000
0000
0001
0000
0000
0200
0000
0000
0000
,  // measure 45
0310
0000
0000
0010
0000
0000
1000
0000
0000
1000
0000
0000
0002
0000
0000
0000
,  // measure 46
0013
0000
0000
0010
0000
0000
0100
0000
0000
0100
0000
0000
2000
0000
0000
0000
,  // measure 47
3001
0000
0000
0001
0000
0000
0100
0000
0000
0100
0000
0000
0020
0000
0030
0000
,  // measure 48
0220
0330
0220
0330
0100
0001
1000
0000
,  // measure 49
0100
1000
0001
0000
0010
0001
0100
0000
,  // measure 50
0202
0303
0202
0303
0001
0100
1000
0000
,  // measure 51
1000
0100
0001
0000
0010
0100
1000
0000
,  // measure 52
2200
3300
2200
3300
0100
1000
0010
0000
,  // measure 53
0100
0001
0010
0000
1000
0010
0001
0000
,  // measure 54
0022
0033
0022
0033
0001
0100
0010
0000
,  // measure 55
1000
0010
0100
0000
0001
1000
0100
0010
,  // measure 56
0002
0000
2003
0000
,  // measure 57
0020
0000
0000
3030
,  // measure 58
1010
0000
0101
0000
0001
1000
0100
0000
,  // measure 59
0100
0100
1000
1000
0010
0010
0100
0000
,  // measure 60
0101
0000
1010
0000
1000
0100
0010
0000
,  // measure 61
0010
0010
0001
0001
0100
0100
0010
0000
,  // measure 62
0110
0000
1001
0000
1000
0100
0001
0000
,  // measure 63
0100
0100
1000
1000
0001
0001
0100
0000
,  // measure 64
0101
0000
1010
0000
1000
0001
0010
0000
,  // measure 65
0010
0010
0100
0100
1000
1000
0001
0000
,  // measure 66
1001
0000
0110
0000
0100
0001
0010
0000
,  // measure 67
0100
0100
1000
1000
0001
0001
0100
0000
,  // measure 68
0101
0000
1010
0000
1000
0100
0010
0000
,  // measure 69
0001
0001
1000
1000
0010
0010
0100
0000
,  // measure 70
0101
0000
0110
0000
0100
0001
0010
0000
,  // measure 71
0100
0100
1000
1000
0010
0010
0100
0000
,  // measure 72
0110
0000
0101
0000
0001
0100
0010
0000
,  // measure 73
1000
1000
0100
0100
0010
0010
0001
0001
,  // measure 74
0011
0000
0000
0000
;

//---------------dance-single - ---------------
#NOTES:
     dance-single:
     :
     Hard:
     17:
     0,0,0,0,0:
// measure 0
0000
0000
0000
0000
,  // measure 1
0000
0000
0000
0000
,  // measure 2
0000
0000
0000
0000
,  // measure 3
0000
0000
0000
0000
,  // measure 4
0001
0000
1000
0000
0100
1000
0000
0100
1000
0000
0100
1000
0000
0100
1000
0000
,  // measure 5
0010
0000
0100
0000
0001
0100
0000
0001
0100
0000
0001
0100
0000
0001
0100
0000
,  // measure 6
0001
0000
0010
0000
0100
0010
0000
0100
0010
0000
0100
0010
0000
0100
0010
0000
,  // measure 7
0100
1000
0010
0000
0100
0001
0010
0000
0100
1000
0010
1000
0100
0010
0001
0010
,  // measure 8
0100
0000
1000
0000
0100
0010
0000
0001
0010
0000
0100
1000
0000
0001
0100
0000
,  // measure 9
0010
0000
1000
0000
0100
0001
0100
0000
0100
1000
0010
0100
1000
0000
0100
0000
,  // measure 10
0001
0010
0000
0100
1000
0000
0001
0100
0000
0010
0100
0000
0100
0001
1000
0100
,  // measure 11
0020
0000
0031
0000
0010
0100
1000
0000
0100
1000
0010
0100
0001
0000
0010
0000
,  // measure 12
0100
0100
0100
0100
0010
0000
0010
0001
0000
0100
0000
0010
0000
1000
1000
1000
,  // measure 13
0100
1000
0010
0100
0001
0010
0100
0000
0100
1000
0010
0100
0002
0000
1003
0000
,  // measure 14
0100
1000
0001
0100
0001
1000
0010
1000
0001
0010
0001
1000
0100
1000
0010
0100
,  // measure 15
0220
0000
0000
0000
0000
0330
0100
0010
,  // measure 16
0110
0000
0010
0000
0100
0010
0000
0100
0010
0000
0100
0010
0000
0100
0010
0000
,  // measure 17
1000
0000
0001
0000
1000
0001
0000
1000
0001
0000
1000
0001
0000
1000
0001
0000
,  // measure 18
0010
0000
0001
0000
0010
0001
0000
0010
0001
0000
0010
0001
0000
0010
0001
0000
,  // measure 19
0100
0000
0010
0000
0100
0010
0000
0100
0010
0000
0100
0010
0000
0100
0010
0000
,  // measure 20
1000
0000
0010
0000
1000
0010
0000
1000
0010
0000
1000
0010
0000
1000
0010
0000
,  // measure 21
0100
0000
0001
0000
0100
0001
0000
0100
0001
0000
0100
0001
0010
0000
0100
0000
,  // measure 22
2000
0000
3001
0000
2000
3001
0000
2000
3001
0000
2000
3001
0000
2000
3001
0000
,  // measure 23
0001
1000
0000
0100
0010
0000
0001
0010
0000
0100
1000
0010
0100
0001
1000
0100
,  // measure 24
0010
0000
0001
0000
0100
0010
1000
0001
0010
0000
0100
1000
0000
0001
0100
0000
,  // measure 25
0010
0000
0100
0000
0001
1000
0100
0010
0001
0000
1000
0100
0000
0010
0001
0000
,  // measure 26
0100
0000
0010
0000
1000
0100
0001
0100
1000
0000
0010
0100
0000
0001
0010
0000
,  // measure 27
0100
0000
1000
0000
0010
0100
1000
0100
0001
0000
1000
0100
0000
0010
0001
0000
,  // measure 28
0100
0000
1000
0000
0100
0010
1000
0001
0010
0000
0100
1000
0000
0001
0100
0000
,  // measure 29
1000
0000
0100
0000
0001
0010
0100
1000
0010
0000
0100
0001
1000
0000
0100
0000
,  // measure 30
0020
0000
0031
0000
0020
0130
0000
2000
3100
0000
0002
0103
0000
2000
3100
0000
,  // measure 31
2002
0000
0000
0000
3003
0000
0000
0000
1000
0010
0100
0010
0001
0010
0100
0010
,  // measure 32
1010
0000
0010
0000
0110
0000
0100
0000
0101
0000
0001
0010
0100
1000
0010
0100
,  // measure 33
0110
0000
0010
0000
1010
0000
1000
0000
1001
0000
1000
0001
0010
0100
1000
0010
,  // measure 34
1010
0000
0010
0000
0011
0000
0010
0000
0110
0000
0100
0001
0010
0100
1000
0001
,  // measure 35
1001
0000
1000
0000
1100
0000
0100
0000
0110
0000
0100
0010
0001
0100
0010
1000
,  // measure 36
1010
0000
0010
0000
0110
0000
0100
0000
0101
0000
0100
0001
0010
0100
1000
0001
,  // measure 37
1001
0000
0001
0000
0011
0000
0010
0000
0110
0000
0100
1000
0010
0100
1000
0100
,  // measure 38
0110
0000
0010
0000
1010
0000
1000
0000
1001
0000
1000
0001
0010
0100
0010
0001
,  // measure 39
0011
0000
0010
0000
0110
0000
0100
0000
1100
0000
0100
1000
0010
0100
0001
0010
,  // measure 40
0100
0010
0000
0001
0010
0000
1000
0010
0000
0100
0010
0000
0100
1000
0010
0100
,  // measure 41
0001
1000
0000
0100
1000
0000
0010
0100
0000
0001
0010
0000
0100
1000
0010
0100
,  // measure 42
0001
0010
0000
1000
0010
0000
0100
0010
0000
0001
0010
0000
0100
1000
0010
0100
,  // measure 43
1000
0100
0000
0001
0100
0000
0010
0100
0000
0001
0010
0000
0100
1000
0010
0100
,  // measure 44
0001
0010
0000
1000
0010
0000
0100
0010
0000
0001
0010
0000
0100
1000
0010
0100
,  // measure 45
1000
0100
0000
0010
1000
0000
0100
0001
0000
0100
0010
0000
0001
0100
0010
1000
,  // measure 46
0001
0010
0000
1000
0010
0000
0100
1000
0000
0010
0100
0000
0001
0010
0100
1000
,  // measure 47
0010
0100
0000
1000
0100
0000
0001
0010
0000
0100
1000
0000
0010
0100
0001
1000
,  // measure 48
2002
0000
3003
0000
2002
0000
3003
0000
1000
0001
1000
0000
0100
0000
0010
0000
,  // measure 49
0001
0010
0001
0000
0010
0000
0100
0000
1000
0001
1000
0000
0010
0000
0100
0000
,  // measure 50
0220
0000
0330
0000
0220
0000
0330
0000
0100
0010
0100
0000
0001
0000
1000
0000
,  // measure 51
0100
1000
0100
0000
1000
0000
0010
0000
0100
0001
0100
0000
0010
0000
1000
0000
,  // measure 52
2020
0000
3030
0000
2020
0000
3030
0000
1000
0010
1000
0000
0100
0000
0010
0000
,  // measure 53
0001
0010
0001
0000
0100
0000
0010
0000
1000
0010
1000
0000
0100
0000
0010
0000
,  // measure 54
0022
0000
0033
0000
0022
0000
0033
0000
0001
0010
0001
0000
0100
0000
0010
0000
,  // measure 55
1000
0010
1000
0000
0001
0000
0010
0000
0100
0010
0100
0000
1000
0000
0010
0000
,  // measure 56
0200
0000
0302
0000
2003
0000
3200
0000
0320
0000
0032
0023
0000
0032
0023
0230
,  // measure 57
2300
0000
0002
3003
2002
0000
3003
0000
,  // measure 58
1000
0000
0100
0000
0010
0000
0100
0000
1000
0000
0010
0100
0000
0001
0010
0100
,  // measure 59
0000
0100
1000
0010
0000
0010
0100
1000
0000
1000
0100
0001
0000
0001
0010
0100
,  // measure 60
1000
0000
0100
0000
0010
0000
0100
0000
1000
0000
0010
0100
0000
1000
0100
0001
,  // measure 61
0000
0001
0010
0100
0000
0100
1000
0001
0000
0001
0100
0010
0000
0010
0100
0001
,  // measure 62
1000
0000
0100
0000
0001
0000
0100
0000
1000
0000
0010
0100
0000
1000
0100
0010
,  // measure 63
0000
0010
1000
0001
0000
0010
0100
1000
0000
0001
0100
1000
0000
1000
0100
0010
,  // measure 64
1000
0000
0100
0000
0001
0000
0100
0000
0010
0000
0001
0100
0000
0100
0010
1000
,  // measure 65
0000
1000
0001
0010
0000
0010
0100
1000
0000
1000
0010
0100
0000
0100
0001
0010
,  // measure 66
0100
0000
1000
0000
0010
0000
0100
0000
0001
0000
0010
0100
0000
0100
1000
0010
,  // measure 67
0100
0001
0100
0000
0010
1000
0010
0000
0100
0001
0010
0000
0100
1000
0010
0000
,  // measure 68
0100
0000
0001
0000
0010
0000
0100
0000
0010
0000
0001
0100
0000
0010
0100
0001
,  // measure 69
1000
0100
1000
0000
0010
0100
0010
0000
1000
0001
1000
0000
0100
0010
0100
0000
,  // measure 70
1000
0000
0010
0000
0100
0000
0001
0000
0010
0000
0100
1000
0000
0001
0100
0010
,  // measure 71
1000
0001
1000
0000
0010
0100
0010
0000
1000
0001
1000
0000
0010
0100
0001
0000
,  // measure 72
0010
0000
0100
0000
1000
0000
0001
0000
0100
0000
1000
0100
0000
0100
0010
1000
,  // measure 73
0001
0010
0001
0010
0100
0010
0100
0010
0100
1000
0010
0100
0001
0010
0100
1000
,  // measure 74
2020
0000
0000
0000
,  // measure 75
3030
0000
0000
0000
;
