#TITLE:Fuego;
#SUBTITLE:(Live from Lisbon, Portugal, 2018);
#ARTIST:Eleni Foureira;
#MUSIC:Fuego (Live from Lisbon, Portugal, 2018).ogg;
#BANNER:Fuego (Live from Lisbon, Portugal, 2018).png;
#BACKGROUND:Fuego (Live from Lisbon, Portugal, 2018)-bg.png;
#LYRICSPATH:;
#CDTITLE:;
#SAMPLESTART:37.837;
#SAMPLELENGTH:19.009999999999998;
#OFFSET:-0.411;
#BPMS:0.000000=101.000000,
128.000000=50.500000,
136.000000=101.000000
;
#STOPS:;
#TIMESIGNATURES:;
#BGCHANGES:;
#FGCHANGES:;
#ATTACKS:;
#SPEEDS:;
#SCROLLS:;

//---------------dance-single - ---------------
#NOTES:
     dance-single:
     :
     Beginner:
     4:
     0,0,0,0,0:
// measure 0
0000
0000
0000
0000
,  // measure 1
0000
0000
0000
0000
,  // measure 2
0000
0000
0000
0000
,  // measure 3
0000
0000
0000
0000
,  // measure 4
2000
0000
3000
0000
,  // measure 5
0020
0000
0030
0000
,  // measure 6
0002
0000
0003
0000
,  // measure 7
0020
0000
0030
0000
,  // measure 8
2000
0000
3000
0000
,  // measure 9
0002
0000
0003
0000
,  // measure 10
0020
0000
0030
0000
,  // measure 11
0002
0000
0003
0000
,  // measure 12
1000
1000
1000
0000
,  // measure 13
0001
0001
0001
0000
,  // measure 14
0010
0010
0010
0000
,  // measure 15
0020
0000
0030
0000
,  // measure 16
0001
0000
0010
0000
,  // measure 17
0100
0000
1000
0000
,  // measure 18
0001
0000
1000
0000
,  // measure 19
1000
0000
1000
0000
,  // measure 20
0001
0001
0001
0000
,  // measure 21
0100
0100
0100
0000
,  // measure 22
0001
0001
0001
0000
,  // measure 23
1000
1000
0000
0100
,  // measure 24
0200
0000
0300
0000
,  // measure 25
2000
0000
3000
0000
,  // measure 26
0002
0000
0003
0000
,  // measure 27
0010
0000
0010
0000
,  // measure 28
0000
1001
0001
0000
,  // measure 29
1000
1000
1000
0000
,  // measure 30
0010
0010
0010
0000
,  // measure 31
0100
0100
0100
0000
,  // measure 32
1000
0001
0001
1000
,  // measure 33
0100
0010
0010
0100
,  // measure 34
1000
1000
1000
0000
,  // measure 35
0010
0010
0010
0000
,  // measure 36
0100
0100
0100
0000
,  // measure 37
0001
0001
0000
0000
,  // measure 38
1001
1000
1000
0000
,  // measure 39
0001
0001
0001
0000
,  // measure 40
0100
0100
0100
0000
,  // measure 41
0001
0001
0001
0000
,  // measure 42
1000
1000
1000
0000
,  // measure 43
0100
0100
0100
0000
,  // measure 44
1000
1000
1000
0000
,  // measure 45
0001
0001
0001
0000
,  // measure 46
0010
0010
0010
0000
,  // measure 47
0001
0001
0001
0000
,  // measure 48
1000
1000
1000
0000
,  // measure 49
0010
0010
0010
0010
;

//---------------dance-single - ---------------
#NOTES:
     dance-single:
     :
     Easy:
     7:
     0,0,0,0,0:
// measure 0
0000
0000
0000
0000
,  // measure 1
0000
0000
0000
0000
,  // measure 2
0000
0000
0000
0000
,  // measure 3
0000
0000
0000
0000
,  // measure 4
2000
3000
0002
0003
,  // measure 5
0020
0000
0001
0031
,  // measure 6
0002
0003
2000
3000
,  // measure 7
0200
0000
0000
1300
,  // measure 8
2000
3000
0200
0300
,  // measure 9
0020
0000
0001
0031
,  // measure 10
0002
0003
2000
3000
,  // measure 11
0020
0000
0000
0130
,  // measure 12
0001
0100
0010
0010
,  // measure 13
1000
0001
0200
0300
,  // measure 14
0001
1000
0010
0010
,  // measure 15
2000
0001
3001
0010
,  // measure 16
0200
0301
0020
1030
,  // measure 17
0200
1300
0002
0013
,  // measure 18
2000
3001
0002
0013
,  // measure 19
2000
3010
0001
1000
,  // measure 20
0100
1100
0001
0101
,  // measure 21
1000
1010
0001
0011
,  // measure 22
1000
1001
0001
1001
,  // measure 23
1000
0001
0100
0001
,  // measure 24
2000
0100
0001
3100
,  // measure 25
0002
0100
1000
0103
,  // measure 26
2000
0010
0100
3010
,  // measure 27
0001
0010
1000
0020
,  // measure 28
0030
1001
1000
0010
,  // measure 29
0100
1000
0100
0001
,  // measure 30
1000
0010
0100
0001
,  // measure 31
0010
1000
0010
0001
,  // measure 32
0200
0302
2003
3200
,  // measure 33
2300
3020
0032
0023
,  // measure 34
1030
0001
0010
0100
,  // measure 35
1001
0110
1001
1000
,  // measure 36
0010
0100
0001
0010
,  // measure 37
1000
0010
0001
0000
,  // measure 38
1001
1000
0010
1000
,  // measure 39
1100
1000
0001
0100
,  // measure 40
0001
0010
0100
1000
,  // measure 41
0010
0100
0001
0010
,  // measure 42
0110
0010
0001
1000
,  // measure 43
1100
1000
0010
0100
,  // measure 44
0101
0001
0010
1000
,  // measure 45
0010
0001
0100
0001
,  // measure 46
0011
0100
1000
1001
,  // measure 47
0100
0001
0010
0100
,  // measure 48
1000
0001
0100
0110
,  // measure 49
1000
0010
0001
0010
;

//---------------dance-single - ---------------
#NOTES:
     dance-single:
     :
     Medium:
     12:
     0,0,0,0,0:
// measure 0
0000
0000
0000
0000
,  // measure 1
0000
0000
0000
0000
,  // measure 2
0000
0000
0000
0000
,  // measure 3
0000
0000
0000
0000
,  // measure 4
1000
0000
0010
2000
3000
0001
0010
0200
,  // measure 5
0000
0000
0300
1000
0010
0100
0001
0010
,  // measure 6
0100
0000
1000
0010
0000
0000
0001
0020
,  // measure 7
0000
0000
0030
0000
0000
0200
0000
0302
,  // measure 8
1003
0000
0001
0200
0300
0000
1000
0020
,  // measure 9
0000
0000
0030
1000
0010
0100
0001
1000
,  // measure 10
0100
0000
1000
0020
0000
0030
0001
0020
,  // measure 11
0000
0000
0030
0000
,  // measure 12
1000
0010
0100
0001
0010
0010
0010
0001
,  // measure 13
0000
0010
0001
1000
0200
0000
1000
0000
,  // measure 14
0301
1000
0010
0100
0010
0010
0010
2000
,  // measure 15
0000
0002
0000
0000
0000
3003
1000
0010
,  // measure 16
0100
0001
0010
0001
0020
0000
0130
1000
,  // measure 17
0200
0000
1300
0100
1000
0001
0010
0001
,  // measure 18
0200
0000
0000
0000
0301
0000
0010
0000
1000
0000
0000
0001
0000
0000
1000
0000
,  // measure 19
0001
0000
0000
1000
0000
0000
0001
0000
1000
0000
0000
0000
0100
0000
0010
0000
,  // measure 20
0001
0100
0010
1000
0001
0010
0100
0010
,  // measure 21
0100
1000
0001
0100
0010
1000
0010
0001
,  // measure 22
0010
0000
1000
0000
0100
0000
0010
0000
0001
0000
0000
1000
0000
0000
0001
0000
,  // measure 23
1000
0000
0000
0001
0000
0000
0100
0000
0000
0000
0001
0000
0200
0000
0000
0000
,  // measure 24
0301
0001
0001
1000
,  // measure 25
0001
0000
0001
0000
0001
1000
0100
0000
,  // measure 26
1000
0000
0001
0000
0100
0010
1000
0010
,  // measure 27
1000
0000
0000
0001
0000
0000
1000
0000
0001
0000
0000
1000
0000
0000
0001
0000
,  // measure 28
0000
0010
1001
0100
1000
0010
0100
0010
,  // measure 29
1000
0001
0010
0100
0010
0001
0100
1000
,  // measure 30
0100
0001
0010
0100
1000
0010
0100
1000
,  // measure 31
0100
0001
1000
0100
0010
0001
1000
0010
,  // measure 32
0100
0001
1000
0010
0100
0001
1000
0100
,  // measure 33
1000
0001
0010
0020
0032
2000
0000
3003
,  // measure 34
1001
0000
1100
0000
1010
0010
0110
0000
,  // measure 35
1010
0000
0011
0000
0110
0100
0101
0000
,  // measure 36
1001
1100
1001
0011
,  // measure 37
0001
0010
0100
0010
0000
0000
0100
0010
,  // measure 38
0011
0000
1001
0000
1100
1000
0010
0100
,  // measure 39
0001
0000
1001
0001
0010
0100
1000
0001
,  // measure 40
0100
0000
0000
0000
0001
0000
0010
0000
0001
0000
0000
1000
0000
0000
0001
0000
,  // measure 41
1000
0000
0000
0001
0000
0000
1000
0000
0100
0000
0000
0000
1000
0000
0010
0000
,  // measure 42
0110
0100
0001
1000
0100
0000
1000
0001
,  // measure 43
0100
0000
0001
0010
0100
0010
0001
1000
,  // measure 44
0100
0000
0000
0000
1000
0000
0010
0000
1000
0000
0000
0001
0000
0000
1000
0000
,  // measure 45
0001
0000
0000
1000
0000
0000
0001
0000
0000
0000
1000
0000
0100
0000
0000
0000
,  // measure 46
1000
0001
0100
0001
1000
0000
0110
0000
,  // measure 47
1000
0010
0100
0001
1000
1000
0001
0000
,  // measure 48
1000
0001
0100
0001
1000
0010
0100
0000
,  // measure 49
0001
0000
0000
1000
0000
0000
0001
0000
1000
0000
0000
0001
0000
0000
1000
0000
;

//---------------dance-single - ---------------
#NOTES:
     dance-single:
     :
     Hard:
     15:
     0,0,0,0,0:
// measure 0
0000
0000
0000
0000
,  // measure 1
0000
0000
0000
0000
,  // measure 2
0000
0000
0000
0000
,  // measure 3
0000
0000
0000
0010
,  // measure 4
2000
0000
3000
0000
0001
0100
0020
0000
0000
0030
0000
1000
0100
0010
0020
0000
,  // measure 5
0000
0000
0000
0000
0030
0000
0100
0010
0002
0000
1003
0000
2000
0000
3010
0000
,  // measure 6
0020
0000
0030
0000
0100
0001
0020
0000
0000
0000
0030
0000
0100
1000
0020
0000
,  // measure 7
0000
0000
0000
0030
0000
0200
0000
0302
,  // measure 8
1003
0000
0000
0010
1000
0001
0200
0000
0000
0300
0000
0010
1000
0001
0000
0020
,  // measure 9
0000
0000
0000
0000
0030
0000
0100
1000
0020
0000
0130
0000
0002
0000
1003
0000
,  // measure 10
0200
0000
0300
0000
1000
0001
0020
0000
0000
0000
0030
0000
0001
1000
0020
0000
,  // measure 11
0000
0000
0030
0000
,  // measure 12
0110
0000
0010
0010
0100
1000
0001
0100
0110
0000
1010
0000
0011
0000
1010
0000
,  // measure 13
1001
0000
1000
0010
0001
0010
1000
0001
0200
0000
0000
0000
0302
0000
0000
0000
,  // measure 14
1003
0000
0010
0100
0001
1000
0010
0100
0110
0000
1010
0000
0011
0000
2000
0000
,  // measure 15
0000
0002
0000
0000
3003
0000
2000
3020
,  // measure 16
0230
0300
0001
0020
0030
0100
1000
0000
0020
0000
1030
0000
0200
0000
0301
0000
,  // measure 17
0200
0000
0300
0000
1100
0000
0100
1000
0000
0001
0000
0100
0010
0000
1010
0000
,  // measure 18
0011
0000
0010
0000
0110
0000
0020
0000
1030
0000
0010
0001
0000
0010
1000
0000
,  // measure 19
0001
0000
0010
1000
0000
0010
0001
0000
1000
0000
0010
0000
0100
0000
0010
0000
,  // measure 20
1010
0000
1000
0001
0010
0000
0100
0010
0001
0000
0001
1000
0010
0000
0100
0000
,  // measure 21
0110
0000
0100
0010
1000
0000
1000
0010
0001
0010
1000
0010
0200
0000
0302
0000
,  // measure 22
1003
0000
1000
0001
0010
0000
0020
0000
0031
0000
0010
0001
0000
0001
1000
0000
,  // measure 23
1000
0000
0010
0001
0000
0010
0200
0000
0300
0000
0001
0000
0200
0000
0000
0000
,  // measure 24
0301
1000
0100
1000
0001
1000
1010
1000
,  // measure 25
0001
0000
0010
0000
0100
0000
0010
0000
0001
0000
1000
0000
1010
0000
2000
3000
,  // measure 26
0001
0000
0001
0010
0100
0010
0001
0000
1000
0010
0100
0000
0110
0000
1010
0000
,  // measure 27
1001
0000
1000
0001
0000
0001
0010
0000
0001
0000
0010
1000
0000
0010
0100
0000
,  // measure 28
0000
0000
0100
0010
0011
0010
0100
0000
1000
0100
0010
0000
0001
0100
0010
1000
,  // measure 29
1010
1000
0010
0100
1000
0100
0001
0000
1000
0100
0001
0000
0100
1000
0010
0100
,  // measure 30
0001
0000
0001
0010
0100
0010
0001
0000
0001
1000
0010
0000
0100
0010
0001
0010
,  // measure 31
1000
0001
0010
0100
1000
0001
0100
1000
0100
0001
1000
0000
0200
0000
1300
0000
,  // measure 32
1000
0000
0010
0100
0001
1000
0100
1000
0010
0000
0010
0000
0100
0000
0002
0000
0000
0000
0000
0000
0000
0000
0000
0000
0000
0000
0000
0000
0003
0000
0000
0000
,  // measure 33
0001
0000
0010
0100
1000
0001
0100
0001
0010
0000
0010
0000
0010
0000
0002
0000
0000
0000
2000
0003
0000
0000
0020
0000
0000
0000
0000
0000
3030
0000
0000
0000
,  // measure 34
1010
0000
1000
0010
0100
0000
0100
0001
0010
0000
0010
0100
1000
0000
1000
0010
,  // measure 35
0110
0000
0100
0001
0011
0000
0001
1000
1010
0000
1000
0010
0100
0000
0001
0000
,  // measure 36
1000
0100
0001
0100
1000
0001
0100
1000
0100
0001
1000
0100
0010
0010
0001
0001
,  // measure 37
1000
0010
0100
0010
1000
0001
0010
0001
2000
0000
0000
0000
3100
0000
0010
0000
,  // measure 38
0011
0000
0001
0010
0100
0000
0100
1000
0010
0000
0100
0001
0020
0000
0032
0000
,  // measure 39
0203
0000
0000
0000
0310
0000
0100
0001
0000
1000
0000
0001
0010
0000
0100
0000
,  // measure 40
1000
0000
1000
0010
0100
0000
0020
0000
1030
0000
0010
0001
0000
0010
1000
0000
,  // measure 41
0002
0000
0013
1000
0000
0010
0001
0000
2000
0000
0000
0000
3100
0000
0010
0000
,  // measure 42
1010
0000
0010
0100
1000
0000
0010
0100
0001
0000
1000
0000
1100
0000
1000
0000
,  // measure 43
0200
0000
0000
0000
1300
0000
1000
0010
0000
0010
0000
0010
0001
0000
1000
0000
,  // measure 44
1010
0000
1000
0010
0100
0000
0020
0000
1030
0000
0010
0001
0000
0010
1000
0000
,  // measure 45
0001
0000
0010
1000
0000
0010
0200
0000
1300
0000
0001
0000
0100
0000
0001
0000
,  // measure 46
1000
0000
1000
0010
0100
0010
1000
0000
1000
0001
0010
0000
0110
0000
0011
0010
,  // measure 47
0100
1000
0001
0100
1000
0100
0001
0010
0100
1000
0002
0000
0203
0300
0200
0300
,  // measure 48
0002
0000
0013
0100
1000
0001
0200
0000
0301
0100
0020
0000
1030
0010
0100
0001
,  // measure 49
2000
3000
0010
0001
0000
0010
1000
0000
0001
0000
0010
1000
0000
0010
0001
0000
;
