#TITLE:Foundation of our love;
#SUBTITLE:;
#ARTIST:dj TAKA feat ASAKO;
#MUSIC:Foundation of our love.ogg;
#BANNER:Foundation of our love.png;
#BACKGROUND:Foundation of our love-bg.png;
#LYRICSPATH:;
#CDTITLE:;
#SAMPLESTART:85.644;
#SAMPLELENGTH:13.713999999999999;
#OFFSET:-1.644;
#BPMS:0.000000=140.000000,
132.000000=70.000000,
164.000000=140.000000
;
#STOPS:;
#TIMESIGNATURES:;
#BGCHANGES:;
#FGCHANGES:;
#ATTACKS:;
#SPEEDS:;
#SCROLLS:;

//---------------dance-single - ---------------
#NOTES:
     dance-single:
     :
     Challenge:
     17:
     :
// measure 0
0000
0000
0000
0000
,  // measure 1
0101
0100
0110
0100
1100
0100
0110
0100
,  // measure 2
0110
0010
1010
0010
0011
0010
1010
0010
,  // measure 3
0110
0100
0101
0100
1100
0100
0110
0100
,  // measure 4
0101
0001
1001
0001
0011
0001
0101
0001
,  // measure 5
0011
0010
0110
0010
1010
0010
0110
0010
,  // measure 6
1100
1000
1001
1000
1010
1000
1100
1000
,  // measure 7
0001
0100
0010
0100
0001
0010
0100
0010
,  // measure 8
0002
0000
0000
0000
0000
0000
1003
0001
,  // measure 9
1001
0000
1000
0001
0010
0000
0010
0001
0100
0000
0100
0010
1000
0000
1000
0010
,  // measure 10
0100
0000
0100
0001
0010
0000
0010
0001
1000
0000
1000
0000
1000
0000
1000
0000
,  // measure 11
1000
0000
1000
0001
0100
0000
0100
0010
1000
0000
1000
0001
0010
0000
0010
0100
,  // measure 12
1000
0000
1000
0100
0010
0000
0010
0001
0100
0000
0100
0000
0100
0000
0100
0000
,  // measure 13
0001
0000
0100
0001
0010
0000
0010
0001
1000
0000
1000
0000
0001
0000
0001
0000
,  // measure 14
1000
0000
1000
0001
0010
0000
0001
1000
0010
0000
0001
0000
1000
0000
0100
0000
,  // measure 15
0010
0000
0010
0001
0010
0000
0010
0001
0010
0000
0010
0001
0010
0000
0010
0000
,  // measure 16
0201
0010
1000
0301
,  // measure 17
0101
0001
0010
0100
1000
0010
0100
0010
,  // measure 18
1001
0100
0010
0001
0101
0010
0100
0001
,  // measure 19
1001
1000
0100
0001
0100
1000
0001
0100
,  // measure 20
0110
0010
1000
0100
1100
0100
0010
0001
,  // measure 21
0011
0001
0100
0010
1000
0100
0001
0100
,  // measure 22
1100
0100
0001
0100
1000
0010
0100
0010
,  // measure 23
0011
0010
0100
0001
0010
0100
1000
0010
,  // measure 24
1010
0011
0010
0110
0100
1100
1000
1001
,  // measure 25
0202
0303
0220
0330
2020
3030
0220
0330
,  // measure 26
0202
0303
0220
0330
0202
0303
0220
0330
,  // measure 27
2200
3300
0220
0330
0022
0033
0220
0330
,  // measure 28
2200
3300
0022
0033
2200
3300
0022
0033
,  // measure 29
2020
3030
0220
0330
2020
3030
0220
0330
,  // measure 30
0202
0303
0220
0330
0202
0303
0220
0330
,  // measure 31
2002
3003
2200
3300
2002
3003
0022
0033
,  // measure 32
2002
3003
2020
3030
0220
0330
0202
0303
,  // measure 33
1000
0001
0100
1000
0000
0000
0000
0000
1000
0100
0001
1000
0000
0000
0000
0000
,  // measure 34
1000
0010
0001
0010
1000
0001
0000
0000
1000
0100
0001
0100
0000
0000
0000
0000
,  // measure 35
1001
0000
1000
0100
1000
0000
0100
0000
1000
0010
0000
0100
0010
0000
0110
0000
1001
0000
0001
0100
0001
0000
0101
0000
0001
0100
0000
0100
0010
0000
0110
0000
,  // measure 36
1010
0000
1000
0010
0100
0000
0110
0000
0001
0100
0000
0100
0010
0000
0110
0000
0110
0000
0010
0100
0010
0000
0110
0000
1000
0010
0000
0100
0001
0000
0101
0000
,  // measure 37
1000
0100
0001
0200
1000
1000
1000
1300
1000
0010
0001
0020
1000
1000
1000
1030
,  // measure 38
1000
0100
0001
0100
1000
0020
0000
0030
0001
0010
1000
0200
0000
0000
0000
0300
,  // measure 39
1100
0000
1000
0010
0100
0000
0110
0000
0100
0001
0000
0001
0010
0000
0011
0000
0110
0000
0100
1000
0010
0000
1010
0000
1000
0010
0000
0100
0010
0000
0110
0000
,  // measure 40
0101
0000
0001
0010
0100
0000
1100
0000
1000
0010
0000
0100
0001
0000
1001
0000
0220
0000
0000
0000
0000
0000
0000
0000
0000
0000
0000
0000
0330
0000
0000
0000
,  // measure 41
1000
0100
0010
0100
0000
1000
0010
0100
0010
1000
0100
0001
0000
0001
0100
1000
,  // measure 42
0010
0100
0010
1000
0000
1000
0010
0100
0001
1000
0001
1000
0001
0000
0001
0100
,  // measure 43
0010
1000
0010
1000
0100
1000
0100
1000
0010
1000
0010
1000
0100
1000
0100
1000
,  // measure 44
0001
0010
0100
1000
0001
0010
0100
1000
1000
0100
0010
0100
1000
0100
0010
0100
,  // measure 45
1000
0010
0100
0001
0000
0001
0010
0100
1000
0010
0100
1000
0000
1000
0100
0001
,  // measure 46
0010
0100
1000
0001
0000
0001
0010
0100
1000
0001
0010
0100
1000
0000
1000
0100
,  // measure 47
0010
0001
0010
0001
0100
0001
0100
0001
0010
0001
0010
0001
0100
0001
0100
0001
,  // measure 48
0010
0100
1000
0010
0100
0001
0010
0100
1000
0010
0100
0001
0010
0100
1000
0010
,  // measure 49
0100
0001
1000
0001
0000
0001
0010
0100
1000
0010
0100
0001
0000
0001
1000
0100
,  // measure 50
0001
0100
1000
0001
0000
0001
0100
0010
0100
0001
1000
0100
1000
0000
1000
0010
,  // measure 51
0100
0001
0100
0001
0010
0001
0010
0001
0100
0001
0100
0001
0010
0001
0010
0001
,  // measure 52
0100
0010
1000
0001
0010
0100
1000
0001
0100
1000
0100
0010
1000
0001
0010
0100
,  // measure 53
1000
0001
0100
0010
0000
0010
0100
0001
0010
0100
1000
0001
0000
0001
0100
1000
,  // measure 54
0100
0010
1000
0001
0000
0001
0010
0100
1000
0001
0100
0010
0100
0000
0100
0001
,  // measure 55
0010
0100
0010
0100
1000
0100
1000
0100
0010
0100
0010
0100
1000
0100
1000
0100
,  // measure 56
0010
0001
0100
0010
1000
0001
0010
0100
2000
0000
0000
0000
3001
0000
0000
0000
,  // measure 57
0001
0100
0010
1000
0000
1000
0001
0010
0100
1000
0001
0100
0000
0100
0010
1000
,  // measure 58
0100
0010
0001
0100
0000
0100
1000
0100
0010
1000
0001
0010
0100
0000
0100
1000
,  // measure 59
0001
0100
0010
1000
0001
0100
0010
1000
0001
0010
0100
1000
0001
0010
0100
1000
,  // measure 60
0010
0100
0001
0010
0100
1000
0010
0100
0001
1000
0100
0001
0100
1000
0010
0100
,  // measure 61
0001
0010
0100
1000
0000
1000
0010
0100
0001
1000
0100
0010
0000
0010
0100
1000
,  // measure 62
0001
0100
0010
0100
0000
0100
0001
1000
0100
0010
0100
1000
0001
0000
0001
0100
,  // measure 63
0010
0100
0001
0010
0100
1000
0010
0100
1000
0100
0001
1000
0100
0010
0100
1000
,  // measure 64
0001
0100
0010
0100
0001
0010
0100
1000
0010
0100
1000
0100
0001
0010
0100
1000
,  // measure 65
1001
0000
0000
0000
;

//---------------dance-single - ---------------
#NOTES:
     dance-single:
     :
     Beginner:
     4:
     0,0,0,0,0:
// measure 0
0000
0000
0000
0000
,  // measure 1
1000
1000
1000
0000
,  // measure 2
0001
0001
0001
0000
,  // measure 3
0010
0010
0010
0000
,  // measure 4
0001
0001
0001
0000
,  // measure 5
1000
1000
1000
0000
,  // measure 6
0010
0010
0010
0000
,  // measure 7
0100
0100
0100
0000
,  // measure 8
2002
0000
3003
0000
,  // measure 9
1000
1000
1000
1000
,  // measure 10
1000
1000
1000
0000
,  // measure 11
0001
0001
0001
0001
,  // measure 12
0001
0001
0001
0000
,  // measure 13
0010
0010
0010
0000
,  // measure 14
0100
0100
0100
0000
,  // measure 15
1000
1000
1000
1000
,  // measure 16
1000
0000
0001
0000
,  // measure 17
0100
0100
0100
0000
,  // measure 18
0010
0000
1000
0000
,  // measure 19
0001
0001
0001
0000
,  // measure 20
0010
0000
0001
0000
,  // measure 21
0100
0100
0100
0000
,  // measure 22
0010
0010
0010
0000
,  // measure 23
1000
1000
1000
0000
,  // measure 24
0001
0001
0001
0000
,  // measure 25
0010
0010
0010
0000
,  // measure 26
0100
0000
1000
0000
,  // measure 27
0001
0001
0001
0000
,  // measure 28
0100
0000
1000
0000
,  // measure 29
0100
0100
0100
0000
,  // measure 30
0010
0010
0010
0000
,  // measure 31
1000
1000
1000
0000
,  // measure 32
0001
0001
0001
0000
,  // measure 33
1000
0000
0001
0000
,  // measure 34
0010
0000
0001
0000
,  // measure 35
0100
0100
0010
0010
,  // measure 36
1000
1000
0001
0001
,  // measure 37
1000
0000
0001
0000
,  // measure 38
0010
0000
0100
0000
,  // measure 39
1000
1000
0001
0001
,  // measure 40
0010
0010
0220
0330
,  // measure 41
0100
0100
0100
0000
,  // measure 42
1000
1000
1000
0000
,  // measure 43
0001
0001
0001
0001
,  // measure 44
0001
0001
0001
0000
,  // measure 45
1000
1000
1000
0000
,  // measure 46
0010
0010
0010
0000
,  // measure 47
0100
0100
0100
0100
,  // measure 48
0100
0100
0100
0000
,  // measure 49
0001
0001
0001
0000
,  // measure 50
1000
1000
1000
0000
,  // measure 51
0010
0010
0010
0010
,  // measure 52
0010
0010
0010
0000
,  // measure 53
0100
0100
0100
0000
,  // measure 54
0001
0001
0001
0000
,  // measure 55
1000
1000
1000
1000
,  // measure 56
1000
1000
1000
0000
,  // measure 57
0010
0010
0010
0000
,  // measure 58
0100
0100
0100
0000
,  // measure 59
0001
0001
0001
0001
,  // measure 60
0001
0001
0001
0000
,  // measure 61
0010
0010
0010
0000
,  // measure 62
0100
0100
0100
0000
,  // measure 63
1000
1000
1000
1000
,  // measure 64
1000
1000
1000
0000
,  // measure 65
1001
0000
0000
0000
;

//---------------dance-single - ---------------
#NOTES:
     dance-single:
     :
     Easy:
     8:
     0,0,0,0,0:
// measure 0
0000
0000
0000
0000
,  // measure 1
1000
0100
0010
0100
,  // measure 2
1000
0001
0010
0001
,  // measure 3
0100
0010
1000
0010
,  // measure 4
0100
0001
0010
0001
,  // measure 5
0100
0010
1000
0001
,  // measure 6
0010
0100
1000
0001
,  // measure 7
0100
1000
0100
0001
,  // measure 8
2002
0000
0000
3003
,  // measure 9
1000
0001
1000
0001
,  // measure 10
1000
0001
0010
0001
,  // measure 11
0100
0010
0100
0010
,  // measure 12
1000
0010
1000
0010
,  // measure 13
1000
0001
0010
0001
,  // measure 14
0100
0010
1000
0001
,  // measure 15
0010
0100
0010
0100
,  // measure 16
0110
0010
0011
0001
,  // measure 17
0100
0010
1000
0001
,  // measure 18
0010
0100
1000
0010
,  // measure 19
0100
0001
1000
0100
,  // measure 20
0001
0100
1000
0010
,  // measure 21
0100
0001
1000
0100
,  // measure 22
0010
0100
1000
0001
,  // measure 23
0010
0001
1000
0001
,  // measure 24
0100
0001
1000
0010
,  // measure 25
0100
0001
1000
0100
,  // measure 26
1000
0010
0100
0010
,  // measure 27
1000
0001
0010
0100
,  // measure 28
1000
0001
0100
0010
,  // measure 29
0100
0001
1000
0100
,  // measure 30
0010
0100
1000
0010
,  // measure 31
0100
0001
1000
0100
,  // measure 32
0001
0100
1000
0001
,  // measure 33
0100
0001
0010
0001
,  // measure 34
0100
0010
1000
0001
,  // measure 35
0100
0100
0010
0010
,  // measure 36
1000
1000
0001
0001
,  // measure 37
1000
0100
0010
0001
,  // measure 38
0100
0010
1000
0010
,  // measure 39
0100
0100
0001
0001
,  // measure 40
0010
0010
0220
0330
,  // measure 41
0100
0010
0001
0100
,  // measure 42
0010
0100
0001
0010
,  // measure 43
1000
1000
0010
0010
,  // measure 44
0001
0001
1000
1000
,  // measure 45
0010
0100
0001
1000
,  // measure 46
0100
0010
0100
1000
,  // measure 47
0010
0010
0001
0001
,  // measure 48
0010
0010
1000
1000
,  // measure 49
0100
1000
0010
0100
,  // measure 50
0001
0010
0100
1000
,  // measure 51
0001
0001
0100
0100
,  // measure 52
1000
1000
0100
0100
,  // measure 53
0001
0010
0100
1000
,  // measure 54
0001
0010
0100
0010
,  // measure 55
0001
0001
1000
1000
,  // measure 56
0010
0010
0100
0100
,  // measure 57
0001
0100
0010
1000
,  // measure 58
0001
0010
0100
1000
,  // measure 59
0001
0001
1000
1000
,  // measure 60
0010
0010
1000
1000
,  // measure 61
0100
1000
0010
0100
,  // measure 62
0001
0010
0100
1000
,  // measure 63
0001
0001
1000
1000
,  // measure 64
0010
0010
0100
0100
,  // measure 65
0110
0000
0000
0000
;

//---------------dance-single - ---------------
#NOTES:
     dance-single:
     :
     Medium:
     12:
     0,0,0,0,0:
// measure 0
0000
0000
0000
0000
,  // measure 1
1000
0000
0010
0000
0100
0010
1000
0000
,  // measure 2
0001
0000
0010
0000
0100
0010
0001
0000
,  // measure 3
0100
0000
0010
0000
1000
0001
0010
0000
,  // measure 4
0100
0000
0010
0000
0001
0100
0010
0000
,  // measure 5
1000
0000
0100
0000
0010
0100
1000
0000
,  // measure 6
0001
0000
0100
0000
0010
0100
0001
0000
,  // measure 7
0000
1000
0100
0000
0010
0100
1000
0000
,  // measure 8
2002
0000
0000
3003
,  // measure 9
1000
0001
1000
0000
0001
1000
0001
0000
,  // measure 10
1000
0001
1000
0000
0010
0000
0100
0000
,  // measure 11
0001
0100
0001
0000
0100
0001
0100
0000
,  // measure 12
0001
0100
0001
0000
0010
0000
0100
0000
,  // measure 13
1000
0100
1000
0000
0010
0000
0100
0000
,  // measure 14
0001
1000
0001
0000
0010
0000
0100
0000
,  // measure 15
1000
0001
1000
0000
0100
1000
0100
0000
,  // measure 16
0010
0001
0100
0010
,  // measure 17
1000
0000
0100
0000
0001
0100
1000
0000
,  // measure 18
0010
0100
0001
0010
,  // measure 19
0100
0000
1000
0000
0001
0100
1000
0000
,  // measure 20
0100
0001
0010
0100
,  // measure 21
1000
0000
0010
0000
0100
0010
1000
0000
,  // measure 22
0001
0000
0010
0000
0100
0010
0001
0000
,  // measure 23
1000
0000
0010
0000
0001
0010
1000
0000
,  // measure 24
0001
0010
0000
0100
0000
1000
0000
0001
,  // measure 25
1001
0101
1001
1100
,  // measure 26
0011
1100
1010
0101
,  // measure 27
1001
1100
1001
0101
,  // measure 28
1010
1100
0011
0101
,  // measure 29
1001
1100
0011
0101
,  // measure 30
1001
0101
1010
1100
,  // measure 31
1001
0001
0011
0010
,  // measure 32
0110
1100
1001
0101
,  // measure 33
1000
0100
0001
0100
1000
0001
0100
0010
,  // measure 34
0100
0001
1000
0100
0010
0100
1000
0001
,  // measure 35
1000
1000
0010
0100
0001
0001
0010
0100
,  // measure 36
1000
1000
0010
0100
1000
1000
0100
0001
,  // measure 37
1000
0100
0010
0100
1000
0010
0100
0001
,  // measure 38
0010
0100
1000
0001
0100
0010
0100
0001
,  // measure 39
1000
1000
0100
0010
0001
0001
0100
0010
,  // measure 40
1000
1000
0001
0010
0220
0000
0000
0330
,  // measure 41
0100
0010
0001
0100
,  // measure 42
0010
0100
0001
1000
,  // measure 43
0100
1000
0100
0000
1000
0100
1000
0000
,  // measure 44
0001
0010
0001
0000
0010
0001
0010
0000
,  // measure 45
0001
0100
0010
1000
,  // measure 46
0001
0010
0100
1000
,  // measure 47
0001
0010
0001
0000
0010
0001
0010
0000
,  // measure 48
0100
1000
0100
0000
1000
0100
1000
0000
,  // measure 49
0010
0100
0001
1000
,  // measure 50
0100
0001
0100
1000
,  // measure 51
0010
1000
0010
0000
1000
0010
1000
0000
,  // measure 52
0001
0100
0001
0000
0100
0001
0100
0000
,  // measure 53
0001
0010
0100
1000
,  // measure 54
0010
0100
1000
0100
,  // measure 55
0001
1000
0001
0000
0010
0100
0010
0000
,  // measure 56
0100
1000
0100
0000
2200
0000
3300
0000
,  // measure 57
0100
1000
0010
0100
,  // measure 58
0001
0010
0100
1000
,  // measure 59
0001
0100
0001
0000
1000
0010
1000
0000
,  // measure 60
0001
0010
0001
0000
1000
0100
1000
0000
,  // measure 61
0001
0100
0010
1000
,  // measure 62
0100
0001
0100
1000
,  // measure 63
0001
0100
0010
0000
1000
0001
0010
0000
,  // measure 64
0100
1000
0010
0000
0100
0001
1000
0000
,  // measure 65
1001
0000
0000
0000
;

//---------------dance-single - ---------------
#NOTES:
     dance-single:
     :
     Hard:
     15:
     0,0,0,0,0:
// measure 0
0000
0000
0000
0000
,  // measure 1
1000
0100
0010
0001
0100
0010
1000
0001
,  // measure 2
0000
0001
0010
0100
1000
0010
0100
1000
,  // measure 3
0000
1000
0100
0010
1000
0100
0010
0001
,  // measure 4
0000
0001
0100
0010
1000
0001
0010
0100
,  // measure 5
0000
0100
1000
0010
0100
0001
1000
0100
,  // measure 6
0000
0100
1000
0010
0100
0001
0010
0100
,  // measure 7
0000
0100
1000
0001
0100
0010
1000
0001
,  // measure 8
0020
0000
0000
0000
0000
0000
0130
0010
,  // measure 9
0001
0001
1000
1000
0010
0010
1000
1000
,  // measure 10
0001
0001
0010
0010
0100
0100
1000
1000
,  // measure 11
0010
0010
0100
0100
0001
0001
1000
1000
,  // measure 12
0100
0100
0001
0001
0100
0100
1000
1000
,  // measure 13
0001
0001
0100
0100
0010
1000
0001
1000
,  // measure 14
0010
0010
0100
0100
0010
0010
1000
0001
,  // measure 15
0100
0100
0001
0001
1000
1000
0100
0010
,  // measure 16
0012
0100
1000
0103
,  // measure 17
0001
0100
0010
1000
0001
0010
0100
1000
,  // measure 18
0010
0100
0001
1000
0010
1000
0100
0010
,  // measure 19
0001
0100
1000
0100
0010
1000
0001
0010
,  // measure 20
0100
1000
0001
0010
0100
0010
0001
1000
,  // measure 21
0100
1000
0010
0100
0001
0010
0100
1000
,  // measure 22
0100
0010
0001
0100
1000
0100
0001
1000
,  // measure 23
0100
0010
0001
0100
0010
1000
0001
0010
,  // measure 24
0200
2300
0000
3002
0000
0203
0000
0310
,  // measure 25
1010
1001
0011
1001
,  // measure 26
1100
0110
0011
0110
,  // measure 27
1100
1001
0101
0110
,  // measure 28
1010
1001
0011
1001
,  // measure 29
1100
0110
0011
0110
,  // measure 30
1100
1001
0101
0110
,  // measure 31
1010
1001
0011
1001
,  // measure 32
1100
0000
0100
0000
0110
0000
0010
0000
0011
0000
0000
0001
0000
0000
1000
0000
,  // measure 33
1010
1000
0100
0010
0000
0000
0000
0000
0001
0100
0010
1000
0000
0000
0000
0000
,  // measure 34
1000
0100
0010
0100
1000
0001
0000
0000
0100
0010
0100
0001
0000
0000
0000
0000
,  // measure 35
1001
0000
1000
0000
0001
0000
0001
0000
0100
0000
0000
0010
0000
0000
1000
0000
0001
0000
0001
0000
0010
0000
0010
0000
0100
0000
0000
1000
0000
0000
0010
0000
,  // measure 36
0100
0000
0100
0000
0001
0000
0001
0000
1000
0000
0000
0100
0000
0000
0010
0000
0100
0000
0100
0000
1000
0000
1000
0000
0001
0000
0000
0001
0100
0000
0010
0000
,  // measure 37
0100
0001
1000
0200
0000
0000
1300
0000
0100
1000
0001
0200
0000
0000
0301
0000
,  // measure 38
0001
0100
0010
1000
0001
0020
0031
0000
0001
0100
0010
2000
0000
0000
3001
0000
,  // measure 39
1001
0000
0001
0000
1000
0000
1000
0000
0100
0000
0000
0010
0000
0000
0100
0000
1000
0000
1000
0000
0010
0000
0010
0000
0100
0000
0000
0001
0000
0000
1000
0000
,  // measure 40
0100
0000
0100
0000
1000
0000
1000
0000
0010
0000
0000
0100
0000
0000
0001
0000
0022
0000
0000
0000
0000
0000
0000
0000
0000
0000
0000
0000
0033
0000
0000
0000
,  // measure 41
0001
0000
0100
0000
0000
0100
0010
0000
1000
0000
0100
0000
0000
0100
0010
0000
,  // measure 42
0001
0000
0100
0000
0000
1000
0100
0000
0001
0000
1000
0000
0100
0000
0010
0000
,  // measure 43
0001
0000
0001
0010
0001
0000
0001
1000
0001
0000
0001
0100
0001
0000
0001
1000
,  // measure 44
0010
0010
0100
0100
0001
0010
0100
1000
,  // measure 45
0010
0000
0100
0000
0000
0100
0001
0000
1000
0000
0100
0000
0000
0100
0010
0000
,  // measure 46
0001
0000
0010
0000
0000
0100
1000
0000
0001
0000
0100
0000
0010
0000
1000
0000
,  // measure 47
0001
0000
1000
0001
1000
0000
1000
0010
1000
0000
1000
0100
1000
0000
1000
0001
,  // measure 48
0010
0010
0100
0100
1000
0001
1000
0001
,  // measure 49
0100
0000
0010
0000
0000
1000
0001
0000
0010
0000
0100
0000
0000
1000
0010
0000
,  // measure 50
0100
0000
1000
0000
0000
0100
0001
0000
1000
0000
0100
0000
0001
0000
0100
0000
,  // measure 51
1000
0000
1000
0010
1000
0000
0001
0100
0001
0000
1000
0100
1000
0000
0001
0010
,  // measure 52
0001
0100
0010
1000
0001
0010
1000
0010
,  // measure 53
0001
0000
0100
0000
0000
0010
1000
0000
0100
0000
0001
0000
0000
0100
1000
0000
,  // measure 54
0001
0000
0100
0000
0000
0010
0100
0000
0001
0000
0010
0000
0100
0000
1000
0000
,  // measure 55
0010
0000
0100
0010
0100
0000
1000
0010
1000
0000
0001
0010
0001
0000
1000
0010
,  // measure 56
1000
1000
0001
0001
0020
0000
0031
0000
,  // measure 57
0001
0000
0100
0000
0000
0010
0100
0000
0001
0000
0010
0000
0000
0100
1000
0000
,  // measure 58
0001
0000
0100
0000
0000
1000
0100
0000
0001
0000
0010
0000
0100
0000
1000
0000
,  // measure 59
0100
0000
0010
0100
0010
0000
0001
0100
0001
0000
1000
0100
1000
0000
0010
0100
,  // measure 60
0010
0001
0100
0010
1000
0001
0010
0100
,  // measure 61
1000
0000
0001
0000
0000
0100
0010
0000
1000
0000
0100
0000
0000
0010
0100
0000
,  // measure 62
1000
0000
0010
0000
0000
0100
0001
0000
0010
0000
0100
0000
1000
0000
0001
0000
,  // measure 63
0100
0000
0010
0100
0010
0000
0001
0100
0001
0000
1000
0100
1000
0000
0001
0100
,  // measure 64
0010
1000
0100
0010
0001
0100
0010
1000
,  // measure 65
1001
0000
0000
0000
;
