#TITLE:Everytime You Need Me;
#SUBTITLE:;
#ARTIST:Fragma feat. Maria Rubia;
#MUSIC:Everytime You Need Me.ogg;
#BANNER:Everytime You Need Me.png;
#BACKGROUND:Everytime You Need Me-bg.png;
#LYRICSPATH:Everytime You Need Me.lrc;
#CDTITLE:;
#SAMPLESTART:27.153;
#SAMPLELENGTH:14.015;
#BPMS:0.000000=137.000000;
#STOPS:;
#TIMESIGNATURES:0.000000=4=4;
#BGCHANGES:;
#FGCHANGES:;
#ATTACKS:;
#SPEEDS:0.000000=1.000000=0.000000=0;
#SCROLLS:0.000000=1.000000;
#KEYSOUNDS:;

//---------------dance-single - ---------------
#NOTES:
     dance-single:
     :
     Beginner:
     4:
     0,0,0,0,0:
// measure 0
0000
0000
0000
0000
,  // measure 1
0000
0000
0000
0000
,  // measure 2
0000
0000
0000
0000
,  // measure 3
0000
0000
0000
0000
,  // measure 4
1000
0000
1000
0000
,  // measure 5
0001
0000
0001
0000
,  // measure 6
0010
0000
0010
0000
,  // measure 7
0001
0000
0001
0000
,  // measure 8
0100
0000
0100
0000
,  // measure 9
0010
0000
0010
0000
,  // measure 10
1000
0000
1000
0000
,  // measure 11
0001
0000
0001
0000
,  // measure 12
0010
0000
0010
0000
,  // measure 13
0100
0000
0100
0000
,  // measure 14
1000
0000
1000
0000
,  // measure 15
0001
0000
0001
0000
,  // measure 16
0010
0010
0010
0000
,  // measure 17
0001
0000
1000
0000
,  // measure 18
0100
0100
0100
0000
,  // measure 19
1000
0000
0010
0000
,  // measure 20
0100
0100
0100
0000
,  // measure 21
0001
0000
1000
0000
,  // measure 22
0010
0010
0010
0000
,  // measure 23
0010
0010
0010
0000
,  // measure 24
1000
0000
0001
0000
,  // measure 25
0100
0100
0100
0000
,  // measure 26
0001
0000
1000
0000
,  // measure 27
0010
0010
0010
0000
,  // measure 28
0100
0000
0001
0000
,  // measure 29
1000
0000
1000
0000
,  // measure 30
0100
0100
0100
0000
,  // measure 31
0100
0100
0100
0000
,  // measure 32
1000
0000
1000
0000
,  // measure 33
0010
0000
0010
0000
,  // measure 34
0100
0000
0100
0000
,  // measure 35
0001
0000
0001
0000
,  // measure 36
1000
0000
0001
0000
,  // measure 37
0010
0000
0100
0000
,  // measure 38
1000
0000
0001
0000
,  // measure 39
0100
0000
0010
0000
,  // measure 40
1000
0000
1000
0000
,  // measure 41
0001
0000
0001
0000
,  // measure 42
0100
0000
0100
0000
,  // measure 43
0010
0000
0010
0000
,  // measure 44
1000
0000
0001
0000
,  // measure 45
0100
0000
0001
0000
,  // measure 46
1000
0000
0010
0000
,  // measure 47
0100
0000
0010
0000
,  // measure 48
1000
0000
1000
0000
,  // measure 49
0010
0010
0010
0000
,  // measure 50
0100
0000
0100
0000
,  // measure 51
0001
0001
0001
0000
,  // measure 52
0010
0000
0010
0000
,  // measure 53
0100
0100
0100
0000
,  // measure 54
1000
1000
1000
0000
,  // measure 55
1000
1000
1000
0000
,  // measure 56
0002
0000
0003
0000
,  // measure 57
0200
0000
0300
0000
,  // measure 58
0020
0000
0030
0000
,  // measure 59
2000
0000
3000
0000
,  // measure 60
0200
0000
0300
0000
,  // measure 61
2000
0000
3000
0000
,  // measure 62
0020
0000
0030
0000
,  // measure 63
0002
0000
0003
0000
,  // measure 64
2002
0000
3003
0000
;

//---------------dance-single - ---------------
#NOTES:
     dance-single:
     :
     Easy:
     7:
     0,0,0,0,0:
// measure 0
0000
0000
0000
0000
,  // measure 1
0000
0000
0000
0000
,  // measure 2
0000
0000
0000
0000
,  // measure 3
0000
0000
0000
0000
,  // measure 4
2000
3000
0002
0003
,  // measure 5
0100
0100
0100
0000
,  // measure 6
0002
0003
2000
3000
,  // measure 7
0100
0100
0100
0000
,  // measure 8
1000
0001
0010
0000
,  // measure 9
0001
1000
0010
0000
,  // measure 10
0100
0001
1000
0000
,  // measure 11
0100
1000
0001
0000
,  // measure 12
0100
0010
1000
0000
,  // measure 13
0100
0010
0001
0000
,  // measure 14
1000
0001
0010
0000
,  // measure 15
0001
1000
0010
0010
,  // measure 16
0100
0100
0001
1000
,  // measure 17
0010
0010
0100
0001
,  // measure 18
1000
1000
0100
0010
,  // measure 19
0001
0001
0100
1000
,  // measure 20
0100
0100
0010
1000
,  // measure 21
0001
0001
0010
0100
,  // measure 22
1000
1000
0001
0001
,  // measure 23
0100
0100
0010
1000
,  // measure 24
0001
0001
0010
0110
,  // measure 25
1000
1000
0001
0101
,  // measure 26
0100
0100
0010
1010
,  // measure 27
1000
1000
0001
1001
,  // measure 28
1000
0100
0010
0001
,  // measure 29
0010
0100
1000
0001
,  // measure 30
0100
0100
0100
0010
,  // measure 31
1000
1000
1000
0001
,  // measure 32
0010
0100
1000
0100
,  // measure 33
0010
0001
0010
0100
,  // measure 34
1000
0001
0100
0010
,  // measure 35
0100
0001
1000
0100
,  // measure 36
0001
0100
1000
0001
,  // measure 37
0100
0010
1000
0001
,  // measure 38
0010
0100
1000
0001
,  // measure 39
0100
1000
0100
0010
,  // measure 40
2000
0001
0100
3001
,  // measure 41
0002
0100
1000
0103
,  // measure 42
2000
0010
0100
3010
,  // measure 43
0002
0010
0100
0013
,  // measure 44
1000
0100
0001
0100
,  // measure 45
1000
0001
0100
1000
,  // measure 46
0100
0010
1000
0001
,  // measure 47
0010
1000
0010
0001
,  // measure 48
0100
0010
1000
1001
,  // measure 49
0001
0010
0100
1100
,  // measure 50
1000
0001
0100
0110
,  // measure 51
0010
1000
0100
0101
,  // measure 52
1000
1000
0001
0100
,  // measure 53
1000
0100
0010
1000
,  // measure 54
0001
0001
0001
0010
,  // measure 55
0100
0100
1000
0001
,  // measure 56
0200
0000
0302
0000
,  // measure 57
2003
0000
3020
0000
,  // measure 58
0230
0000
0302
0000
,  // measure 59
2003
0000
3200
0000
,  // measure 60
0320
0000
0032
0000
,  // measure 61
2003
0000
3020
0000
,  // measure 62
0100
0100
0100
0000
,  // measure 63
1000
1000
1030
1000
,  // measure 64
2002
0000
3003
0000
;

//---------------dance-single - ---------------
#NOTES:
     dance-single:
     :
     Medium:
     12:
     0,0,0,0,0:
// measure 0
0000
0000
0000
0000
,  // measure 1
0000
0000
0000
0000
,  // measure 2
0000
0000
0000
0000
,  // measure 3
0000
0000
0000
0000
,  // measure 4
1000
0000
0000
0001
0000
0000
0100
0000
,  // measure 5
0010
0000
0000
1000
0000
0000
0100
0000
,  // measure 6
0010
0000
0000
0001
0000
0000
0100
0000
,  // measure 7
1000
0000
0000
0100
0000
0000
0010
0000
,  // measure 8
1000
0100
0010
0100
,  // measure 9
1000
0001
0100
0010
,  // measure 10
1000
0001
0010
0001
,  // measure 11
0100
0010
1000
0001
,  // measure 12
0010
0100
1000
0100
,  // measure 13
0010
0001
0100
1000
,  // measure 14
0100
0010
1000
0001
,  // measure 15
2002
0000
3003
0000
1000
0001
0010
0100
,  // measure 16
1000
0001
0100
0010
,  // measure 17
1000
0001
0010
0100
,  // measure 18
1000
0001
0100
1000
,  // measure 19
0001
0010
1000
0001
,  // measure 20
0010
0010
0001
0100
,  // measure 21
0010
0010
1000
0100
,  // measure 22
0010
0000
0011
0000
0010
0001
0010
0000
,  // measure 23
0011
0000
1001
0000
0001
1000
0010
0000
,  // measure 24
0110
0000
0100
0000
0001
1000
0100
0000
,  // measure 25
0010
0000
0001
0000
0100
1000
0100
0000
,  // measure 26
0110
0000
1000
0000
0001
0010
0100
0000
,  // measure 27
1000
0000
0001
0000
0100
0010
1000
0000
,  // measure 28
1010
0000
0010
0000
1000
0001
0100
0000
,  // measure 29
0010
0000
1000
0000
0001
0010
0100
0000
,  // measure 30
1100
0000
1100
0000
0100
1000
0100
0000
,  // measure 31
1100
0000
1001
0000
0001
0100
0010
0000
,  // measure 32
1000
0000
0001
0000
0100
0001
1000
0000
,  // measure 33
0100
0000
1000
0000
0010
0100
0001
0000
,  // measure 34
1000
0000
0010
0000
0100
0001
1000
0000
,  // measure 35
0100
0000
1000
0000
0001
0100
0010
0000
,  // measure 36
1000
0000
0001
0000
0100
0010
1000
0000
,  // measure 37
0001
0000
0010
0000
0100
1000
0010
0000
,  // measure 38
0100
0000
1000
0000
0100
0001
1000
0000
,  // measure 39
0100
0000
0001
0000
0100
1000
0010
0000
,  // measure 40
0100
0000
0001
0000
1000
0010
0100
0000
,  // measure 41
0001
0000
1000
0000
0100
0010
0001
0000
,  // measure 42
0100
0010
1000
0000
0100
0010
0001
0000
,  // measure 43
1000
0001
0010
0000
0001
1000
0010
0000
,  // measure 44
1020
0100
0001
0130
,  // measure 45
0201
0010
1000
0310
,  // measure 46
0100
1000
0010
0000
0100
0001
0010
0000
,  // measure 47
0100
0010
0001
0100
0010
1000
0001
0000
,  // measure 48
0101
0000
0001
0000
0010
0100
1000
0000
,  // measure 49
0001
0000
0100
0000
0010
1000
0001
0000
,  // measure 50
1001
0000
1000
0000
0010
0100
1000
0000
,  // measure 51
0100
0000
0001
0000
1000
0100
0010
0000
,  // measure 52
0011
0000
0010
0000
0100
1000
0001
0000
,  // measure 53
0100
0000
0010
0000
1000
0001
0010
0000
,  // measure 54
0011
0000
0101
0000
0001
0100
0010
0000
,  // measure 55
1010
0000
1100
0000
0100
1000
0010
0100
,  // measure 56
0002
1000
2003
3001
,  // measure 57
0002
0010
0023
0100
,  // measure 58
0230
1000
2300
0001
,  // measure 59
3002
0100
0203
0010
,  // measure 60
0320
1000
2030
0001
,  // measure 61
3002
0100
0203
0010
,  // measure 62
0320
1000
2030
0001
,  // measure 63
3002
0100
0203
0310
,  // measure 64
0220
0000
0330
0000
;

//---------------dance-single - ---------------
#NOTES:
     dance-single:
     :
     Hard:
     15:
     0,0,0,0,0:
// measure 0
0000
0000
0000
0000
,  // measure 1
0000
0000
0000
0000
,  // measure 2
0000
0000
0000
0000
,  // measure 3
0000
0000
0000
0000
,  // measure 4
1000
0001
0100
0010
1000
0001
0010
0000
,  // measure 5
0010
0010
0100
0100
1000
0001
1000
0001
,  // measure 6
0100
0010
1000
0001
0010
0100
1000
0000
,  // measure 7
1000
0100
0001
0100
1000
0010
0100
0001
,  // measure 8
1000
0100
0020
0000
0230
0000
1300
0002
,  // measure 9
0000
0203
0000
2300
0000
3200
0000
0301
,  // measure 10
1000
0100
0020
0000
0230
0000
1300
0020
,  // measure 11
0000
0230
0000
0302
0000
2003
0001
3100
,  // measure 12
0010
0001
0100
0010
1000
0010
0100
0001
,  // measure 13
1000
0100
0010
0100
1000
0001
0100
1000
,  // measure 14
0100
0010
1000
0001
0010
0100
1000
0001
,  // measure 15
2002
0000
3003
0000
1000
0001
0010
0100
,  // measure 16
1100
1000
0001
0100
0010
0100
0001
1000
,  // measure 17
0100
0010
0100
1000
0001
0100
0010
1000
,  // measure 18
1001
1000
0100
0010
0001
0100
0010
1000
,  // measure 19
0001
0010
1000
0010
0100
1000
0001
0100
,  // measure 20
0110
1000
0001
0010
0120
0030
1000
2001
,  // measure 21
0000
0000
3001
0000
0102
0003
1000
1010
,  // measure 22
0110
0000
0010
0100
0010
0000
0110
0000
0100
0000
0010
0100
0010
0000
0100
0000
,  // measure 23
1001
0001
1001
1000
0001
1000
0010
0100
,  // measure 24
1001
1000
0100
0010
1000
0010
0100
1000
,  // measure 25
0001
0100
1000
0001
0010
1000
0001
0010
,  // measure 26
0110
0100
0010
0100
1000
0001
0100
0001
,  // measure 27
1000
0010
0100
0001
0010
0100
1000
0010
,  // measure 28
1001
1000
0010
0100
0102
0003
1000
2010
,  // measure 29
0000
0000
3001
1000
1020
0030
0001
0101
,  // measure 30
1001
0000
1000
0001
1000
0000
1001
0000
0101
0000
0001
0100
0001
0000
0101
0000
,  // measure 31
1001
1010
0110
0101
1001
1000
1100
1000
,  // measure 32
0001
0100
0000
0000
1010
0000
0000
0010
1000
0100
0000
0000
1100
0000
0000
1000
,  // measure 33
0100
1000
0000
0000
1001
0000
0000
0001
0100
0010
0000
0000
1010
0000
0000
0010
,  // measure 34
0100
0001
0000
0000
0101
0000
0000
0001
1000
0100
0000
0000
1100
0000
0000
0100
,  // measure 35
1000
0010
0000
0000
1010
0000
0000
0010
0100
0001
0000
0000
1001
0000
0000
1000
,  // measure 36
0100
0001
0000
0000
1001
0000
0000
1000
0010
0100
0000
0000
0101
0000
0000
0001
,  // measure 37
1000
0010
0000
0000
1010
0000
0000
0010
0100
0001
0000
0000
0101
0000
0000
0001
,  // measure 38
1000
0010
0000
0000
1010
0000
0000
0010
1000
0100
0000
0000
1100
0000
0000
0100
,  // measure 39
1000
0001
0000
0000
1001
0000
0000
0001
0100
0010
0000
0000
0110
0000
0000
0010
,  // measure 40
1000
0000
0001
0000
0100
0000
0010
0000
1000
0000
0001
0000
0011
0000
0001
1000
,  // measure 41
0100
0000
1000
0000
0010
0000
0100
0000
0001
0000
1000
0000
1100
0000
0100
1000
,  // measure 42
0001
0100
0020
0000
1030
0100
0020
0000
,  // measure 43
0031
1000
0100
1000
0010
0100
0001
0020
,  // measure 44
0001
0001
0100
0100
1000
1000
0100
0100
,  // measure 45
0001
0001
1000
1000
0001
0001
0130
0100
,  // measure 46
1000
0001
0100
0010
1000
0010
0100
0001
,  // measure 47
1000
0010
0100
0001
1000
0100
0010
0001
2002
0000
0000
0000
3003
0000
0000
0000
,  // measure 48
1001
1000
0010
0100
0001
0100
0010
1000
,  // measure 49
0001
0010
0100
1000
0010
0001
0010
1000
,  // measure 50
1001
0001
0010
0100
1000
0100
0001
0100
,  // measure 51
0010
0001
0100
0010
0100
0001
1000
0100
,  // measure 52
0110
0010
0001
0100
0120
0030
1000
1002
,  // measure 53
0000
0000
1003
1000
2100
3000
0001
0101
,  // measure 54
1001
0000
0001
1000
0010
0000
0110
0000
1010
0000
0010
1000
0100
0000
1000
0000
,  // measure 55
1001
0101
0110
1010
1000
0010
0100
0010
,  // measure 56
2000
0000
3001
0002
0000
0000
0103
0020
,  // measure 57
0000
2030
0000
3002
0000
0203
0320
2030
,  // measure 58
3002
0003
1000
0002
0000
0003
0100
0020
,  // measure 59
0000
2030
0000
3002
0000
0000
2003
3200
,  // measure 60
0320
0000
0000
0000
0032
0000
2003
3020
,  // measure 61
0000
0000
0000
0000
0230
0000
0302
0203
,  // measure 62
1000
0000
0000
0001
0000
0000
1300
0000
,  // measure 63
1000
0001
0000
0000
1001
0000
0000
0001
0100
0010
0000
0000
0110
0000
0000
1000
,  // measure 64
2002
0000
3003
0000
;
