#TITLE:Everybody;
#SUBTITLE:(T-Quila Sunrise Mix);
#ARTIST:Carlos T-Quila;
#MUSIC:Everybody (T-Quila Sunrise Mix).ogg;
#BANNER:Everybody (T-Quila Sunrise Mix).png;
#BACKGROUND:Everybody (T-Quila Sunrise Mix)-bg.png;
#LYRICSPATH:;
#CDTITLE:;
#SAMPLESTART:12.832;
#SAMPLELENGTH:17.454;
#OFFSET:-10.65;
#BPMS:0.000000=110.000000;
#STOPS:;
#TIMESIGNATURES:0.000000=4=4;
#BGCHANGES:;
#FGCHANGES:;
#ATTACKS:;
#SPEEDS:0.000000=1.000000=0.000000=0;
#SCROLLS:0.000000=1.000000;
#KEYSOUNDS:;

//---------------dance-single - ---------------
#NOTES:
     dance-single:
     :
     Beginner:
     3:
     0,0,0,0,0:
// measure 0
0000
0000
0000
0000
,  // measure 1
1000
1000
1000
0000
,  // measure 2
0001
0001
0001
0000
,  // measure 3
1000
1000
1000
0000
,  // measure 4
0100
0100
0100
0000
,  // measure 5
1000
1000
1000
0000
,  // measure 6
0001
0001
0001
0000
,  // measure 7
0010
0010
0010
0000
,  // measure 8
0001
0001
0001
0000
,  // measure 9
1000
1000
1000
0000
,  // measure 10
0010
0010
0010
0000
,  // measure 11
0001
0001
0001
0000
,  // measure 12
1000
1000
1000
0000
,  // measure 13
0100
0100
0100
0000
,  // measure 14
0010
0010
0010
0000
,  // measure 15
0001
0001
0001
0000
,  // measure 16
1000
1000
1000
0000
,  // measure 17
0002
0000
0003
0000
,  // measure 18
2000
0000
3000
0000
,  // measure 19
0020
0000
0030
0000
,  // measure 20
0200
0000
0300
0000
,  // measure 21
0002
0000
0003
0000
,  // measure 22
0020
0000
0030
0000
,  // measure 23
2000
0000
3000
0000
,  // measure 24
0200
0000
0300
0000
,  // measure 25
1000
1000
1000
0000
,  // measure 26
0010
0010
0010
0000
,  // measure 27
0100
0100
0100
0000
,  // measure 28
0010
0010
0010
0000
,  // measure 29
1000
1000
1000
0000
,  // measure 30
0001
0001
0001
0000
,  // measure 31
0010
0010
0010
0000
,  // measure 32
2002
0000
3003
0000
,  // measure 33
0001
0001
0001
0000
,  // measure 34
1000
1000
1000
0000
,  // measure 35
0010
0010
0010
0000
,  // measure 36
1000
1000
1000
0000
,  // measure 37
0001
0001
0001
0000
,  // measure 38
1000
1000
1000
0000
,  // measure 39
0100
0100
0100
0000
,  // measure 40
1000
1000
1000
0000
,  // measure 41
1001
0000
0000
0000
;

//---------------dance-single - ---------------
#NOTES:
     dance-single:
     :
     Easy:
     6:
     0,0,0,0,0:
// measure 0
0000
0000
0000
0000
,  // measure 1
1000
0010
0001
0010
,  // measure 2
1000
0001
0010
0100
,  // measure 3
0010
0001
1000
0010
,  // measure 4
0100
1000
0100
0001
,  // measure 5
0010
0100
1000
0001
,  // measure 6
0100
0010
1000
0001
,  // measure 7
0010
0100
1000
0010
,  // measure 8
0100
0001
1000
1001
,  // measure 9
0001
0010
0100
1000
,  // measure 10
0010
0100
1000
0100
,  // measure 11
0001
0010
0100
1000
,  // measure 12
0010
0100
0001
0010
,  // measure 13
1000
0010
0001
0100
,  // measure 14
1000
0100
0001
0010
,  // measure 15
0100
1000
0010
0100
,  // measure 16
1000
0100
0001
1000
,  // measure 17
2001
0000
0010
0000
,  // measure 18
3002
0000
0010
0000
,  // measure 19
2003
0000
0100
0000
,  // measure 20
3002
0000
0100
0000
,  // measure 21
2003
0000
0100
0000
,  // measure 22
3002
0000
0010
0000
,  // measure 23
2003
0000
0001
0000
,  // measure 24
3002
0000
1000
0003
,  // measure 25
1000
0100
0010
0100
,  // measure 26
1000
0010
0100
1000
,  // measure 27
0100
0001
0010
0100
,  // measure 28
0010
0001
1000
0010
,  // measure 29
0100
1000
0100
0001
,  // measure 30
0010
0100
1000
0010
,  // measure 31
0100
1000
0100
0001
,  // measure 32
2002
0000
0000
3003
,  // measure 33
1000
0010
0100
0001
,  // measure 34
0010
0100
1000
0001
,  // measure 35
0010
0100
1000
0010
,  // measure 36
0100
1000
0100
0001
,  // measure 37
0010
0100
1000
0001
,  // measure 38
0100
0010
1000
0001
,  // measure 39
0010
0100
1000
0001
,  // measure 40
0100
0010
1000
0001
,  // measure 41
1001
0000
0000
0000
;

//---------------dance-single - ---------------
#NOTES:
     dance-single:
     :
     Medium:
     10:
     0,0,0,0,0:
// measure 0
0000
0000
0000
0000
,  // measure 1
1000
0000
0010
0000
1000
0001
0010
0000
,  // measure 2
0001
0000
0010
0000
0100
1000
0001
0000
,  // measure 3
0100
0000
0010
0000
1000
0001
0010
0000
,  // measure 4
0100
0000
0010
0000
0001
1000
0010
0000
,  // measure 5
0100
0000
0010
0000
1000
0001
0010
0000
,  // measure 6
0100
0000
0010
0000
0001
1000
0010
0000
,  // measure 7
0100
0001
0010
1000
,  // measure 8
0010
0001
1000
1001
,  // measure 9
1000
0000
0001
0000
0001
1000
0010
0000
,  // measure 10
0100
0000
0010
0000
1000
0100
0010
0000
,  // measure 11
0001
0000
0100
0000
1000
0100
0010
0000
,  // measure 12
1000
0000
0001
0000
0010
0100
1000
0000
,  // measure 13
0001
0000
0100
0000
1000
0100
0010
0000
,  // measure 14
1000
0000
0001
0000
0010
0100
1000
0000
,  // measure 15
0001
0000
0010
0000
0100
1000
0001
0000
,  // measure 16
0100
0000
1000
0000
0100
0010
1000
0001
,  // measure 17
1002
1000
0010
1000
,  // measure 18
2003
0001
0010
0010
,  // measure 19
3020
0001
0100
1000
,  // measure 20
0230
0001
1000
0001
,  // measure 21
0302
0010
1000
0010
,  // measure 22
2003
0010
0010
0010
,  // measure 23
3020
0001
0100
1000
,  // measure 24
0230
0010
0001
1300
,  // measure 25
0101
0000
0001
0000
0010
0001
0100
0000
,  // measure 26
0010
0000
1000
0000
0001
0010
0100
0000
,  // measure 27
1000
0000
0010
0000
0100
0001
1000
0000
,  // measure 28
0100
0000
0010
0000
0100
1000
0001
0000
,  // measure 29
0100
0000
0010
0000
1000
0010
0100
0000
,  // measure 30
0001
0000
0010
0000
1000
0010
0001
0000
,  // measure 31
0001
1000
0010
0000
1000
0001
0010
0000
,  // measure 32
0220
0300
0002
0033
,  // measure 33
0001
0000
0100
0000
0010
1000
0001
0000
,  // measure 34
0010
0000
1000
0000
0010
0001
0100
0000
,  // measure 35
0010
0000
1000
0000
0001
1000
0010
0000
,  // measure 36
0100
0000
0010
0000
1000
0001
0010
0000
,  // measure 37
0100
0000
0010
0000
0001
1000
0001
0000
,  // measure 38
0010
0000
0100
0000
1000
0001
1000
0000
,  // measure 39
0010
0100
0010
1000
,  // measure 40
0001
0000
0010
0100
0010
0001
0001
1000
,  // measure 41
1001
0000
0000
0000
;

//---------------dance-single - ---------------
#NOTES:
     dance-single:
     :
     Hard:
     15:
     0,0,0,0,0:
// measure 0
0000
0000
0000
0000
,  // measure 1
1001
0000
1000
0000
1010
0000
1000
0000
1001
0000
0001
0020
0030
0000
0010
0000
,  // measure 2
0110
0000
0010
0000
0011
0000
0001
0000
1001
0000
1000
0020
0030
0000
0010
0000
,  // measure 3
1010
0000
1000
0000
1010
0000
0010
0000
0110
0000
0100
0020
0030
0000
0010
0000
,  // measure 4
1000
0000
0010
0000
0001
0000
0010
0100
0000
0001
0000
0020
0030
0020
0030
0000
,  // measure 5
0011
0000
0010
0000
1010
0000
0010
0000
0110
0000
0100
2000
3000
0000
1000
0000
,  // measure 6
1001
0000
0010
0000
1001
0000
0100
0000
1001
0000
0001
2000
3000
0000
1000
0010
,  // measure 7
0200
0000
0302
0000
0023
0000
0230
0000
2300
0000
3020
0000
0230
0000
0301
1000
,  // measure 8
0100
0000
0100
1000
0010
0000
0100
0001
0020
0030
0020
0030
0110
0000
0100
0010
,  // measure 9
0110
0000
0100
0000
1100
0000
0100
1000
0001
0100
0010
0000
0100
0000
0001
0000
,  // measure 10
0011
0000
0010
0000
0110
0000
0100
1000
0001
0100
0010
0000
0100
0000
0001
0000
,  // measure 11
1001
0000
1000
0000
1100
0000
0100
0010
0001
0100
0010
0000
1000
0000
0010
0000
,  // measure 12
0110
0000
0100
0001
0010
0000
0010
0001
0100
0010
1000
0000
0100
0000
0010
0000
,  // measure 13
0011
0000
0010
0000
1010
0000
0010
0100
1000
0001
0100
0000
0010
0000
1000
0000
,  // measure 14
1010
0000
0010
0000
0011
0000
0010
1000
0100
0010
0001
0000
0100
0000
0010
0000
,  // measure 15
0011
0000
0010
0000
1010
0000
0010
1000
0001
0010
0100
0000
1000
0000
0010
0000
,  // measure 16
0110
0000
0100
0001
0010
0100
1000
0010
0100
0001
0100
0001
1000
0010
1000
0010
,  // measure 17
2010
0000
0000
0001
3020
0000
0000
0000
0100
0000
0001
0000
0100
0000
1000
0000
,  // measure 18
0230
0001
1000
0010
0302
1000
0023
0100
,  // measure 19
0230
1000
1000
1000
1000
1000
1000
0000
2300
0010
0100
0000
3002
0000
0023
0000
,  // measure 20
0130
0000
0100
1000
0001
0000
0001
0010
0100
1000
1000
0010
0100
0100
0001
0010
,  // measure 21
0200
0000
0000
1300
0000
0000
0000
0000
0000
0000
0000
0000
1000
0000
0001
0000
1000
0000
0001
0000
1000
0000
0001
0000
1000
0000
0000
0010
0000
0000
0000
0000
0000
0100
0000
0000
0001
0000
0000
0000
0000
0000
0100
0000
0000
0000
0000
0000
,  // measure 22
0220
0330
0000
0000
0000
0000
0000
0000
0000
0000
0000
0000
0000
0000
0000
0000
2020
3030
0000
0000
0000
0000
0000
0000
0000
0000
0000
0000
0000
0000
0000
0000
0202
0303
0000
0000
0000
0000
0000
0000
0000
0000
0000
0000
0000
0000
0000
0000
0022
0033
0000
0000
0000
0000
0000
0000
0000
0000
0000
0000
0000
0000
0000
0000
,  // measure 23
2000
0000
0000
3100
0000
0000
0000
0000
0000
0000
0000
0000
0010
0000
0001
0000
0010
0000
0001
0000
0010
0000
0001
0000
0100
0000
0000
0010
0000
0000
0000
0000
0000
1000
0000
0000
0001
0000
0000
0000
0000
0000
0010
0000
0000
0000
0000
0000
,  // measure 24
0011
0010
0110
0100
1100
1000
1001
0001
,  // measure 25
0101
0000
0001
0100
0010
0000
0010
1000
0001
0010
0100
0000
1000
0000
0010
0000
,  // measure 26
0100
0000
0010
1000
0001
0010
0100
1000
0010
0100
0001
0000
0101
0000
1000
0000
,  // measure 27
1010
0000
0010
1000
0001
0000
0010
0001
0100
0010
1000
0000
0100
0000
0010
0000
,  // measure 28
0001
0010
0100
1000
0010
0100
0001
0010
0100
1000
0010
0001
0010
0100
0001
0010
,  // measure 29
0110
0000
0100
1000
0010
0000
0100
0001
1000
0100
0001
0100
1000
0000
1000
0010
,  // measure 30
0100
0000
0100
0001
0010
0100
1000
0010
0100
0010
1000
0001
0010
0100
1000
0001
,  // measure 31
0100
0000
0100
0001
1000
0100
0010
0001
0010
0100
1000
0001
0100
0010
1000
0010
,  // measure 32
2020
0000
0000
0000
0000
0000
0000
0000
0000
0000
0000
0000
3030
0000
0010
0010
,  // measure 33
1010
0000
1000
0000
1001
0000
0001
0000
0101
0000
0001
0200
0300
0000
0100
0000
,  // measure 34
0110
0000
0010
0000
1010
0000
1000
0000
1001
0000
0001
0020
0030
0000
0010
0000
,  // measure 35
0011
0000
0010
0000
1010
0000
0010
0000
0110
0000
0100
2000
3000
0000
1000
0000
,  // measure 36
0001
0000
0100
0000
0010
0000
1000
0100
0000
0010
0000
0200
0300
0200
0300
0000
,  // measure 37
1100
0000
1000
0000
1010
0000
0010
0000
0110
0000
0100
0002
0003
0000
0001
0000
,  // measure 38
0011
0000
0010
0000
0110
0000
0100
0000
1100
0000
0100
2000
3000
0000
1000
0010
,  // measure 39
0200
0000
0302
0000
0023
0000
0230
0000
2300
0000
3002
0000
0203
0000
0310
0100
,  // measure 40
0001
0000
0001
0010
0100
0000
1000
0001
0020
0030
0020
0030
0001
0010
0100
0010
,  // measure 41
0220
0330
0000
0000
;
