#VERSION:0.83;
#TITLE:Europe;
#SUBTITLE:;
#ARTIST:Kristall;
#TITLETRANSLIT:;
#SUBTITLETRANSLIT:;
#ARTISTTRANSLIT:;
#GENRE:;
#CREDIT:;
#ORIGIN:;
#MUSIC:Europe.ogg;
#BANNER:Europe.png;
#BACKGROUND:Europe-bg.png;
#JACKET:Europe-jacket.png;
#DISCIMAGE:;
#CDIMAGE:;
#SELECTABLE:YES;
#LYRICSPATH:;
#CDTITLE:;
#SAMPLESTART:40.044;
#SAMPLELENGTH:14.769000000000005;
#OFFSET:0.573;
#BPMS:0.000000=130.000000,
116.000000=65.000000,
132.000000=130.000000
;
#STOPS:52.000000=1.848000;
#WARPS:;
#DELAYS:;
#SPEEDS:0.000000=1.000000=0.000000=0;
#SCROLLS:0.000000=1.000000;
#TICKCOUNTS:;
#TIMESIGNATURES:0.000000=4=4;
#LABELS:;
#COMBOS:;
#FAKES:;
#BGCHANGES:;
#FGCHANGES:;
#ATTACKS:;
#KEYSOUNDS:;

//---------------dance-single - ---------------
#NOTEDATA:;
#CHARTNAME:;
#CHARTSTYLE:;
#CREDIT:;
#STEPSTYPE:dance-single;
#DESCRIPTION:;
#DIFFICULTY:Beginner;
#METER:4;
#METERF:4;
#RADARVALUES:0,0,0,0,0;
#NOTES:
// measure 0
0000
0000
0000
0000
,  // measure 1
0000
0000
0000
0000
,  // measure 2
0000
0000
0000
0000
,  // measure 3
0000
0000
0000
0000
,  // measure 4
0000
0000
0000
0000
,  // measure 5
1000
0000
0001
0000
,  // measure 6
1000
1000
1000
0000
,  // measure 7
0010
0000
1000
0000
,  // measure 8
0001
0001
0001
0000
,  // measure 9
0100
0000
0010
0000
,  // measure 10
1000
1000
1000
0000
,  // measure 11
0100
0000
0010
0000
,  // measure 12
0001
0001
0001
0000
,  // measure 13
0000
1001
0000
0000
0000
0000
0000
0000
0000
0000
0000
0000
0000
0000
0000
0000
0000
0000
0000
0000
0000
0000
0000
0000
0000
0000
0000
0000
0000
0000
0000
0000
0000
0000
0000
0000
0000
0000
0000
0000
0000
0000
0000
0000
0000
0000
0000
0000
0000
0000
0000
0000
0000
0000
0000
0000
0000
0000
0000
0000
0000
0000
0000
0000
0000
0000
0000
0000
0000
0000
0000
0000
0000
0000
0000
0000
0000
0000
0000
0000
0000
0000
0000
0000
0000
0000
0000
0000
0000
0000
0000
0000
0000
0000
0000
0000
0001
0000
0000
0000
0000
0000
0000
0000
0000
0000
0000
0000
0000
0000
0000
0000
0000
0000
0000
0000
0000
0000
0000
0000
0000
0000
0000
0000
0000
0000
0000
0000
0000
0000
0000
0000
0000
0000
0000
0000
0000
0000
0000
0000
0000
0000
0000
0000
0000
0000
0000
0000
0000
0000
0000
0000
0000
0000
0000
0000
0000
0000
0000
0000
0000
0000
0000
0000
0000
0000
0000
0000
0000
0000
0000
0000
0000
0000
0000
0000
0000
0000
0000
0000
0000
0000
0000
0000
0000
0000
0000
0000
0000
0000
0000
0000
,  // measure 14
1000
1000
1000
0000
,  // measure 15
0100
0000
0010
0000
,  // measure 16
0001
0001
0001
0000
,  // measure 17
0100
0000
0010
0000
,  // measure 18
1000
1000
1000
0000
,  // measure 19
0100
0000
1000
0000
,  // measure 20
0010
0010
0010
0000
,  // measure 21
1000
1000
1000
0000
,  // measure 22
0100
0100
0100
0000
,  // measure 23
0010
0010
0010
0000
,  // measure 24
0001
0000
0001
0000
,  // measure 25
1000
1000
1000
0000
,  // measure 26
0010
0010
0010
0000
,  // measure 27
0100
0100
0100
0000
,  // measure 28
0001
0000
0001
0000
,  // measure 29
1000
0000
0010
0000
,  // measure 30
0100
0000
0010
0000
,  // measure 31
1000
0000
0001
0000
,  // measure 32
0010
0000
0100
0000
,  // measure 33
1000
1000
1000
0000
,  // measure 34
0010
0010
0010
0000
,  // measure 35
0100
0100
0100
0000
,  // measure 36
0001
0000
0001
0000
,  // measure 37
1000
1000
1000
0000
,  // measure 38
0100
0100
0100
0000
,  // measure 39
0010
0010
0010
0000
,  // measure 40
0001
0000
0001
0000
,  // measure 41
1000
1000
1000
0000
,  // measure 42
0010
0010
0010
0000
,  // measure 43
0100
0100
0100
0000
,  // measure 44
0001
0000
0001
0000
,  // measure 45
1000
1000
1000
0000
,  // measure 46
0010
0010
0010
0000
,  // measure 47
0100
0100
0100
0000
,  // measure 48
0001
0000
1000
0000
,  // measure 49
2002
0000
0000
3003
;

//---------------dance-single - ---------------
#NOTEDATA:;
#CHARTNAME:;
#CHARTSTYLE:;
#CREDIT:;
#STEPSTYPE:dance-single;
#DESCRIPTION:;
#DIFFICULTY:Easy;
#METER:6;
#METERF:6;
#RADARVALUES:0,0,0,0,0;
#NOTES:
// measure 0
0000
0000
0000
0000
,  // measure 1
0000
0000
0000
0000
,  // measure 2
0000
0000
0000
0000
,  // measure 3
0000
0000
0000
0000
,  // measure 4
0000
0000
0000
0000
,  // measure 5
1000
0100
0010
0001
,  // measure 6
0100
0010
1000
0001
,  // measure 7
0010
0100
1000
0010
,  // measure 8
0100
1000
0100
0010
,  // measure 9
1000
0100
0010
0001
,  // measure 10
0100
0010
0100
0001
,  // measure 11
0010
0100
1000
0010
,  // measure 12
0100
0010
1000
0001
,  // measure 13
0000
1001
0000
0000
0000
0000
0000
0000
0000
0000
0000
0000
0000
0000
0000
0000
0000
0000
0000
0000
0000
0000
0000
0000
0000
0000
0000
0000
0000
0000
0000
0000
0000
0000
0000
0000
0000
0000
0000
0000
0000
0000
0000
0000
0000
0000
0000
0000
1000
0000
0000
0000
0000
0000
0000
0000
0000
0000
0000
0000
0000
0000
0000
0000
0000
0000
0000
0000
0000
0000
0000
0000
0000
0000
0000
0000
0000
0000
0000
0000
0000
0000
0000
0000
0000
0000
0000
0000
0000
0000
0000
0000
0000
0000
0000
0000
0010
0000
0000
0000
0000
0000
0000
0000
0000
0000
0000
0000
0000
0000
0000
0000
0000
0000
0000
0000
0000
0000
0000
0000
0000
0000
0000
0000
0000
0000
0000
0000
0000
0000
0000
0000
0000
0000
0000
0000
0000
0000
0000
0000
0000
0000
0000
0000
0100
0000
0000
0000
0000
0000
0000
0000
0000
0000
0000
0000
0000
0000
0000
0000
0000
0000
0000
0000
0000
0000
0000
0000
0000
0000
0000
0000
0000
0000
0000
0000
0000
0000
0000
0000
0000
0000
0000
0000
0000
0000
0000
0000
0000
0000
0000
0000
,  // measure 14
0001
0010
0100
1000
,  // measure 15
0010
0100
0001
0010
,  // measure 16
1000
0010
0100
1000
,  // measure 17
0010
0100
1000
0100
,  // measure 18
0010
1000
0001
0010
,  // measure 19
0100
1000
0001
0100
,  // measure 20
0010
0100
0001
0010
,  // measure 21
1000
1000
1000
0010
,  // measure 22
0100
0100
0100
1000
,  // measure 23
0010
0010
0010
0100
,  // measure 24
0001
0010
0100
1000
,  // measure 25
0001
0001
0001
1000
,  // measure 26
0100
0100
0100
1000
,  // measure 27
0010
0010
0010
0100
,  // measure 28
0001
0010
0100
1000
,  // measure 29
0002
0203
0320
2030
,  // measure 30
3002
0023
0230
2300
,  // measure 31
3002
0203
2300
3200
,  // measure 32
0320
2030
3002
0023
,  // measure 33
0031
0001
0001
0010
,  // measure 34
0100
0100
0100
1000
,  // measure 35
0010
0010
0010
0100
,  // measure 36
1000
0100
0001
1000
,  // measure 37
0001
0001
0001
0010
,  // measure 38
0100
0100
0100
1000
,  // measure 39
0010
0010
0010
0100
,  // measure 40
1000
0100
0001
0010
,  // measure 41
0100
1000
0010
0100
,  // measure 42
1000
0100
0010
1000
,  // measure 43
0100
0010
0001
0100
,  // measure 44
1000
0100
0010
1000
,  // measure 45
0001
0010
0100
0001
,  // measure 46
0100
0010
0001
0100
,  // measure 47
0010
1000
0001
0010
,  // measure 48
1000
0010
0001
1000
,  // measure 49
2002
0000
0000
3003
;

//---------------dance-single - ---------------
#NOTEDATA:;
#CHARTNAME:;
#CHARTSTYLE:;
#CREDIT:;
#STEPSTYPE:dance-single;
#DESCRIPTION:;
#DIFFICULTY:Medium;
#METER:11;
#METERF:11;
#RADARVALUES:0,0,0,0,0;
#NOTES:
// measure 0
0000
0000
0000
0000
,  // measure 1
0000
0000
0000
0000
,  // measure 2
0000
0000
0000
0000
0000
0000
0000
0000
0000
0000
0000
2000
,  // measure 3
0000
0000
3000
0000
0000
0002
0000
0000
0000
0000
0000
0000
0000
0000
0000
0000
,  // measure 4
0000
0003
0000
0000
,  // measure 5
1000
0000
0100
0000
0010
0001
0100
0000
,  // measure 6
0010
1000
0001
0010
,  // measure 7
0100
0000
1000
0000
0001
0100
0010
0000
,  // measure 8
0100
0001
0010
0100
,  // measure 9
1000
0000
0010
0000
0100
1000
0100
0000
,  // measure 10
0001
0010
0100
1000
,  // measure 11
0010
0000
0100
0000
0001
0010
0100
0000
,  // measure 12
1000
0000
0010
0000
0100
0001
1000
0001
,  // measure 13
0000
0101
0000
0000
0000
0000
0000
0000
0000
0000
0000
0000
0000
0000
0000
0000
0000
0000
0000
0000
0000
0000
0000
0000
0000
0000
0000
0000
0000
0000
0000
0000
0000
0000
0000
0000
0000
0000
0000
0000
0000
0000
0000
0000
0000
0000
0000
0000
0110
0000
0000
0000
0000
0000
0000
0000
0000
0000
0000
0000
0000
0000
0000
0000
0000
0000
0000
0000
0000
0000
0000
0000
0000
0000
0000
0000
0000
0000
0000
0000
0000
0000
0000
0000
0000
0000
0000
0000
0000
0000
0000
0000
0000
0000
0000
0000
0010
0000
0000
0000
0000
0000
0000
0000
0000
0000
0000
0000
0000
0000
0000
0000
0000
0000
0000
0000
0000
0000
0000
0000
1000
0000
0000
0000
0000
0000
0000
0000
0000
0000
0000
0000
0000
0000
0000
0000
0000
0000
0000
0000
0000
0000
0000
0000
0100
0000
0000
0000
0000
0000
0000
0000
0000
0000
0000
0000
0000
0000
0000
0000
0000
0000
0000
0000
0000
0000
0000
0000
0000
0000
0000
0000
0000
0000
0000
0000
0000
0000
0000
0000
0000
0000
0000
0000
0000
0000
0000
0000
0000
0000
0000
0000
,  // measure 14
0010
0001
1000
0000
0010
1000
0100
0000
,  // measure 15
0110
0000
0011
0000
0001
1000
0010
0000
,  // measure 16
0100
0001
1000
0000
0100
0010
0001
0000
,  // measure 17
1001
0000
0110
0000
0010
1000
0100
0000
,  // measure 18
0010
1000
0010
0000
0100
1000
0100
0000
,  // measure 19
1100
0000
0011
0000
0001
0100
0010
0000
,  // measure 20
1000
0001
0010
0000
0001
0100
0010
0000
,  // measure 21
1000
0000
0000
0001
0000
0000
1000
0000
0000
0000
0000
0000
0010
0000
0000
0000
,  // measure 22
0100
0000
0000
0001
0000
0000
0100
0000
0000
0000
0000
0000
0001
0000
0000
0000
,  // measure 23
0011
0000
0000
1010
0000
0000
0011
0000
0000
0000
0001
0000
0100
0000
0000
0000
,  // measure 24
0010
0000
0100
0000
0001
1000
0100
0000
,  // measure 25
1000
0000
0000
0010
0000
0000
1000
0000
0000
0000
0001
0000
1000
0000
0000
0000
,  // measure 26
0100
0000
0000
0010
0000
0000
0100
0000
0000
0000
1000
0000
0001
0000
0000
0000
,  // measure 27
0011
0000
0000
1010
0000
0000
0011
0000
0000
0000
0001
0000
1000
0000
0000
0000
,  // measure 28
0100
0000
0000
1000
0000
0000
0020
0000
0000
0000
0130
0000
0001
0000
0000
0000
,  // measure 29
2000
0100
0000
3100
0002
0100
0000
0103
,  // measure 30
2000
0010
0000
3010
0002
0010
0000
0013
,  // measure 31
2000
0100
0000
3010
0002
0010
0000
0103
,  // measure 32
2000
0001
0000
3100
0020
0001
0000
1030
,  // measure 33
1010
0000
0000
0101
0000
0000
2020
0000
0000
0000
0000
0000
3030
0000
0000
0000
,  // measure 34
0110
0000
0000
1001
0000
0000
0220
0000
0000
0000
0000
0000
0330
0000
0000
0000
,  // measure 35
0011
0000
0000
1100
0000
0000
0022
0000
0000
0033
0000
0000
1001
0000
0000
0000
,  // measure 36
1000
0010
0100
0010
1000
0100
0010
0000
,  // measure 37
0110
0000
0000
1001
0000
0000
0110
0000
0000
0000
0010
0000
0100
0000
0000
0000
,  // measure 38
1100
0000
0000
0011
0000
0000
1100
0000
0000
0000
0100
0000
1000
0000
0000
0000
,  // measure 39
1001
0000
0000
0110
0000
0000
1001
0000
0000
0000
0001
0000
1000
0000
0000
0000
,  // measure 40
0100
0000
1000
0000
0010
0100
0001
0000
,  // measure 41
0010
0000
0100
0000
0010
0001
0100
0000
,  // measure 42
0010
0000
0100
0000
0010
1000
0100
0000
,  // measure 43
0001
0000
0100
0000
1000
0001
0100
0000
,  // measure 44
1000
0000
0100
0000
0010
1000
0100
0000
,  // measure 45
0010
0000
0001
0000
0100
0010
1000
0000
,  // measure 46
0001
0000
0010
0000
1000
0010
0001
0000
,  // measure 47
0100
0000
0010
0000
1000
0100
0010
0000
,  // measure 48
0100
0000
1000
0000
0001
0100
0010
0000
,  // measure 49
0220
0000
0000
0330
;

//---------------dance-single - ---------------
#NOTEDATA:;
#CHARTNAME:;
#CHARTSTYLE:;
#CREDIT:;
#STEPSTYPE:dance-single;
#DESCRIPTION:;
#DIFFICULTY:Hard;
#METER:15;
#METERF:15;
#RADARVALUES:0,0,0,0,0;
#NOTES:
// measure 0
0000
0000
0000
0000
,  // measure 1
0000
0000
0000
0000
,  // measure 2
0000
0000
0000
0000
0000
0000
0000
0000
0000
0000
0000
0220
,  // measure 3
0000
0000
0330
0000
0000
2002
0000
0000
0000
0000
0000
0000
0000
0000
0000
0000
,  // measure 4
0000
0000
3003
0000
0000
1000
0010
0100
,  // measure 5
0001
0010
0100
1000
0010
0200
0000
2300
,  // measure 6
0000
3200
0000
0302
0000
1003
1000
0100
,  // measure 7
0010
0100
1000
0010
0100
0002
0000
0023
,  // measure 8
0000
0230
0000
2300
0000
3020
0000
0130
,  // measure 9
1000
0100
0010
1000
0001
0020
0000
0230
,  // measure 10
0000
2300
0000
3002
0000
0103
0010
0100
,  // measure 11
0001
0010
0100
1000
0010
0200
0000
0302
,  // measure 12
0000
2003
0000
3020
0000
2030
0000
3001
,  // measure 13
0000
1001
0000
0000
0000
0000
0000
0000
0000
0000
0000
0000
0000
0000
0000
0000
0000
0000
0000
0000
0000
0000
0000
0000
0000
0000
0000
0000
0000
0000
0000
0000
0000
0000
0000
0000
0001
0000
0000
0000
0000
0000
0000
0000
0000
0000
0000
0000
0100
0000
0000
0000
0000
0000
0000
0000
0000
0000
0000
0000
0000
0000
0000
0000
0000
0000
0000
0000
0000
0000
0000
0000
0010
0000
0000
0000
0000
0000
0000
0000
0000
0000
0000
0000
0000
0000
0000
0000
0000
0000
0000
0000
0000
0000
0000
0000
1010
0000
0000
0000
0000
0000
0000
0000
0000
0000
0000
0000
0000
0000
0000
0000
0000
0000
0000
0000
0000
0000
0000
0000
1000
0000
0000
0000
0000
0000
0000
0000
0000
0000
0000
0000
0100
0000
0000
0000
0000
0000
0000
0000
0000
0000
0000
0000
0010
0000
0000
0000
0000
0000
0000
0000
0000
0000
0000
0000
0000
0000
0000
0000
0000
0000
0000
0000
0000
0000
0000
0000
0001
0000
0000
0000
0000
0000
0000
0000
0000
0000
0000
0000
0000
0000
0000
0000
0000
0000
0000
0000
0000
0000
0000
0000
,  // measure 14
1001
0000
0000
1000
0010
0000
0100
0000
0101
0000
0001
1000
0100
0000
0010
0000
,  // measure 15
0011
0000
0000
0010
0100
0000
1000
0000
1010
0000
0010
0001
1000
0000
0100
0000
,  // measure 16
0110
0000
0000
0100
1000
0000
0001
0000
0101
0000
0100
1000
0001
0000
0010
0000
,  // measure 17
0011
0000
0000
0010
0100
0000
1000
0000
1001
0000
0001
0010
1000
0000
0010
0000
,  // measure 18
0011
0000
0000
0001
0100
0000
1000
0000
1100
0000
1000
0100
0010
0000
1000
0000
,  // measure 19
1001
0000
0000
1000
0100
0000
0010
0000
0011
0000
0010
0100
1000
0000
0010
0000
,  // measure 20
0110
0000
0000
0100
0001
0000
0010
0000
0110
0000
0010
0001
0100
0000
0010
0000
,  // measure 21
1010
0000
0000
0011
0000
0000
2020
0000
3030
0000
1000
0000
0010
0000
0100
0000
,  // measure 22
0101
0000
0000
1100
0000
0000
0202
0000
0303
0000
0001
0000
0100
0000
0010
0000
,  // measure 23
1010
0000
0000
0011
0000
0000
2020
0000
3030
0000
1000
0000
0010
0000
0100
0000
,  // measure 24
0002
0000
0000
2003
0000
0000
3200
0000
0310
0000
0001
0010
0100
0000
1000
0000
,  // measure 25
1010
0000
0000
0011
0000
0000
1010
0000
0101
0000
0000
1100
0000
0000
0101
0000
,  // measure 26
0101
0000
0000
1100
0000
0000
0101
0000
1010
0000
0000
0011
0000
0000
1010
0000
,  // measure 27
1001
0000
0000
0110
0000
0000
2002
0000
3003
0000
1000
0100
0001
0000
0100
0000
,  // measure 28
2000
3020
0230
0302
0023
0230
2300
3020
,  // measure 29
0130
0001
0101
0000
0001
1000
1100
0000
0100
0010
0011
0000
0001
0100
0110
0000
,  // measure 30
1000
0100
1001
0000
0001
0100
1001
0000
1000
0010
1001
0000
0001
0010
1001
0000
,  // measure 31
1000
0001
0011
0000
0001
1000
1010
0000
1000
0001
0101
0000
0001
1000
1100
0000
,  // measure 32
1000
0010
0110
0000
1000
0100
0110
0000
2020
3030
0022
0033
2020
3030
2002
3003
,  // measure 33
0110
0000
0000
1010
0000
0000
0022
0000
0033
0000
0001
0000
0010
0000
0100
0000
,  // measure 34
1100
0000
0000
0101
0000
0000
2200
0000
3300
0000
1000
0000
0100
0000
0010
0000
,  // measure 35
0011
0000
0000
1010
0000
0000
0022
0000
0033
0000
0001
0010
0100
0000
1000
0000
,  // measure 36
0001
0000
0100
0010
1000
0000
0100
0010
0001
0000
0100
0001
1000
0000
0100
0000
,  // measure 37
1000
0000
0010
0100
0000
0001
0010
0000
0100
1000
0010
0100
1000
0000
0100
0000
,  // measure 38
0010
0000
1000
0100
0000
0010
0001
0000
0100
0010
0001
0010
0100
0000
0001
0000
,  // measure 39
0010
0000
0100
0010
0000
0001
0010
0000
1000
0010
0001
0100
0010
0000
1000
0000
,  // measure 40
0001
0000
0100
0001
1000
0000
0020
0000
1000
0000
0001
0000
1000
0000
1000
0000
,  // measure 41
0001
0000
0000
1000
0000
0000
0001
0000
0000
0000
0001
0000
0100
0000
1000
0000
,  // measure 42
0100
0000
0000
0100
0000
0000
0100
0000
0000
0000
0100
0000
1000
0000
0001
0000
,  // measure 43
1000
0000
0000
1000
0000
0000
1000
0000
0000
0000
1000
0000
0001
0000
1000
0000
,  // measure 44
0230
0000
0000
0302
0000
0000
0023
0000
0130
0010
0001
0100
0010
1000
0001
0010
,  // measure 45
0110
0000
0000
1100
0000
0000
1001
0000
0000
0000
1001
0000
0011
0000
1001
0000
,  // measure 46
1100
0000
0000
0110
0000
0000
0011
0000
0000
0000
0011
0000
0110
0000
1100
0000
,  // measure 47
1001
0000
0000
0110
0000
0000
1001
0000
0000
0000
1000
0100
0010
0000
0001
0000
,  // measure 48
0100
0010
1000
0001
0010
0100
1000
0010
0100
1000
0100
0001
1000
0100
0010
0001
,  // measure 49
2002
0000
0000
3003
;
