#TITLE:Et Cetera;
#SUBTITLE:;
#ARTIST:Sinéad Mulvey and Black Daisy;
#MUSIC:Et Cetera.ogg;
#BANNER:Et Cetera.png;
#BACKGROUND:Et Cetera-bg.png;
#LYRICSPATH:;
#CDTITLE:;
#SAMPLESTART:48.309;
#SAMPLELENGTH:12.397000000000006;
#BPMS:0.000000=170.000000;
#STOPS:;
#TIMESIGNATURES:;
#BGCHANGES:;
#FGCHANGES:;
#ATTACKS:;
#SPEEDS:;
#SCROLLS:;
#KEYSOUNDS:;

//---------------dance-single - ---------------
#NOTES:
     dance-single:
     :
     Beginner:
     5:
     0,0,0,0,0:
// measure 0
0000
0000
0000
0000
,  // measure 1
1000
1000
1000
0000
,  // measure 2
0001
0001
0001
0000
,  // measure 3
1000
1000
1000
0000
,  // measure 4
0200
0000
0300
0000
,  // measure 5
0001
0001
0001
0000
,  // measure 6
0100
0000
0010
0000
,  // measure 7
0220
0000
0330
0000
,  // measure 8
2002
0000
3003
0000
,  // measure 9
1000
1000
1000
0000
,  // measure 10
0001
0001
0001
0000
,  // measure 11
1000
0000
1000
0000
,  // measure 12
0001
0001
0001
0000
,  // measure 13
0100
0000
0100
0000
,  // measure 14
0001
0001
0001
0000
,  // measure 15
1000
0000
0100
0000
,  // measure 16
0001
0000
0100
0000
,  // measure 17
1000
0000
0010
0000
,  // measure 18
0110
0000
0110
0000
,  // measure 19
1000
0000
0001
0000
,  // measure 20
0010
0010
0010
0000
,  // measure 21
0001
0000
1000
0000
,  // measure 22
0010
0010
0010
0000
,  // measure 23
1000
0000
0001
0000
,  // measure 24
0100
0000
0010
0000
,  // measure 25
1000
0000
0001
0000
,  // measure 26
0010
0010
0010
0000
,  // measure 27
0002
0003
0001
0000
,  // measure 28
2000
3000
1000
0000
,  // measure 29
0020
0030
0010
0000
,  // measure 30
0200
0300
0100
0000
,  // measure 31
0002
0003
0001
0000
,  // measure 32
2000
3000
1000
0000
,  // measure 33
0020
0000
0030
0000
,  // measure 34
0110
0000
0000
0000
,  // measure 35
1000
1000
1000
0000
,  // measure 36
0010
0010
0010
0000
,  // measure 37
1000
1000
1000
0000
,  // measure 38
0002
0003
0001
0000
,  // measure 39
0100
0100
0100
0000
,  // measure 40
0010
0010
0010
0000
,  // measure 41
2000
0000
3000
0000
,  // measure 42
0002
0000
0003
0000
,  // measure 43
1000
1000
1000
0000
,  // measure 44
0010
0010
0010
0000
,  // measure 45
1000
1000
1000
0000
,  // measure 46
0002
0003
0001
0000
,  // measure 47
1000
1000
1000
0000
,  // measure 48
0010
0010
0010
0000
,  // measure 49
2000
0000
3000
0000
,  // measure 50
0020
0000
0030
0000
,  // measure 51
1000
1000
1000
0000
,  // measure 52
0001
0001
0001
0000
,  // measure 53
1000
1000
1000
0000
,  // measure 54
0200
0000
0300
0000
,  // measure 55
1000
1000
1000
0000
,  // measure 56
0001
0000
1000
0000
,  // measure 57
2002
0000
3003
0000
,  // measure 58
0220
0000
0330
0000
,  // measure 59
0001
0001
0001
0000
,  // measure 60
1000
1000
1000
0000
,  // measure 61
0010
0010
0010
0000
,  // measure 62
2002
0000
0000
0000
,  // measure 63
3003
0000
0000
0000
;

//---------------dance-single - ---------------
#NOTES:
     dance-single:
     :
     Easy:
     11:
     0,0,0,0,0:
// measure 0
0000
0000
0000
0000
,  // measure 1
1000
0010
0100
0001
,  // measure 2
0100
0010
1010
1100
,  // measure 3
1000
0001
0100
0010
,  // measure 4
0100
0001
0011
0101
,  // measure 5
0010
1000
0001
0010
,  // measure 6
0100
1000
0010
0100
,  // measure 7
0001
0010
0100
0010
,  // measure 8
0001
1000
1010
0101
,  // measure 9
0001
0100
1000
0100
,  // measure 10
0001
1000
0100
0001
,  // measure 11
0100
1000
0001
0100
,  // measure 12
0010
1000
0100
0010
,  // measure 13
0001
1000
0100
0010
,  // measure 14
0001
1000
0010
0110
,  // measure 15
0010
1000
0001
0100
,  // measure 16
1010
0110
0011
0110
,  // measure 17
1000
0001
0100
0010
,  // measure 18
1000
0000
0000
0001
0000
0000
1000
0000
,  // measure 19
0001
0100
0010
1000
,  // measure 20
0001
0010
0100
0010
,  // measure 21
0001
1000
0010
0100
,  // measure 22
0001
0010
0100
0110
,  // measure 23
0100
1000
0010
0100
,  // measure 24
0101
0110
1100
0110
,  // measure 25
0001
0010
0100
0010
,  // measure 26
0001
1000
0010
1010
,  // measure 27
0010
0010
1000
1000
,  // measure 28
0001
0001
0010
0011
,  // measure 29
0001
0001
1000
1000
,  // measure 30
0010
0010
0100
0110
,  // measure 31
0100
0001
1000
0010
,  // measure 32
1000
0001
0100
0010
,  // measure 33
2000
0000
0000
3000
,  // measure 34
1001
0000
0000
0000
,  // measure 35
1000
1000
0010
0010
,  // measure 36
1000
1000
0001
0100
,  // measure 37
0010
1000
0100
0010
,  // measure 38
0001
1000
0010
0110
,  // measure 39
0010
1000
0001
0010
,  // measure 40
0100
1000
0010
0100
,  // measure 41
0001
0100
0010
0001
,  // measure 42
0010
0100
0001
0011
,  // measure 43
0010
0100
1000
0010
,  // measure 44
0100
0001
0010
1000
,  // measure 45
0010
0001
0100
0010
,  // measure 46
1000
0001
0100
1001
,  // measure 47
1000
0001
0100
0010
,  // measure 48
0110
0011
0110
1010
,  // measure 49
1000
0001
0100
0010
,  // measure 50
0100
0110
1000
1001
,  // measure 51
1000
0001
0010
0100
,  // measure 52
1000
0010
0100
0110
,  // measure 53
0010
1000
0001
0100
,  // measure 54
0010
1000
0001
1001
,  // measure 55
1000
0010
0001
0010
,  // measure 56
2000
3100
0002
0103
,  // measure 57
2000
0001
0100
3010
,  // measure 58
0100
0001
0010
0110
,  // measure 59
0010
0010
0001
0001
,  // measure 60
1000
1000
0010
0010
,  // measure 61
1000
0100
0010
0001
,  // measure 62
2002
0000
0000
0000
,  // measure 63
3003
0000
0000
0000
;

//---------------dance-single - ---------------
#NOTES:
     dance-single:
     :
     Medium:
     13:
     0,0,0,0,0:
// measure 0
0000
0000
0000
0000
,  // measure 1
1000
0000
1000
0010
0000
0010
1000
0000
,  // measure 2
1000
0000
1000
0001
0000
0001
1000
0000
,  // measure 3
1000
0000
1000
0010
0000
0010
1000
0000
,  // measure 4
0002
0203
0320
2030
,  // measure 5
3001
0000
0001
0100
0000
0100
0010
0000
,  // measure 6
0020
1030
2000
3001
,  // measure 7
0002
1000
0100
0010
,  // measure 8
0100
1000
0103
0101
,  // measure 9
2000
3100
0002
0103
,  // measure 10
2000
3010
0002
0013
,  // measure 11
1000
0000
0001
0000
1000
0010
0000
1000
,  // measure 12
0000
0100
0000
0010
0000
0001
0000
1000
,  // measure 13
0001
0000
1000
0000
0010
1000
0000
0100
,  // measure 14
0000
0010
0000
0002
0000
0003
1001
0000
,  // measure 15
1000
0000
0010
0000
0100
0001
0000
0010
,  // measure 16
0000
0001
0000
1000
0000
0010
0000
0100
,  // measure 17
0000
0001
0000
1000
0000
0020
0000
0030
,  // measure 18
1010
0000
1000
1100
0000
0100
0110
0000
,  // measure 19
0011
0000
0001
0000
1000
0010
0000
0020
,  // measure 20
0000
0000
1030
0200
0000
0300
0110
0000
,  // measure 21
0010
0000
1000
0000
0001
0010
0000
0020
,  // measure 22
0000
0031
1000
0001
0000
0001
1001
0000
,  // measure 23
1000
0000
1000
0001
0100
0001
0000
0100
,  // measure 24
0000
0010
0000
1000
0000
0001
0000
2000
,  // measure 25
0000
3000
1000
0000
0001
0100
0000
0001
,  // measure 26
2000
3002
0013
0110
,  // measure 27
0010
0000
0001
0000
1000
0010
0000
0100
,  // measure 28
0000
0010
1000
0000
0001
0000
1001
0000
,  // measure 29
1000
0000
0010
0000
0100
0010
0000
2000
,  // measure 30
0000
3001
0100
0110
,  // measure 31
0010
0000
1000
0000
0001
0010
0000
0100
,  // measure 32
0000
0010
0000
0001
0000
1000
0000
0020
,  // measure 33
0100
0100
0100
0130
,  // measure 34
0110
0000
0020
0000
2030
0000
3001
0001
,  // measure 35
0011
0000
0010
0100
0000
0100
1000
0000
,  // measure 36
1100
0000
1000
0010
0000
0010
0100
0000
,  // measure 37
0101
0000
0001
0010
0000
0010
0000
1000
,  // measure 38
0002
0000
2003
0000
3020
0000
0130
1000
,  // measure 39
0001
0100
0000
0010
0000
1000
0000
0001
,  // measure 40
0000
0100
0000
0010
0000
0100
0000
0100
,  // measure 41
0200
0001
0010
1000
,  // measure 42
0310
0000
0010
0000
1000
0000
0001
0100
,  // measure 43
0010
0000
0010
1000
0000
1000
0001
0000
,  // measure 44
0001
0000
0001
0100
0000
0100
0010
0000
,  // measure 45
0010
0000
0010
1000
0000
0001
0000
0022
,  // measure 46
0000
0000
0033
0000
0011
0000
0010
0100
,  // measure 47
0000
0010
0000
0001
0000
1000
0000
0010
,  // measure 48
0000
0100
0000
0002
0000
0000
0013
0010
,  // measure 49
0200
2300
3002
0203
,  // measure 50
0310
0010
1000
0000
1000
1000
0001
0000
,  // measure 51
0010
0000
0010
0100
0000
0100
1000
0000
,  // measure 52
1000
0000
1000
0001
0000
0001
0010
0000
,  // measure 53
0010
0000
0010
1000
0000
1000
0010
0000
,  // measure 54
0002
0203
0320
2030
,  // measure 55
3100
0000
0100
0010
0000
0010
0001
0000
,  // measure 56
0002
0103
0020
1030
,  // measure 57
0200
1000
0010
0301
,  // measure 58
0001
0100
1000
0000
1000
0010
0100
0000
,  // measure 59
0001
0000
0010
0010
0001
0000
1000
0000
,  // measure 60
0010
0000
0100
0100
0010
0000
1000
0000
,  // measure 61
0001
0000
1000
1000
0010
0000
0100
0000
,  // measure 62
0002
0000
0013
0200
0000
1300
2002
0000
,  // measure 63
3003
0000
0000
0000
;

//---------------dance-single - ---------------
#NOTES:
     dance-single:
     :
     Hard:
     15:
     0,0,0,0,0:
// measure 0
0000
0000
0000
0000
,  // measure 1
2000
3000
1000
0002
0003
0001
1000
0000
,  // measure 2
2000
3000
1000
0020
0030
0010
1000
0000
,  // measure 3
2000
3000
1000
0200
0300
0100
1000
0000
,  // measure 4
1000
0001
0100
0010
1000
0100
0010
0001
,  // measure 5
2000
3000
1000
0020
0030
0010
2000
0000
,  // measure 6
3002
1000
0023
0001
,  // measure 7
0230
0000
1300
0000
0001
0001
0100
0000
,  // measure 8
0001
0100
0010
1000
0001
0010
0110
0000
,  // measure 9
0001
0010
1010
0010
0001
0010
1000
0010
,  // measure 10
0001
0010
1010
0010
0001
0010
1000
0010
,  // measure 11
0001
0001
0100
0000
0100
0020
0000
2030
,  // measure 12
0000
3002
0000
0023
0000
0230
0000
0310
,  // measure 13
0001
0001
0200
0000
1300
0200
0000
0302
,  // measure 14
0000
0023
0000
0230
1000
1300
1100
0000
,  // measure 15
1000
0001
0100
0010
1000
0002
0000
0023
,  // measure 16
0000
2030
0000
3020
0000
0032
0000
0203
,  // measure 17
0000
2300
0000
3200
0000
0302
0000
0003
,  // measure 18
0101
0000
0001
0011
0000
0010
0110
0000
,  // measure 19
1100
0000
1001
0000
0001
0200
0000
2300
,  // measure 20
0001
0000
3002
0023
0000
0000
2030
0000
,  // measure 21
3001
0001
0100
0100
0010
0010
1000
0020
,  // measure 22
1030
0020
0031
0010
1000
0001
0011
0000
,  // measure 23
1001
0000
1100
1000
0001
0200
0000
2300
,  // measure 24
0000
3020
0000
0032
0000
0203
0000
0301
,  // measure 25
1000
0000
1100
0000
1000
0001
0100
0010
,  // measure 26
2000
3002
0023
0230
,  // measure 27
1300
0000
0110
0000
0011
0010
0100
1000
,  // measure 28
0001
0011
1100
0011
,  // measure 29
1001
0000
1010
0000
0101
0100
1000
0200
,  // measure 30
0000
0301
0010
0100
1000
0100
0010
0001
,  // measure 31
0011
0000
1100
0000
0110
0200
0000
2300
,  // measure 32
0000
3002
0000
0203
0000
0320
0030
0020
,  // measure 33
2030
0000
0000
0000
3002
0000
0000
0000
0023
0000
0000
0000
0230
0000
0000
0000
2300
0000
0000
0000
3002
0000
0000
0000
0203
0000
0000
0000
0320
0000
0000
0030
,  // measure 34
1010
0000
2000
0000
3020
0030
0010
0100
,  // measure 35
0001
0010
0100
1000
0010
0100
0001
1000
,  // measure 36
0001
0100
0010
1000
0010
0100
0010
1000
,  // measure 37
0100
0001
0100
1000
0001
0100
0010
1000
,  // measure 38
0001
0010
0110
0000
1000
0100
0110
0010
,  // measure 39
0001
0100
1000
0100
0001
0100
1000
0100
,  // measure 40
0001
0010
1000
0010
0001
0010
1000
0010
,  // measure 41
0002
0203
2300
3020
,  // measure 42
0031
0001
0100
0100
1000
1000
0100
0100
,  // measure 43
0001
1000
0010
0100
0001
0010
0100
1000
,  // measure 44
0001
0100
0010
1000
0100
0010
0001
0100
,  // measure 45
0002
0000
0013
0200
0000
0000
1300
2002
,  // measure 46
0000
0000
3003
0000
1100
0000
1000
0100
,  // measure 47
0010
0001
0200
0310
1000
0001
0020
0130
,  // measure 48
1000
0001
0200
1300
0100
0001
0020
0130
,  // measure 49
2000
0000
0001
0000
0010
0010
3010
0000
,  // measure 50
0001
0010
0100
1000
1001
1001
0011
0000
,  // measure 51
1000
0010
0100
0001
0010
0100
1000
0001
,  // measure 52
0100
0010
1000
0100
0010
0001
0100
0001
,  // measure 53
1000
0001
0010
0001
1000
0010
1000
0001
,  // measure 54
0200
0000
1000
0000
0001
0001
0301
0000
,  // measure 55
0001
0010
0100
1000
0010
0100
0001
0010
,  // measure 56
0200
0301
0002
1003
,  // measure 57
1000
0100
0001
1000
0100
0001
0100
1000
,  // measure 58
0010
0100
0110
0000
1000
0001
1001
0000
,  // measure 59
1000
0001
1001
0001
1000
0010
0100
0001
,  // measure 60
1000
0010
0110
0010
1000
0001
0010
0100
,  // measure 61
1000
0001
1001
0001
0100
0010
0110
0010
,  // measure 62
2000
0000
3200
0302
0000
0023
2030
0000
,  // measure 63
3000
0000
0000
0000
;
