#VERSION:0.83;
#TITLE:Eojjidwaetdeun;
#SUBTITLE:;
#ARTIST:Ahn Sungyoon;
#TITLETRANSLIT:;
#SUBTITLETRANSLIT:;
#ARTISTTRANSLIT:;
#GENRE:;
#CREDIT:;
#ORIGIN:;
#MUSIC:Eojjidwaetdeun.ogg;
#BANNER:Eojjidwaetdeun.png;
#BACKGROUND:Eojjidwaetdeun-bg.png;
#JACKET:Eojjidwaetdeun-jacket.png;
#DISCIMAGE:;
#CDIMAGE:;
#SELECTABLE:YES;
#LYRICSPATH:;
#CDTITLE:;
#SAMPLESTART:64.365;
#SAMPLELENGTH:12.781000000000006;
#OFFSET:0.25;
#BPMS:0.000000=169.000000;
#STOPS:;
#WARPS:;
#DELAYS:;
#SPEEDS:0.000000=1.000000=0.000000=0;
#SCROLLS:0.000000=1.000000;
#TICKCOUNTS:;
#TIMESIGNATURES:0.000000=4=4;
#LABELS:;
#COMBOS:;
#FAKES:;
#BGCHANGES:;
#FGCHANGES:;
#ATTACKS:;
#KEYSOUNDS:;

//---------------dance-single - ---------------
#NOTEDATA:;
#CHARTNAME:;
#CHARTSTYLE:;
#CREDIT:;
#STEPSTYPE:dance-single;
#DESCRIPTION:;
#DIFFICULTY:Beginner;
#METER:4;
#METERF:4;
#RADARVALUES:0,0,0,0,0;
#NOTES:
// measure 0
0000
0000
0000
0000
,  // measure 1
1000
1000
1000
0000
,  // measure 2
0001
0001
0001
0000
,  // measure 3
0010
0010
0010
0000
,  // measure 4
0100
0100
0100
0000
,  // measure 5
1000
1000
1000
0000
,  // measure 6
0010
0010
0010
0000
,  // measure 7
0100
0100
0100
0000
,  // measure 8
0001
0001
0001
0001
,  // measure 9
0001
0000
1000
0000
,  // measure 10
0010
0000
0100
0000
,  // measure 11
0001
0001
0001
0000
,  // measure 12
0100
0100
0100
0000
,  // measure 13
0010
0000
1000
0000
,  // measure 14
0001
0000
0010
0000
,  // measure 15
0100
0100
0100
0000
,  // measure 16
1000
1000
1000
0000
,  // measure 17
0001
0000
0100
0000
,  // measure 18
0010
0000
1000
0000
,  // measure 19
0001
0000
0010
0000
,  // measure 20
0100
0000
1000
0000
,  // measure 21
0010
0000
0100
0000
,  // measure 22
0001
0000
0010
0000
,  // measure 23
0100
0000
1000
0000
,  // measure 24
0001
0000
0100
0000
,  // measure 25
0010
0010
0010
0000
,  // measure 26
1000
1000
1000
0000
,  // measure 27
0001
0001
0001
0000
,  // measure 28
0010
0010
0010
0000
,  // measure 29
0100
0000
1000
0000
,  // measure 30
0001
0000
0100
0000
,  // measure 31
0010
0010
0010
0000
,  // measure 32
1000
1000
1000
0000
,  // measure 33
0001
0000
0010
0000
,  // measure 34
0100
0000
1000
0000
,  // measure 35
0001
0001
0001
0000
,  // measure 36
0100
0100
0100
0000
,  // measure 37
0010
0000
0100
0000
,  // measure 38
0001
0000
1000
0000
,  // measure 39
0010
0000
0001
0000
,  // measure 40
0010
0000
0100
0000
,  // measure 41
0001
0000
1000
0000
,  // measure 42
0100
0000
0010
0000
,  // measure 43
0001
0000
0100
0000
,  // measure 44
0010
0000
1000
1000
,  // measure 45
0000
1001
1001
0000
,  // measure 46
0001
0000
0100
0100
,  // measure 47
0100
0000
0001
0000
,  // measure 48
0010
0000
0100
0000
,  // measure 49
1000
0000
0001
0000
,  // measure 50
0100
0000
0001
0001
,  // measure 51
0001
0000
0010
0000
,  // measure 52
0100
0000
1000
0000
,  // measure 53
0001
0000
0110
0000
,  // measure 54
0100
0000
1000
1000
,  // measure 55
1000
0000
0010
0000
,  // measure 56
0100
0000
0001
0000
,  // measure 57
1000
0000
0100
0000
,  // measure 58
0010
0000
0001
0001
,  // measure 59
0001
0000
0100
0000
,  // measure 60
0010
0000
1000
1000
,  // measure 61
1000
1000
1001
0000
,  // measure 62
1000
0000
0100
0100
,  // measure 63
0100
0000
0010
0000
,  // measure 64
0001
0000
0100
0000
,  // measure 65
0010
0000
1000
0000
,  // measure 66
0001
0000
0010
0010
,  // measure 67
0010
0000
0100
0000
,  // measure 68
1000
0000
0010
0000
,  // measure 69
0100
0000
1000
0000
,  // measure 70
0100
0000
0001
0001
,  // measure 71
0001
0000
0010
0000
,  // measure 72
0100
0000
1000
0000
,  // measure 73
0010
0000
0100
0000
,  // measure 74
0001
0000
0010
0010
,  // measure 75
0010
0000
0100
0000
,  // measure 76
1000
0000
0001
0001
,  // measure 77
0001
0001
1001
0000
;

//---------------dance-single - ---------------
#NOTEDATA:;
#CHARTNAME:;
#CHARTSTYLE:;
#CREDIT:;
#STEPSTYPE:dance-single;
#DESCRIPTION:;
#DIFFICULTY:Easy;
#METER:8;
#METERF:8;
#RADARVALUES:0,0,0,0,0;
#NOTES:
// measure 0
0000
0000
0000
0000
,  // measure 1
1001
1000
0010
0100
,  // measure 2
0001
0010
0100
1000
,  // measure 3
0010
0100
1000
0100
,  // measure 4
0001
0010
0100
1000
,  // measure 5
0010
0100
0001
0010
,  // measure 6
1000
0010
0100
1000
,  // measure 7
0010
0100
0001
0010
,  // measure 8
0100
1000
0001
0001
,  // measure 9
1001
1000
0010
0100
,  // measure 10
0001
0010
0100
1000
,  // measure 11
0010
0100
0001
0100
,  // measure 12
0010
1000
0100
0010
,  // measure 13
0001
0100
0010
1000
,  // measure 14
0001
0010
1000
0010
,  // measure 15
0100
1000
0010
0100
,  // measure 16
0001
0010
0100
1000
,  // measure 17
0001
0001
0010
0010
,  // measure 18
0100
0100
1000
1000
,  // measure 19
0010
0010
0100
0100
,  // measure 20
1000
1000
0100
0100
,  // measure 21
0001
0001
0010
0010
,  // measure 22
0100
0100
1000
1000
,  // measure 23
0001
0001
0100
0100
,  // measure 24
0010
0010
1000
1000
,  // measure 25
1001
1000
0100
0010
,  // measure 26
0001
0100
0010
1000
,  // measure 27
0100
0010
0001
0010
,  // measure 28
0100
1000
0010
0100
,  // measure 29
0110
0010
1000
0001
,  // measure 30
0010
0100
1000
0001
,  // measure 31
0100
0010
1000
0020
,  // measure 32
0130
0002
1003
0001
,  // measure 33
0100
0010
1000
0001
,  // measure 34
0010
0100
1000
0001
,  // measure 35
0100
0010
1000
0020
,  // measure 36
0130
0001
0010
0100
,  // measure 37
1000
1000
0010
0010
,  // measure 38
0100
0100
0001
0001
,  // measure 39
0010
0010
0100
0100
,  // measure 40
1000
1000
0001
0001
,  // measure 41
0100
0100
0010
0010
,  // measure 42
1000
1000
0001
0001
,  // measure 43
0010
0010
0100
0100
,  // measure 44
1000
1000
0001
0001
,  // measure 45
0100
0010
1010
0010
,  // measure 46
0100
0001
1000
0100
,  // measure 47
0010
0001
0100
0100
,  // measure 48
0001
0001
1000
1000
,  // measure 49
0010
0010
0100
0010
,  // measure 50
1000
0001
0010
0100
,  // measure 51
1000
0001
0100
0100
,  // measure 52
0001
0001
0010
0010
,  // measure 53
0100
0100
1100
1000
,  // measure 54
0010
0100
0001
1000
,  // measure 55
0100
0010
0001
0001
,  // measure 56
0100
0100
0010
0010
,  // measure 57
1000
1000
0100
0010
,  // measure 58
0001
0100
0010
1000
,  // measure 59
0001
0010
0100
0100
,  // measure 60
1000
1000
0001
0001
,  // measure 61
0100
0100
0110
0010
,  // measure 62
1000
0001
0010
0100
,  // measure 63
1000
0100
0010
0010
,  // measure 64
0001
0001
0100
0100
,  // measure 65
0010
0010
1000
0001
,  // measure 66
0010
0100
1000
0010
,  // measure 67
0100
1000
0100
0100
,  // measure 68
0001
0001
0010
0010
,  // measure 69
0100
0100
1000
0010
,  // measure 70
0100
0001
0010
1000
,  // measure 71
0010
0100
1000
1000
,  // measure 72
0001
0001
0100
0100
,  // measure 73
0010
0010
1000
0010
,  // measure 74
0100
0001
0010
0100
,  // measure 75
1000
0001
0100
0100
,  // measure 76
0010
0010
1000
1000
,  // measure 77
0001
0010
0220
0000
,  // measure 78
0000
0330
0000
0000
;

//---------------dance-single - ---------------
#NOTEDATA:;
#CHARTNAME:;
#CHARTSTYLE:;
#CREDIT:;
#STEPSTYPE:dance-single;
#DESCRIPTION:;
#DIFFICULTY:Medium;
#METER:13;
#METERF:13;
#RADARVALUES:0,0,0,0,0;
#NOTES:
// measure 0
0000
0000
0000
0000
,  // measure 1
0101
0000
1001
0000
0001
1000
0010
0000
,  // measure 2
1010
0000
0110
0000
0010
0100
0001
0000
,  // measure 3
0101
0000
0011
0000
0001
0010
0100
0000
,  // measure 4
1100
0000
1010
0000
0010
0100
0001
0000
,  // measure 5
0101
0000
0011
0000
0001
0010
0100
0000
,  // measure 6
1100
0000
1001
0000
0001
1000
0010
0000
,  // measure 7
1010
0000
0101
0000
0100
0001
0010
0000
,  // measure 8
0110
0000
0000
0000
1100
0000
0000
0000
0001
0000
0000
0001
0000
0000
0001
0000
,  // measure 9
0100
0000
0010
0000
0100
0001
1000
0000
,  // measure 10
0100
0000
0010
0000
0100
1000
0001
0000
,  // measure 11
0100
0010
1000
0000
0100
0010
0001
0000
,  // measure 12
1000
0010
0100
0000
0001
0010
0100
0000
,  // measure 13
1000
0000
0010
0000
0100
0010
1000
0000
,  // measure 14
0001
0000
0010
0000
0100
0010
0001
0000
,  // measure 15
0100
0010
1000
0000
0100
0010
0001
0000
,  // measure 16
1000
0010
0100
0000
0001
0010
0100
0000
,  // measure 17
2000
0100
0010
0001
,  // measure 18
0010
0100
0001
3100
,  // measure 19
0002
0100
1000
0010
,  // measure 20
0100
1000
0100
0013
,  // measure 21
0020
0100
0001
0100
,  // measure 22
1000
0001
1000
0130
,  // measure 23
0200
1000
0001
0010
,  // measure 24
1000
0001
0010
1300
,  // measure 25
1100
0000
1010
0000
1000
0010
0100
0000
,  // measure 26
0101
0000
1001
0000
0001
1000
0010
0000
,  // measure 27
0110
0000
0101
0000
0001
1000
0010
0000
,  // measure 28
1010
0000
0101
0000
0100
0001
0010
0000
,  // measure 29
0100
0000
0010
0000
0001
0100
0010
0000
,  // measure 30
1000
0000
0010
0000
0100
0001
0010
0000
,  // measure 31
0010
0001
0100
0000
0010
1000
0100
0000
,  // measure 32
1000
0010
0100
0000
0001
0010
0100
0000
,  // measure 33
0010
0000
0100
0000
1000
0010
0100
0000
,  // measure 34
0001
0000
0010
0000
0100
1000
0010
0000
,  // measure 35
1000
0010
0100
0000
0001
0010
0100
0000
,  // measure 36
0010
0001
1000
0000
0010
1000
0001
0000
,  // measure 37
0200
0001
1000
0010
,  // measure 38
1000
0001
0010
0301
,  // measure 39
0002
1000
0100
0010
,  // measure 40
0100
1000
0010
1003
,  // measure 41
2000
0100
0001
0010
,  // measure 42
0100
0001
0100
3010
,  // measure 43
0020
0100
0001
1000
,  // measure 44
0001
0100
1000
0200
,  // measure 45
0000
0330
1001
0001
,  // measure 46
0100
0000
0010
0000
1000
0000
1000
0001
,  // measure 47
0000
0001
1000
0000
0010
0000
0100
0000
,  // measure 48
0001
1000
0100
0000
0010
0000
0100
0000
,  // measure 49
1000
0001
0100
0000
0110
0000
0010
0000
,  // measure 50
1000
0000
0001
0000
0010
0000
0010
0100
,  // measure 51
0000
0100
1000
0000
0001
0000
0100
0000
,  // measure 52
0010
0100
0001
0000
1000
0000
0100
0000
,  // measure 53
0010
0001
0100
0000
0101
0000
0001
0000
,  // measure 54
0010
0000
0100
0000
1000
0000
1000
0010
,  // measure 55
0000
0010
0100
0000
0100
0000
1000
0001
,  // measure 56
0000
1000
0001
0000
0100
0000
0010
1000
,  // measure 57
0000
1000
0001
0000
0011
0000
0010
0000
,  // measure 58
0100
0000
1000
0000
0001
0000
0100
0010
,  // measure 59
0000
0010
1000
0000
0001
0000
0001
0010
,  // measure 60
0000
0010
0100
0000
1000
0000
0010
0100
,  // measure 61
0001
0000
0000
1000
0000
0000
0001
0000
0011
0000
0000
0000
0010
0000
0000
0000
,  // measure 62
0100
0000
1000
0000
0001
0000
0001
0100
,  // measure 63
0000
0100
0010
0000
1000
0010
0100
0000
,  // measure 64
0001
0010
0100
0000
1000
0001
0100
0000
,  // measure 65
0010
0100
0001
0000
0101
0000
0001
0000
,  // measure 66
1000
0000
0100
0000
0010
0000
0010
0100
,  // measure 67
0000
0100
1000
0000
0001
0100
0010
0000
,  // measure 68
1000
0100
0010
0000
0001
1000
0010
0000
,  // measure 69
0100
0001
0010
0000
0011
0000
0010
0000
,  // measure 70
0100
0000
1000
0000
0001
0000
0001
0100
,  // measure 71
0000
0100
0010
0000
0010
1000
0001
0000
,  // measure 72
0010
0100
1000
0000
0010
0100
0001
0000
,  // measure 73
1000
0001
0010
0000
0011
0000
0010
0000
,  // measure 74
0100
0000
1000
0000
0010
0000
0010
0100
,  // measure 75
0000
0100
1000
0000
1000
0100
0001
0000
,  // measure 76
1000
0100
0001
0000
0001
0100
0010
0000
,  // measure 77
0001
0000
0000
0100
0000
0000
0010
0000
2020
0000
0000
0000
0000
0000
3030
0000
;

//---------------dance-single - ---------------
#NOTEDATA:;
#CHARTNAME:;
#CHARTSTYLE:;
#CREDIT:;
#STEPSTYPE:dance-single;
#DESCRIPTION:;
#DIFFICULTY:Hard;
#METER:15;
#METERF:15;
#RADARVALUES:0,0,0,0,0;
#NOTES:
// measure 0
0000
0000
0000
0000
,  // measure 1
0101
0001
0010
0100
1000
0010
0100
0001
,  // measure 2
0100
0100
0010
1000
0001
0010
0100
1000
,  // measure 3
0001
0001
0100
0010
1000
0001
0010
0100
,  // measure 4
1000
1000
0001
0100
0010
1010
0010
0100
,  // measure 5
0101
0001
0010
0100
1000
0010
0100
0001
,  // measure 6
0100
0100
0010
1000
0001
0010
0100
1000
,  // measure 7
0100
0100
1000
0010
0100
0001
0010
0100
,  // measure 8
1000
0000
1000
0000
0001
0000
0100
0000
0101
0000
0000
1010
0000
0000
0101
0000
,  // measure 9
1001
1000
0100
0010
0001
0100
0010
1000
,  // measure 10
0001
0010
0100
1000
0010
0100
0001
1000
,  // measure 11
0100
0010
0001
0100
0010
1000
0001
0010
,  // measure 12
0100
0010
0001
0100
0010
1000
0001
0010
,  // measure 13
0100
1000
0010
0100
0001
0010
0220
0330
,  // measure 14
0010
0100
1000
0010
0100
0001
1000
0100
,  // measure 15
0010
0001
0100
0010
0001
0010
0100
0001
,  // measure 16
0010
0100
1000
0010
0100
0001
1000
0020
,  // measure 17
0000
1000
1000
0100
0100
0001
0001
0100
,  // measure 18
0100
1000
1000
0001
0001
1000
1000
0100
,  // measure 19
0230
0001
0001
1000
1000
0010
0010
1000
,  // measure 20
1000
0001
0001
0010
0010
1000
1000
0320
,  // measure 21
0000
1000
1000
0100
0100
0001
0001
1000
,  // measure 22
1000
0001
0001
0100
0100
0001
0001
1030
,  // measure 23
1000
0100
0001
0100
1000
0010
0100
0001
,  // measure 24
0010
0100
1000
0001
2002
3003
0220
0330
,  // measure 25
1010
0010
0100
0001
0010
0100
1000
0001
,  // measure 26
0100
0010
1000
0010
0100
0001
0010
0100
,  // measure 27
1000
0010
0100
0001
0010
0100
1000
0010
,  // measure 28
0100
0001
0010
0001
0100
0010
1000
0001
,  // measure 29
0011
0010
0100
1000
0010
0100
0001
0010
,  // measure 30
0100
1000
0010
0100
1000
0100
0010
1000
,  // measure 31
0001
0010
0100
1000
0010
0100
0001
1000
,  // measure 32
0100
0010
0001
0100
0010
1000
0001
0010
,  // measure 33
0100
1000
0010
0100
0010
1000
0001
1000
,  // measure 34
0100
1000
0020
0130
0001
0010
0100
1000
,  // measure 35
0010
0100
0001
0010
0100
1000
0010
1000
,  // measure 36
0001
0010
0100
1000
0010
0100
0001
2000
,  // measure 37
0000
0100
0100
0001
0001
0010
0010
0100
,  // measure 38
0100
0001
0001
0010
0010
0100
0100
3010
,  // measure 39
0020
1000
1000
0001
0001
0100
0100
0001
,  // measure 40
0001
1000
1000
0001
0001
0100
0100
2030
,  // measure 41
0000
0100
0100
0001
0001
0010
0010
0100
,  // measure 42
0100
0001
0001
0010
0010
0100
0100
3001
,  // measure 43
0001
0100
1000
0100
0001
0010
0100
1000
,  // measure 44
0010
0100
0001
0010
0110
0000
2002
0000
,  // measure 45
3003
0110
1001
0110
,  // measure 46
0011
0000
1100
0000
1001
0000
0001
1000
,  // measure 47
0000
1000
0010
0100
0001
0010
0100
1000
,  // measure 48
0010
0100
1000
0100
0010
1000
0001
0010
,  // measure 49
0100
1000
0010
0100
0101
0000
1010
0000
,  // measure 50
0101
0000
1001
0000
1100
0000
0100
0010
,  // measure 51
0000
0010
0001
0100
0010
1000
0001
0010
,  // measure 52
1000
0010
0100
1000
0010
0100
0001
0010
,  // measure 53
1000
0010
0100
1000
1001
0000
0110
0000
,  // measure 54
1010
0000
0101
0000
1001
0000
0001
0010
,  // measure 55
0000
0010
0100
1000
0010
0100
0001
0010
,  // measure 56
1000
0010
0100
1000
0010
0100
0001
0010
,  // measure 57
0100
1000
0010
0100
0101
0000
1001
0000
,  // measure 58
1100
0000
0110
0000
0011
0000
0001
0010
,  // measure 59
0000
0010
1000
0010
0100
1000
0010
0100
,  // measure 60
0001
0010
1000
0010
0100
1000
0010
0100
,  // measure 61
0001
0000
0000
0100
0000
0000
0010
0000
1010
0000
0000
0000
0110
0000
0000
0000
,  // measure 62
0101
0000
1001
0000
1100
0000
0100
0010
,  // measure 63
0000
0010
0001
0100
0010
1000
0001
0010
,  // measure 64
1000
0010
0100
1000
0010
0100
1000
0100
,  // measure 65
0010
1000
0001
0010
0110
0000
1100
0000
,  // measure 66
1001
0000
0101
0000
0110
0000
0010
1000
,  // measure 67
0000
1000
0001
0010
1000
0010
0001
0100
,  // measure 68
0010
1000
0001
0010
1000
0010
0100
1000
,  // measure 69
0010
0001
0010
0100
0101
0000
1001
0000
,  // measure 70
1100
0000
0110
0000
0011
0000
0001
0010
,  // measure 71
0000
0010
0100
1000
0001
0100
0010
1000
,  // measure 72
0001
0010
1000
0010
0001
0100
0010
1000
,  // measure 73
0001
0010
0100
1000
1010
0000
0101
0000
,  // measure 74
1001
0000
1100
0000
0011
0000
0001
0010
,  // measure 75
0000
0010
0100
1000
0010
0100
0001
0010
,  // measure 76
1000
0010
0100
1000
0010
0100
0001
0010
,  // measure 77
0100
0000
0000
1000
0000
0000
0001
0000
0022
0000
0000
0000
0000
0000
0000
0000
,  // measure 78
0000
0033
0000
0000
;

//---------------dance-single - ---------------
#NOTEDATA:;
#CHARTNAME:;
#CHARTSTYLE:;
#CREDIT:;
#STEPSTYPE:dance-single;
#DESCRIPTION:;
#DIFFICULTY:Challenge;
#METER:19;
#METERF:19;
#RADARVALUES:0,0,0,0,0;
#NOTES:
// measure 0
0000
0000
0000
0000
,  // measure 1
0101
1010
1100
0011
0001
0101
0100
0110
,  // measure 2
1010
1001
0101
1001
0001
0011
0110
1100
,  // measure 3
1001
0101
1010
1100
0100
0110
0010
0011
,  // measure 4
1001
0000
0101
0000
0110
0000
1010
0000
1000
0000
1001
0000
1000
0010
0100
0001
,  // measure 5
0011
0110
1100
1001
0001
0101
0100
0110
,  // measure 6
1010
1001
0011
1001
1000
1100
0101
1100
,  // measure 7
1010
0110
0101
0011
0010
0110
0100
1100
,  // measure 8
1001
0000
0101
0000
0110
0000
0101
0000
1001
0000
0001
1000
0000
1000
0001
1000
,  // measure 9
1001
1000
0100
0010
0100
1000
0010
0100
,  // measure 10
0001
0001
0100
0010
1000
0100
0010
0001
,  // measure 11
0010
0011
1100
1001
0101
0110
1010
0110
,  // measure 12
0100
0101
1001
1100
0110
0011
0110
1100
,  // measure 13
1001
0001
0100
0010
0100
0001
0010
0100
,  // measure 14
1000
1000
0100
0010
0100
1000
0010
0100
,  // measure 15
0001
0101
0110
1010
1001
0011
0110
1100
,  // measure 16
1000
1010
0110
1100
0110
1010
1001
0011
,  // measure 17
0010
0100
1000
0100
0010
0001
0100
0010
1000
0001
0010
0100
1000
0010
0100
1000
,  // measure 18
0100
0010
1000
0001
0010
0100
1000
0010
0100
0010
1000
0001
0010
0100
1000
0001
,  // measure 19
0100
0010
1000
0001
0010
0100
1000
0010
0100
1000
0100
0010
1000
0001
0010
0100
,  // measure 20
1000
0100
0010
0100
1000
0010
0100
0010
1000
0100
0010
0001
1000
0100
0010
0001
,  // measure 21
0100
0010
0001
0010
0100
0001
0010
0100
1000
0010
0100
1000
0100
0010
1000
0001
,  // measure 22
0010
0100
1000
0100
0010
0100
1000
0010
0100
0001
1000
0010
0100
0001
1000
0010
,  // measure 23
0100
0001
0010
0100
1000
0010
0100
0001
0010
0100
1000
0010
0100
1000
0100
0010
,  // measure 24
1000
0001
0010
0100
1000
0010
0100
0001
1001
0000
1100
0000
2002
0000
3003
0000
,  // measure 25
1001
0101
0100
0110
0010
1010
1000
1001
,  // measure 26
0011
1001
1010
0110
0100
0101
0001
1001
,  // measure 27
1100
0110
0011
0110
0100
1100
1000
1001
,  // measure 28
0101
0110
1010
0110
0100
0101
0011
0110
,  // measure 29
1100
1000
0001
0100
0010
0100
0001
0010
,  // measure 30
0100
1000
0010
0100
0001
0010
0100
1000
,  // measure 31
0001
0101
0110
1010
1001
0011
1001
1100
,  // measure 32
0100
0110
0011
0110
1100
1001
0101
0110
,  // measure 33
1010
0010
0100
0001
0010
0100
1100
1100
,  // measure 34
0100
1000
0010
0100
1000
0100
0010
1000
,  // measure 35
0001
0011
0110
1100
1001
0101
0110
0101
,  // measure 36
0001
0011
0110
1100
1001
0101
0110
1010
,  // measure 37
1000
0001
0010
0100
1000
0010
0100
1000
0100
0010
1000
0001
0010
0100
1000
0010
,  // measure 38
0100
0001
1000
0010
0100
0001
1000
0010
0100
0001
0010
0001
0100
0010
1000
0010
,  // measure 39
0100
0001
0010
0100
1000
0010
0100
1000
0100
0010
1000
0001
0010
0100
1000
0001
,  // measure 40
0010
0100
1000
0001
0010
0100
1000
0010
0100
0001
1000
0010
0100
0001
1000
0010
,  // measure 41
0100
0001
0010
0100
1000
0010
0100
0001
0010
1000
0010
0100
1000
0010
0100
0001
,  // measure 42
0010
0100
1000
0001
0010
0100
1000
0001
0010
0001
0100
0010
1000
0100
0010
0001
,  // measure 43
0100
0010
1000
0001
0010
0100
1000
0010
0100
1000
0100
0010
1000
0001
0010
0100
,  // measure 44
1000
0010
0100
0001
1000
0010
0100
0001
1000
0100
0010
0001
1000
0100
0010
0001
,  // measure 45
1000
0001
1000
0001
2002
0000
3003
0000
0220
0000
0330
0000
2020
0000
3030
0000
,  // measure 46
0202
0303
0022
0033
0220
0330
1100
0220
,  // measure 47
0330
0000
0110
0000
0011
0000
1001
0000
0001
0010
0001
0010
0100
0010
0100
0010
,  // measure 48
0100
1000
0100
1000
0001
1000
0001
1000
0010
1000
0010
1000
0010
0100
0010
0100
,  // measure 49
0001
0100
0001
0100
0001
1000
0001
1000
2002
0000
3003
0000
2200
0000
3300
0000
,  // measure 50
0220
0330
0022
0033
2002
3003
1100
2020
,  // measure 51
3030
0000
1010
0000
0110
0000
0101
0000
0100
0001
0100
0001
0010
0001
0010
0001
,  // measure 52
0010
0100
0010
0100
1000
0100
1000
0100
1000
0010
1000
0010
0100
0010
0100
0010
,  // measure 53
0100
0001
0100
0001
1000
0001
1000
0001
2002
0000
3003
0000
0022
0000
0033
0000
,  // measure 54
2020
3030
2002
3003
2200
3300
1001
0022
,  // measure 55
0033
0000
0011
0000
1001
0000
1010
0000
1000
0010
1000
0010
0100
0010
0100
0010
,  // measure 56
0100
0001
0100
0001
0010
0001
0010
0001
0010
0100
0010
0100
1000
0100
1000
0100
,  // measure 57
1000
0010
1000
0010
0100
0010
0100
0010
0220
0000
0330
0000
0202
0000
0303
0000
,  // measure 58
2002
3003
2200
3300
0220
0330
1100
0220
,  // measure 59
0330
0000
0110
0000
0011
0000
1001
0000
0001
1000
0001
1000
0010
1000
0010
1000
,  // measure 60
0010
0100
0010
0100
0001
0100
0001
0100
0001
1000
0001
1000
0100
1000
0100
1000
,  // measure 61
1100
0000
0000
0011
0000
0000
1001
0000
1010
0000
0010
0000
0100
0000
0001
0000
,  // measure 62
1000
0100
0001
0100
0010
0001
0100
0010
,  // measure 63
1000
0000
0001
0000
0010
0000
0100
0000
1000
0100
1000
0100
1000
0010
1000
0010
,  // measure 64
1000
0001
1000
0001
0100
0001
0100
0001
0010
0001
0010
0001
1000
0001
1000
0001
,  // measure 65
1000
0010
1000
0010
0100
0010
0100
0010
0110
0000
0010
0000
1000
0000
0001
0000
,  // measure 66
0010
0100
1000
0001
0100
0010
1000
0001
,  // measure 67
0010
0000
0100
0000
1000
0000
0010
0000
0100
0010
0100
0010
0100
0001
0100
0001
,  // measure 68
0100
1000
0100
1000
0100
0001
0100
0001
0010
0001
0010
0001
1000
0001
1000
0001
,  // measure 69
0100
0001
0100
0001
0010
0001
0010
0001
0011
0000
0010
0000
0100
0000
1000
0000
,  // measure 70
0001
0100
0010
1000
0001
0010
0100
1000
,  // measure 71
0010
0000
0100
0000
1000
0000
0100
0000
0001
0010
0001
0010
0100
0010
0100
0010
,  // measure 72
1000
0010
1000
0010
0100
0010
0100
0010
0001
0100
0001
0100
0001
1000
0001
1000
,  // measure 73
0001
0010
0001
0010
0001
1000
0001
1000
1001
0000
1000
0000
0010
0000
0100
0000
,  // measure 74
1000
0100
0010
1000
0001
0010
0100
1000
,  // measure 75
0010
0000
0100
0000
0001
0000
0010
0000
0100
1000
0100
1000
0001
1000
0001
1000
,  // measure 76
0010
1000
0010
1000
0010
0100
0010
0100
0001
0100
0010
1000
0001
0010
0100
1000
,  // measure 77
1100
0000
0000
0101
0000
0000
1001
0000
0220
0000
0000
0000
0000
0000
0000
0000
,  // measure 78
0000
0330
0000
0000
;
