#VERSION:0.83;
#TITLE:Dopamina;
#SUBTITLE:;
#ARTIST:Atyat;
#TITLETRANSLIT:;
#SUBTITLETRANSLIT:;
#ARTISTTRANSLIT:;
#GENRE:;
#CREDIT:;
#ORIGIN:;
#MUSIC:Dopamina.ogg;
#BANNER:Dopamina.png;
#BACKGROUND:Dopamina-bg.png;
#JACKET:Dopamina-jacket.png;
#DISCIMAGE:;
#CDIMAGE:;
#SELECTABLE:YES;
#LYRICSPATH:;
#CDTITLE:;
#SAMPLESTART:38.68;
#SAMPLELENGTH:19.222;
#OFFSET:-0.302;
#BPMS:0.000000=100.000000;
#STOPS:;
#WARPS:;
#DELAYS:;
#SPEEDS:0.000000=1.000000=0.000000=0;
#SCROLLS:0.000000=0.250000,
16.000000=0.500000,
32.000000=1.000000,
64.000000=0.250000,
68.000000=0.500000,
72.000000=0.750000,
76.000000=1.000000,
80.000000=1.200000,
81.000000=1.400000,
82.000000=1.600000,
83.000000=1.800000,
84.000000=2.000000,
85.000000=2.200000,
86.000000=2.400000,
87.000000=2.600000,
88.000000=2.800000,
89.000000=3.000000,
90.000000=3.200000,
91.000000=3.400000,
92.000000=3.600000,
93.000000=3.800000,
94.000000=0.750000,
96.000000=1.500000,
126.000000=0.750000,
128.000000=1.000000,
159.000000=0.100000
;
#TICKCOUNTS:;
#TIMESIGNATURES:0.000000=4=4;
#LABELS:;
#COMBOS:;
#FAKES:;
#BGCHANGES:;
#FGCHANGES:;
#ATTACKS:;
#KEYSOUNDS:;

//---------------dance-single - ---------------
#NOTEDATA:;
#CHARTNAME:;
#CHARTSTYLE:;
#CREDIT:;
#STEPSTYPE:dance-single;
#DESCRIPTION:;
#DIFFICULTY:Beginner;
#METER:4;
#METERF:4;
#RADARVALUES:0,0,0,0,0;
#NOTES:
// measure 0
0000
0000
0000
0000
,  // measure 1
0000
0000
0000
0000
,  // measure 2
0000
0000
0000
0000
,  // measure 3
0000
0000
0000
0000
,  // measure 4
1000
1000
0000
0000
,  // measure 5
0001
0001
0000
0000
,  // measure 6
0010
0010
0000
0000
,  // measure 7
1000
1000
0000
0000
,  // measure 8
0001
0000
0010
0000
,  // measure 9
1000
0000
0010
0000
,  // measure 10
0001
0001
0001
0000
,  // measure 11
1000
1000
1000
0000
,  // measure 12
1001
0000
1000
0000
,  // measure 13
0110
0000
0001
0000
,  // measure 14
1000
1000
1000
0000
,  // measure 15
0001
0001
0001
0000
,  // measure 16
1001
0000
1000
0000
,  // measure 17
0001
0000
0100
0000
,  // measure 18
0010
0000
1000
0000
,  // measure 19
0001
0000
0100
0000
,  // measure 20
0010
0010
0010
0000
,  // measure 21
1000
1000
1000
0000
,  // measure 22
0001
0001
0001
0000
,  // measure 23
0100
0100
0100
0000
,  // measure 24
0001
0001
0001
0000
,  // measure 25
0010
0010
0010
0000
,  // measure 26
0001
0001
0001
0000
,  // measure 27
1000
1000
1000
0000
,  // measure 28
0010
0010
0010
0000
,  // measure 29
1000
1000
1000
0000
,  // measure 30
0001
0001
0001
0000
,  // measure 31
0100
0100
0100
0000
,  // measure 32
0001
0001
0001
0000
,  // measure 33
1000
1000
1000
0000
,  // measure 34
0010
0010
0010
0000
,  // measure 35
1000
1000
1000
0000
,  // measure 36
1001
0000
0001
0000
,  // measure 37
1001
0000
1000
0000
,  // measure 38
0110
0000
0100
0000
,  // measure 39
0001
0001
0000
1001
;

//---------------dance-single - ---------------
#NOTEDATA:;
#CHARTNAME:;
#CHARTSTYLE:;
#CREDIT:;
#STEPSTYPE:dance-single;
#DESCRIPTION:;
#DIFFICULTY:Easy;
#METER:6;
#METERF:6;
#RADARVALUES:0,0,0,0,0;
#NOTES:
// measure 0
0000
0000
0000
0000
,  // measure 1
0000
0000
0000
0000
,  // measure 2
0000
0000
0000
0000
,  // measure 3
0000
0000
0000
0000
,  // measure 4
1000
0010
2000
3000
,  // measure 5
0001
0010
0002
0003
,  // measure 6
0100
0010
0200
0300
,  // measure 7
0001
0010
0200
0300
,  // measure 8
1000
0010
0100
0010
,  // measure 9
1000
0001
1000
0010
,  // measure 10
0100
0010
1000
0001
,  // measure 11
0010
0100
0001
0100
,  // measure 12
0010
0001
0100
0010
,  // measure 13
1000
0010
0100
0010
,  // measure 14
1000
0100
0010
0001
,  // measure 15
0100
0010
1000
0001
,  // measure 16
2001
0100
0001
3100
,  // measure 17
0120
0001
1000
0031
,  // measure 18
0201
1000
0010
1300
,  // measure 19
1020
0100
0001
1030
,  // measure 20
1000
0100
0001
0100
,  // measure 21
1000
0010
0001
0010
,  // measure 22
1000
0100
0010
0001
,  // measure 23
0100
0010
1000
0001
,  // measure 24
1001
1000
0001
0010
,  // measure 25
0001
0100
0010
1000
,  // measure 26
0100
1000
0001
0010
,  // measure 27
0001
0100
0010
1000
,  // measure 28
0100
0010
0001
0010
,  // measure 29
0100
1000
0010
1000
,  // measure 30
0100
0001
0100
0010
,  // measure 31
0001
0100
0010
1000
,  // measure 32
1001
1000
0100
0010
,  // measure 33
0011
0010
0100
1000
,  // measure 34
1001
1000
0010
0100
,  // measure 35
1100
0100
0101
1001
,  // measure 36
1100
0100
0010
0001
,  // measure 37
0101
0100
0010
1000
,  // measure 38
1001
1000
0010
0100
,  // measure 39
1100
0101
1001
0110
;

//---------------dance-single - ---------------
#NOTEDATA:;
#CHARTNAME:;
#CHARTSTYLE:;
#CREDIT:;
#STEPSTYPE:dance-single;
#DESCRIPTION:;
#DIFFICULTY:Medium;
#METER:11;
#METERF:11;
#RADARVALUES:0,0,0,0,0;
#NOTES:
// measure 0
0000
0000
0000
0000
,  // measure 1
0000
0000
0000
0000
,  // measure 2
0000
0000
0000
0000
,  // measure 3
0000
0000
0000
0000
,  // measure 4
1000
1000
2000
0000
3000
0000
0000
0000
,  // measure 5
0001
0001
0002
0000
0003
0000
0000
0000
,  // measure 6
0010
0010
0020
0000
0030
0000
0000
0000
,  // measure 7
0100
0100
0200
0000
0300
0000
0000
0000
,  // measure 8
1001
0000
1000
1000
0010
0010
1000
1000
,  // measure 9
0000
0000
0001
0001
0010
0010
0001
0001
,  // measure 10
0100
0010
0100
0001
1000
0000
1000
0001
,  // measure 11
0100
0010
0100
0001
0010
0000
0100
1000
,  // measure 12
0020
0000
1030
0000
1000
0001
0010
0000
,  // measure 13
0200
0000
0310
0000
0001
0100
0010
0000
,  // measure 14
1000
0100
1000
0001
0100
0010
0100
0000
,  // measure 15
0001
0010
0001
1000
0010
0100
0001
0000
,  // measure 16
0201
0000
1000
1000
1000
0000
0001
0001
,  // measure 17
0001
0000
0010
0010
1000
0010
0301
1000
,  // measure 18
1020
0000
0001
0001
0001
0000
1000
1000
,  // measure 19
1000
0000
0001
0100
0001
1000
0130
1000
,  // measure 20
0100
0010
0001
0010
0100
0000
0100
1000
,  // measure 21
0001
0100
0010
0100
0001
0000
0001
1000
,  // measure 22
0100
1000
0001
0100
0020
0000
1030
0000
,  // measure 23
1000
0100
0001
0100
1000
0010
0100
0010
,  // measure 24
1010
0000
1000
0100
0001
0000
0100
0010
,  // measure 25
0001
0000
0001
0100
0010
1000
0001
0010
,  // measure 26
0100
0000
0100
1000
0001
0000
0100
0010
,  // measure 27
1000
0000
1000
0010
0100
0001
0010
0100
,  // measure 28
1000
0010
0001
0010
1000
0000
1000
0001
,  // measure 29
0100
1000
0100
0001
1000
0000
1000
0100
,  // measure 30
0010
0001
0100
0010
2000
0000
3001
0000
,  // measure 31
0001
0100
0010
1000
0100
0010
0001
0010
,  // measure 32
0110
0000
0000
0000
1100
0000
0000
0000
1001
0000
0000
0001
0000
0000
0100
0000
,  // measure 33
0110
0000
0000
0000
0010
0000
0000
0000
1000
0000
0000
0100
0000
0000
0010
0000
,  // measure 34
0011
0000
0000
0000
0010
0000
0000
0000
0100
0000
0000
1000
0000
0000
0010
0000
,  // measure 35
0110
0000
0101
0000
1001
1000
1100
0100
,  // measure 36
0110
0000
0001
0010
0100
0000
0010
0100
,  // measure 37
1000
0000
0001
1000
0100
0010
1000
0010
,  // measure 38
0110
0000
0100
1000
0001
0000
0100
0010
,  // measure 39
1000
0001
0010
0100
2000
3000
2002
0000
,  // measure 40
3003
0000
0000
0000
;

//---------------dance-single - ---------------
#NOTEDATA:;
#CHARTNAME:;
#CHARTSTYLE:;
#CREDIT:;
#STEPSTYPE:dance-single;
#DESCRIPTION:;
#DIFFICULTY:Hard;
#METER:14;
#METERF:14;
#RADARVALUES:0,0,0,0,0;
#NOTES:
// measure 0
0000
0000
0000
0000
,  // measure 1
0000
0000
0000
0000
,  // measure 2
0000
0000
0000
0000
,  // measure 3
0000
0000
0000
0000
,  // measure 4
2010
0000
0010
0000
0020
0000
0000
3030
1000
0000
0000
0100
0000
0000
0010
0000
,  // measure 5
0012
0000
0010
0000
0020
0000
0000
0033
0001
0000
0000
0100
0000
0000
0010
0000
,  // measure 6
2010
0000
0001
0000
0200
0000
0000
3300
1000
0000
0000
0010
0000
0000
0100
0000
,  // measure 7
0102
0000
1000
0000
0020
0000
0000
0033
0001
0000
0000
0010
0000
0000
0100
0000
,  // measure 8
2002
0000
3003
0000
0001
0100
1000
0100
0010
0000
1000
0100
0020
0000
0032
0000
,  // measure 9
0003
0000
0000
0000
0010
0001
0100
0010
2000
0000
3100
0001
0200
0000
0320
0000
,  // measure 10
0031
0100
0010
1000
1001
0000
0001
1000
,  // measure 11
0010
0100
0001
0010
0110
0000
0100
1000
,  // measure 12
2020
3030
0000
0202
0303
0000
0000
0001
0100
0010
1000
0100
0020
0000
0031
0000
,  // measure 13
0022
0033
0000
2200
3300
0000
0000
0000
0100
0010
0001
0010
0200
0000
2300
0000
,  // measure 14
3010
0000
0100
0000
0010
0000
1000
0000
0100
0000
0010
0000
0001
0000
0010
0000
0100
0000
2000
0000
0000
3001
0000
0000
,  // measure 15
0001
0000
0100
0000
0010
0000
1000
0000
0100
0000
0001
0000
0100
0000
0010
0000
0001
0000
0200
0000
0000
0310
0000
0000
,  // measure 16
0110
0000
0000
0010
1000
0000
0001
0000
0022
0033
0000
0001
0100
0010
2000
3000
,  // measure 17
1002
0003
0000
0001
0100
0000
0010
0000
1010
0000
1000
0010
0100
0001
2000
3000
,  // measure 18
1200
0300
0000
0100
1000
0000
0001
0000
1002
0003
0000
0001
0100
0010
1000
0000
,  // measure 19
2010
3000
0000
0010
2000
0000
3020
0000
0230
0000
0301
0100
0010
1000
0002
0000
,  // measure 20
0103
0101
0001
1001
1000
1100
0100
0110
,  // measure 21
0010
0011
0001
1001
1000
1010
0010
0110
,  // measure 22
0101
1001
1100
1001
0011
1001
1010
1001
,  // measure 23
1000
0100
0010
0001
1000
0100
0010
0001
2000
0000
0000
0000
0002
0000
3003
0000
,  // measure 24
1001
0000
0001
0100
0010
0000
1000
0000
1010
0000
1000
0010
0100
0001
1000
0000
,  // measure 25
1001
0000
1000
0100
0002
0000
0203
0000
0320
0000
0031
0010
0100
1000
0001
0000
,  // measure 26
0201
0000
0301
0100
0010
0000
1000
0000
1001
0000
1000
0100
0010
0001
0100
0000
,  // measure 27
0110
0000
0100
0001
0020
0000
0230
0000
2300
0000
3001
1000
0100
0010
0002
0003
,  // measure 28
0201
1000
0010
1000
0002
0303
0001
0010
,  // measure 29
0210
1000
0001
0010
2000
3300
0200
2300
,  // measure 30
3002
0203
0320
0230
0302
0000
2000
3003
,  // measure 31
0001
0100
0010
1000
0001
0010
0100
0020
0000
0032
0000
0203
0320
0000
1030
0000
,  // measure 32
1010
0000
0000
0010
0110
0000
0100
0000
0101
0000
0100
0001
0010
0100
1000
0000
,  // measure 33
1001
0000
0001
0100
0110
0000
0010
0000
1010
0000
0010
0100
0001
0010
0100
0000
,  // measure 34
1100
0000
0100
1000
1010
0000
0010
0000
0011
0000
0010
0100
0001
0010
0100
0000
,  // measure 35
1100
1000
0001
0100
0010
1000
0100
0010
0001
0010
0100
1000
0020
0000
1030
0000
,  // measure 36
1010
0010
0100
0001
0010
0100
1000
0010
0100
1000
0100
0001
0010
0100
1100
1000
,  // measure 37
1001
0001
0100
0010
1000
0100
0010
1000
0010
0100
1000
0010
0100
0001
0010
0100
,  // measure 38
0110
0100
1000
0010
0100
0001
0010
1000
0010
0100
1000
0010
0100
1000
1100
0100
,  // measure 39
0101
0001
0010
0100
1000
0010
0100
0002
0000
0023
0000
0130
1200
0000
0002
0000
,  // measure 40
0000
0000
0303
0000
;
