#TITLE:Dime;
#SUBTITLE:;
#ARTIST:Beth;
#MUSIC:Dime.ogg;
#BANNER:Dime.png;
#BACKGROUND:Dime-bg.png;
#LYRICSPATH:;
#CDTITLE:;
#SAMPLESTART:53.8;
#SAMPLELENGTH:14.7;
#OFFSET:-0.46;
#BPMS:0.000000=130.000000;
#STOPS:;
#TIMESIGNATURES:;
#BGCHANGES:;
#FGCHANGES:;
#ATTACKS:;
#SPEEDS:;
#SCROLLS:;
#DISPLAYBPM:130;

//---------------dance-single - ---------------
#NOTES:
     dance-single:
     :
     Beginner:
     3:
     :
// measure 0
0000
0000
0000
0000
,  // measure 1
0000
0000
0000
0000
,  // measure 2
0000
0000
0000
0000
,  // measure 3
0000
0000
0000
0000
,  // measure 4
1000
0000
1000
0000
,  // measure 5
0001
0000
0001
0000
,  // measure 6
0010
0000
0010
0000
,  // measure 7
0100
0000
0100
0000
,  // measure 8
1000
0000
0001
0000
,  // measure 9
1000
0000
0001
0000
,  // measure 10
0010
0000
0100
0000
,  // measure 11
0110
0000
0110
0000
,  // measure 12
2000
0000
0000
3000
,  // measure 13
0002
0000
0000
0003
,  // measure 14
0200
0000
0000
0300
,  // measure 15
0020
0000
0000
0030
,  // measure 16
2000
0000
0000
3000
,  // measure 17
0020
0000
0000
0030
,  // measure 18
0200
0000
0000
0300
,  // measure 19
0002
0000
0000
0003
,  // measure 20
1001
0000
0000
0000
,  // measure 21
0110
0000
0000
0000
,  // measure 22
0110
0000
0000
0000
,  // measure 23
1001
0000
0000
0000
,  // measure 24
2000
0000
0000
3000
,  // measure 25
0002
0000
0000
0003
,  // measure 26
1000
0000
1000
0000
,  // measure 27
0001
0000
0001
0000
,  // measure 28
1001
1001
1001
0000
,  // measure 29
1000
0000
1000
0000
,  // measure 30
0010
0000
0010
0000
,  // measure 31
0100
0000
0100
0000
,  // measure 32
0001
0000
1001
0000
,  // measure 33
0100
0000
0100
0000
,  // measure 34
0001
0000
0001
0000
,  // measure 35
1000
0000
1000
0000
,  // measure 36
0010
0000
0110
0000
,  // measure 37
1000
1000
1000
0000
,  // measure 38
1000
1000
1000
0000
,  // measure 39
0001
0001
0001
0000
,  // measure 40
0001
0001
1001
0000
,  // measure 41
1000
0000
0100
0000
,  // measure 42
0001
0000
0100
0000
,  // measure 43
0100
0000
0010
0000
,  // measure 44
0220
0000
0330
0000
,  // measure 45
2002
0000
0000
3003
,  // measure 46
1001
1001
1001
0000
,  // measure 47
0220
0000
0000
0330
,  // measure 48
0110
0110
0110
0000
,  // measure 49
0010
0000
0010
0000
,  // measure 50
1000
0000
1001
0000
,  // measure 51
0001
0000
0001
0000
,  // measure 52
1000
0000
1000
0000
,  // measure 53
0010
0000
0010
0000
,  // measure 54
0100
0000
0110
0000
,  // measure 55
0010
0000
0010
0000
,  // measure 56
1000
0000
1000
0000
,  // measure 57
0001
0000
0001
0000
,  // measure 58
0100
0000
0110
0000
,  // measure 59
2000
0000
3000
0000
,  // measure 60
0002
0000
0003
0000
,  // measure 61
2000
0000
3000
0000
,  // measure 62
0010
0000
0100
0000
,  // measure 63
0110
0110
0110
0000
;

//---------------dance-single - ---------------
#NOTES:
     dance-single:
     :
     Easy:
     7:
     :
// measure 0
0000
0000
0000
0000
,  // measure 1
0000
0000
0000
0000
,  // measure 2
0000
0000
0000
0000
,  // measure 3
1001
1001
1001
0000
,  // measure 4
1000
0100
0001
0100
,  // measure 5
1000
0010
0001
0010
,  // measure 6
1000
0001
0100
0010
,  // measure 7
0110
1001
0110
1001
,  // measure 8
1000
0100
0010
0100
,  // measure 9
1000
0010
0100
0010
,  // measure 10
1000
0001
0010
0100
,  // measure 11
0110
0110
0110
0000
,  // measure 12
2000
0100
0010
3100
,  // measure 13
0002
0010
0100
0013
,  // measure 14
0200
0010
1000
0301
,  // measure 15
0002
1000
0010
1003
,  // measure 16
2000
0010
0100
3010
,  // measure 17
0020
0100
1000
0130
,  // measure 18
0200
1000
0010
0301
,  // measure 19
0001
0100
1000
0010
,  // measure 20
0220
0000
0000
0330
,  // measure 21
2002
0000
0000
3003
,  // measure 22
2200
0000
0000
3300
,  // measure 23
0022
0000
0000
0033
,  // measure 24
0010
0001
0100
1000
,  // measure 25
0001
1000
0100
0001
,  // measure 26
1000
0010
0100
0001
,  // measure 27
1000
0100
0001
0100
,  // measure 28
1100
0011
1100
0000
,  // measure 29
1100
0001
0100
0010
,  // measure 30
0110
0010
0100
0001
,  // measure 31
0101
0001
0100
0010
,  // measure 32
0110
1001
0110
1001
,  // measure 33
0110
0100
0001
0100
,  // measure 34
1000
0001
0100
0010
,  // measure 35
0100
0010
1000
0001
,  // measure 36
1001
0110
1001
0110
,  // measure 37
1001
1000
0100
0010
,  // measure 38
0001
0100
0010
1000
,  // measure 39
1000
0001
0100
0010
,  // measure 40
0220
0330
0220
0330
,  // measure 41
2000
0000
0100
3000
,  // measure 42
0002
0000
0100
0003
,  // measure 43
2000
0000
0010
3000
,  // measure 44
0220
0000
0000
0330
,  // measure 45
2002
0000
0000
3003
,  // measure 46
1001
1001
1001
0000
,  // measure 47
2200
0000
0000
3300
,  // measure 48
1100
0011
1100
0000
,  // measure 49
1000
0001
0100
0010
,  // measure 50
0110
1001
0110
1001
,  // measure 51
0110
0010
1000
0100
,  // measure 52
0001
0100
1000
0100
,  // measure 53
0010
0001
0100
0010
,  // measure 54
0110
1001
0110
1001
,  // measure 55
0110
0010
1000
0100
,  // measure 56
0010
0001
0100
1000
,  // measure 57
0001
1000
0100
0001
,  // measure 58
1001
0110
1001
0110
,  // measure 59
2002
0000
0000
3003
,  // measure 60
0220
0000
0000
0330
,  // measure 61
2200
0000
0000
3300
,  // measure 62
0011
0010
0001
1000
,  // measure 63
0100
0000
0000
0010
0000
0000
0100
0000
0010
0000
0000
0000
0000
0000
0000
0000
;

//---------------dance-single - ---------------
#NOTES:
     dance-single:
     :
     Medium:
     12:
     :
// measure 0
0000
0000
0000
0000
,  // measure 1
0000
0000
0000
0000
,  // measure 2
0000
0000
0000
0000
,  // measure 3
1000
0000
0000
0001
0000
0000
0100
0000
0010
0000
0000
0000
0000
0000
0000
0000
,  // measure 4
1000
0000
0100
0000
0010
0001
0100
0000
,  // measure 5
0010
0000
1000
0000
0100
0010
0001
0000
,  // measure 6
1000
0000
0001
0000
0100
0010
1000
0000
,  // measure 7
0001
0100
1000
0000
1000
0100
0001
0000
,  // measure 8
1000
0100
0010
0000
0001
0100
0010
0000
,  // measure 9
1000
0001
0010
0000
0001
1000
0010
0000
,  // measure 10
0100
0010
1000
0000
0100
0010
0001
0000
,  // measure 11
1000
0000
0000
0001
0000
0000
1000
0000
0001
0000
0000
0000
0000
0000
0000
0000
,  // measure 12
1000
0000
0000
0100
0000
0000
0010
0000
0000
0000
0010
0000
0001
0000
1000
0000
,  // measure 13
1000
0000
0000
0010
0000
0000
0100
0000
0000
0000
0100
0000
0001
0000
1000
0000
,  // measure 14
0010
0000
0000
0100
0000
0000
0001
0000
0000
0000
0000
0000
1000
0000
0010
0000
,  // measure 15
0110
1001
0110
1001
,  // measure 16
1000
0000
0000
0001
0000
0000
0100
0000
0000
0000
0010
0000
1000
0000
0100
0000
,  // measure 17
0010
0000
0000
0001
0000
0000
1000
0000
0000
0000
0000
0000
0100
0000
0001
0000
,  // measure 18
1000
0000
0000
0001
0000
0000
0100
0000
0000
0000
0010
0000
0000
0000
1000
0000
,  // measure 19
0000
0000
1000
0001
0000
1001
0000
0000
,  // measure 20
0110
0000
0000
0010
0000
0000
1000
0000
0000
0000
1000
0000
0010
0000
0100
0000
,  // measure 21
0001
0000
0000
0001
0000
0000
0100
0000
0000
0000
0010
0000
0000
0000
0000
0000
,  // measure 22
0110
0000
0000
0100
0000
0000
0001
0000
0000
0000
1000
0000
0100
0000
0020
0000
,  // measure 23
0000
0200
0000
0000
0000
0000
0330
0000
,  // measure 24
2000
0000
0000
3020
0000
0000
0230
0000
,  // measure 25
0302
0000
0000
2003
0000
3000
1001
0000
,  // measure 26
0200
0000
0000
0302
0000
0000
1003
0000
,  // measure 27
1000
0000
0000
0100
0000
0000
0001
0000
0000
0000
2000
0000
0000
0000
3000
0000
,  // measure 28
0001
0000
0000
0100
0000
0000
1000
0000
2002
0000
0000
3003
0000
0000
0000
0000
,  // measure 29
1001
0001
0011
0010
0110
0100
1100
1000
,  // measure 30
1010
0010
0110
0100
0101
0001
1001
1000
,  // measure 31
0001
0100
1000
0100
0010
1000
0100
0001
,  // measure 32
2000
0000
3002
0000
0203
0000
0320
0030
,  // measure 33
0010
1000
0010
0001
0010
1000
0100
0010
,  // measure 34
0001
0100
0010
0100
1000
0100
0010
0100
,  // measure 35
0001
0010
1000
0010
0010
0010
0001
0010
,  // measure 36
2000
0000
3002
0000
0203
0000
0320
0030
,  // measure 37
0110
0010
1010
1000
1100
0100
0110
0010
,  // measure 38
0011
0001
1001
1000
1010
1000
1100
1000
,  // measure 39
0010
1000
0100
1000
0001
0010
0100
1000
,  // measure 40
0001
1000
0000
1000
0010
0100
0001
1001
,  // measure 41
2000
0000
0000
0010
0000
0000
0200
0000
0000
0000
0000
0000
3300
0000
0000
0000
,  // measure 42
0002
0000
0000
0100
0000
0000
0020
0000
0000
0000
0000
0000
0033
0000
0000
0000
,  // measure 43
0020
0000
0000
0100
0000
0000
2000
0000
0000
0000
0000
0000
3030
0000
0000
0000
,  // measure 44
1000
0010
0000
0010
0010
0010
0100
0001
,  // measure 45
0002
0003
1000
0200
0300
0020
0030
0001
,  // measure 46
1000
0000
0000
0001
0000
0000
1000
0000
0001
0000
0000
0000
0000
0000
0000
0000
,  // measure 47
2002
0000
0000
3003
,  // measure 48
1000
0000
0000
0010
0000
0000
0100
0000
0001
0000
0000
0000
0000
0000
0000
0000
,  // measure 49
1000
0100
0001
0100
1000
0010
0001
0010
,  // measure 50
2000
0000
3002
0000
0203
0000
0320
0030
,  // measure 51
0010
1000
0100
0010
0001
0100
0010
1000
,  // measure 52
0001
0010
0100
0010
1000
0010
0001
0100
,  // measure 53
0010
0100
1000
0100
0001
0100
1000
0100
,  // measure 54
0002
0000
2003
0000
3020
0000
0230
0300
,  // measure 55
0110
0100
0101
0100
1100
0100
0101
0100
,  // measure 56
0110
0010
1010
0010
0011
0010
1010
0010
,  // measure 57
0001
0010
1000
0010
0100
0001
0100
1000
,  // measure 58
0200
0000
0302
0000
2003
0000
0000
3200
,  // measure 59
0000
0000
0000
0000
0000
0000
0000
0302
,  // measure 60
0000
0000
0000
0000
0000
1003
0002
2000
,  // measure 61
0000
0000
0000
3003
,  // measure 62
1000
0000
0000
0010
0000
0000
1000
0000
0000
0000
0010
0000
0200
0000
0300
0000
,  // measure 63
0001
0000
0000
1000
0000
0000
0002
0000
2000
0000
0000
0000
3003
0000
0000
0000
;

//---------------dance-single - ---------------
#NOTES:
     dance-single:
     :
     Hard:
     15:
     0,0,0,0,0:
// measure 0
0000
0000
0000
0000
,  // measure 1
0000
0000
0000
0000
,  // measure 2
0000
0000
0000
0000
,  // measure 3
1000
0000
0001
0000
1000
0000
0001
0000
1000
0000
0001
0000
1000
0000
0001
0000
1000
0000
0001
0000
1000
0000
0001
0000
1000
0000
0000
0000
0000
0000
0000
0000
0000
0000
0000
0000
0000
0000
0000
1000
0000
0000
0001
0000
0000
0010
0000
0000
,  // measure 4
0100
0000
1000
0100
1000
0000
0100
1000
0010
0000
0100
0000
0001
0000
1000
0000
,  // measure 5
0100
0000
0001
0100
1000
0000
0100
1000
0010
0000
0100
0000
0010
0000
1000
0000
,  // measure 6
0001
0000
0010
0100
1000
0000
0010
0100
0001
0000
1000
0000
0010
0000
0100
0000
,  // measure 7
0002
0000
0000
2003
0000
0000
3100
0000
2000
0000
0000
3002
0000
0000
0013
0001
,  // measure 8
0010
0000
0100
0010
0001
0000
0100
0010
1000
0000
0001
0000
0100
0000
1000
0000
,  // measure 9
0100
0000
0001
1000
0100
0000
0010
0001
0100
0000
0010
0000
1000
0000
0100
0000
,  // measure 10
0010
0000
0001
1000
0010
0000
0100
0010
1000
0000
0001
0000
0010
0000
0100
0000
,  // measure 11
1100
0000
0000
1001
0000
0000
0101
0000
2002
0000
0000
0000
3003
0000
0000
0000
,  // measure 12
2000
0000
0000
3020
0000
0000
0230
0000
0000
0000
0301
0000
1000
0000
0001
0000
,  // measure 13
0020
0000
0000
0230
0000
0000
2300
0000
0000
0000
3001
0000
0100
0000
0010
0000
,  // measure 14
2000
0000
0000
3002
0000
0000
0023
0000
0000
0000
0000
0000
0130
0000
0010
0000
,  // measure 15
2000
3020
0032
0023
,  // measure 16
0230
0000
0000
2300
0000
0000
3002
0000
0000
0000
0103
0000
1000
0000
0100
0000
,  // measure 17
0002
0000
0000
0023
0000
0000
0230
0000
0000
0000
0000
0000
1300
0000
0100
0000
,  // measure 18
0020
0000
0000
0230
0000
0000
2300
0000
0000
0000
3002
0000
0000
0000
2003
0000
,  // measure 19
0000
0000
3100
0020
0000
0230
1300
0000
,  // measure 20
1002
0000
0000
1000
0000
0000
2003
0000
0000
0000
3100
0000
0010
0000
0100
0000
,  // measure 21
2000
0000
0000
3020
0000
0000
0230
0000
0000
0000
0310
0000
0000
0000
0000
0000
,  // measure 22
2001
0000
0000
0001
0000
0000
3002
0000
0000
0000
0103
0000
1000
0000
0200
0000
,  // measure 23
0000
0302
2000
0000
0000
0003
3000
0000
,  // measure 24
0200
0000
0000
2300
0000
0000
3002
0000
,  // measure 25
2003
0000
0000
3200
0000
0000
0302
0000
,  // measure 26
0203
0000
0000
2300
0000
0000
3010
0000
,  // measure 27
0110
0000
0000
1010
0000
0000
2200
0000
3300
0000
0220
0000
0330
0000
0000
0000
,  // measure 28
0011
0000
0000
1100
0000
0000
0101
0000
2020
0000
0000
0000
3030
0000
0000
0000
,  // measure 29
1010
1001
0101
1001
1100
1010
0011
0101
,  // measure 30
0001
0100
0010
1000
0001
0010
0100
1000
,  // measure 31
0001
0000
0010
0000
1000
0000
0010
0000
0001
0010
0100
1000
0001
0100
0010
1000
,  // measure 32
0200
2300
3002
0103
,  // measure 33
0110
1010
1100
0101
0011
0110
1100
1001
,  // measure 34
0001
0010
0100
1000
0010
0100
0001
0010
,  // measure 35
0100
0000
1000
0000
0100
0000
0001
0000
0100
1000
0001
0100
0010
1000
0100
0010
,  // measure 36
0002
2003
3020
1030
,  // measure 37
1010
0011
0101
1100
1001
0011
1001
1010
,  // measure 38
1000
0001
0010
0100
1000
0010
0100
0001
,  // measure 39
1000
0000
0010
0000
0001
0000
0010
0000
1000
0001
0100
0010
1000
0100
0010
0001
,  // measure 40
0200
2300
3200
0302
0023
0230
2300
3002
,  // measure 41
0103
0000
0000
0001
0100
0000
0110
0000
0010
0000
0100
0000
0001
0000
0010
0000
,  // measure 42
0100
0000
1000
0001
0100
0000
1000
0000
0100
0000
0001
0000
0010
0000
0100
0000
,  // measure 43
1000
0000
0001
0100
0010
0000
1000
0000
0100
0000
0010
0000
0001
0000
0100
0000
,  // measure 44
0010
0000
1000
0010
1000
0000
0010
1000
0010
0000
0100
0000
0001
0000
1000
0000
,  // measure 45
2002
0000
0000
3003
,  // measure 46
1010
0000
0000
0101
0000
0000
1100
0000
0022
0000
0000
0000
0033
0000
0000
0000
,  // measure 47
0011
0010
0100
1000
0001
0100
1000
0100
,  // measure 48
0101
0000
0001
1000
0100
0000
1001
0000
0101
0000
0001
0000
0100
0000
1000
0000
,  // measure 49
0200
0000
0000
0302
0000
0000
0023
0000
0230
0000
0000
2300
0000
0000
3020
0000
,  // measure 50
0230
0302
2003
3010
,  // measure 51
0110
1010
1001
0101
0110
1010
1100
0110
,  // measure 52
0010
0001
0100
1000
0100
0001
0010
0100
,  // measure 53
2000
0000
0000
3002
0000
0000
0023
0000
0230
0000
0000
2300
0000
0000
3002
0000
,  // measure 54
0203
2300
3200
0301
,  // measure 55
1001
0011
0110
1100
1001
0101
0110
1010
,  // measure 56
1000
0001
0010
0100
1000
0001
0100
1000
,  // measure 57
0200
0000
0000
0302
0000
0000
0023
0000
0230
0000
0000
2300
0000
0000
3020
0000
,  // measure 58
0230
0000
0302
0000
2003
0000
0000
3010
,  // measure 59
0100
0000
0001
0100
0001
0000
0100
0001
0100
0000
0001
0100
0001
0000
0100
0001
,  // measure 60
0100
0000
0010
0100
0010
0000
0100
0010
0100
0000
0010
0100
0010
0000
0100
0010
,  // measure 61
0100
0000
0001
0010
0001
0000
0010
0001
0010
0000
0001
0010
0001
0000
0010
0001
,  // measure 62
0011
0000
0000
0110
0000
0000
2200
0000
3300
0000
1001
0000
0101
0000
0000
0000
,  // measure 63
1001
0000
0000
0110
0000
0000
1010
0000
0202
0000
0000
0000
0303
0000
0000
0000
;
