#TITLE:DM STAR -kanzai energy style- (Full Song);
#SUBTITLE:(D.U.S Special);
#ARTIST:NAOKI;
#MUSIC:DM STAR -FULL SONG-.ogg;
#BANNER:;
#BACKGROUND:;
#LYRICSPATH:;
#CDTITLE:;
#SAMPLESTART:14.977;
#SAMPLELENGTH:13.928999999999998;
#OFFSET:0.5;
#BPMS:0.000000=155.070000,
332.000000=77.535000,
348.000000=155.070000
;
#STOPS:;
#TIMESIGNATURES:0.000000=4=4;
#BGCHANGES:;
#FGCHANGES:;
#ATTACKS:;
#SPEEDS:0.000000=1.000000=0.000000=0;
#SCROLLS:0.000000=1.000000;
#KEYSOUNDS:;

//---------------dance-single - ---------------
#NOTES:
     dance-single:
     :
     Challenge:
     18:
     0,0,0,0,0:
// measure 0
0000
0000
0000
0000
,  // measure 1
2001
0000
0000
0001
0000
0000
3002
0000
0000
1000
0000
0000
1000
0000
1000
0000
,  // measure 2
0100
0000
0000
0010
0000
0000
0100
0000
0000
2003
0000
0000
0100
0000
0100
0000
,  // measure 3
3200
0000
0000
0010
0000
0000
0320
0000
0000
0001
0000
0000
0001
0000
0001
0000
,  // measure 4
2030
0000
0000
0100
0000
0000
3002
0000
0000
0010
0000
0000
0023
0000
0200
0030
,  // measure 5
2300
0000
0000
0001
0000
0000
0100
0000
0000
0010
0000
0000
0001
0000
0100
0000
,  // measure 6
3002
0000
0000
0100
0000
0000
1000
0000
0203
0000
0000
0320
0000
0000
2030
0000
,  // measure 7
3002
0000
0000
0010
0000
0000
0023
0000
0000
0001
0000
0000
0001
0000
0001
0000
,  // measure 8
0032
0000
0000
2003
0000
0000
3001
0000
,  // measure 9
0002
0000
1013
0000
,  // measure 10
0011
0001
0100
0010
1000
0001
0010
0100
,  // measure 11
1000
0001
0100
0010
1000
0001
0020
0130
,  // measure 12
2000
0001
0100
3020
0100
1000
0001
0100
,  // measure 13
2030
0001
0100
3002
1000
0100
2003
0010
,  // measure 14
3200
0001
0010
1000
0001
1000
0010
1000
,  // measure 15
0320
0000
0001
0000
0100
0000
1000
0000
0032
0000
0000
0203
0000
0000
0320
0000
,  // measure 16
2030
0001
0100
3020
0100
0001
1000
0100
,  // measure 17
2030
0000
0000
0001
0000
0000
3002
0000
0000
1000
0000
0000
0203
0000
0010
0000
,  // measure 18
0310
0000
1000
0000
1010
0000
1000
0010
0100
0002
2000
0000
3003
0000
0000
0000
,  // measure 19
1100
0000
1000
0010
0100
0000
0100
0001
1000
0100
0010
0000
0011
0000
1100
0000
,  // measure 20
1001
0000
1000
0010
0100
0000
0100
0010
1000
0001
0010
0000
0110
0000
1100
0000
,  // measure 21
0101
0000
0001
1000
0100
0000
0100
1000
0010
0100
0001
0000
0101
0000
1001
0000
,  // measure 22
1100
0000
0100
1000
0010
0000
0100
0010
1000
0001
0010
0000
0011
0000
0110
0000
,  // measure 23
1100
0000
0100
1000
0001
0000
0100
0010
1000
0001
0010
0000
0011
0000
0110
0000
,  // measure 24
1100
0000
0100
1000
0010
0000
0100
0010
1000
0001
0010
0000
0011
0000
1010
0000
,  // measure 25
0110
0000
0100
0001
0010
0000
0100
1000
0001
0100
0010
0000
1010
0000
0101
0000
,  // measure 26
1001
0000
1000
0010
0100
0001
1000
0100
0010
0001
0010
0001
0100
0001
0100
0010
,  // measure 27
0110
0000
0100
0010
1000
0001
1000
0001
0100
0010
0100
0010
1000
0100
1000
0100
,  // measure 28
0010
0000
0001
0100
0010
0000
0010
1000
0001
0010
0100
0000
1100
0000
0011
0000
,  // measure 29
1001
0000
1000
0010
0100
0001
0100
0001
1000
0010
1000
0010
0100
0001
0100
0001
,  // measure 30
0010
0000
0100
1000
0010
0100
0001
0000
1000
0100
0010
0000
0001
0100
0010
0000
,  // measure 31
1010
0000
0010
1000
0001
0010
0001
0010
0100
1000
0100
1000
0010
1000
0010
1000
,  // measure 32
0100
0000
0010
0100
1000
0000
0001
0100
1000
0100
0010
0000
1010
0000
1000
0000
,  // measure 33
0101
0000
0001
0010
0100
1000
0100
1000
0001
0100
0001
0100
0010
1000
0010
1000
,  // measure 34
1001
0000
0001
1000
1010
0000
1000
0010
0110
0100
0001
0000
0101
0000
0001
0010
,  // measure 35
0110
0100
1000
0001
0100
0010
1000
0001
0100
1000
0100
0001
0020
0000
0130
0000
,  // measure 36
0100
1000
0010
0100
1000
0100
0010
1000
0001
0010
0100
1000
0002
0000
0103
0000
,  // measure 37
0100
0010
1000
0001
0010
0100
1000
0001
0100
1000
0100
0001
0020
0000
0130
0000
,  // measure 38
0010
0100
1000
0100
0010
0100
1000
0010
0100
0001
0020
0030
0110
0000
0000
0000
,  // measure 39
1100
1000
0001
0100
1000
0100
0001
1000
0100
0001
0100
1000
0002
0000
0103
0000
,  // measure 40
0100
0001
0010
1000
0010
0001
1000
0010
0001
0010
1000
0001
0020
0000
0130
0000
,  // measure 41
0100
1000
0010
0100
1000
0100
0010
1000
0100
0010
0100
1000
0020
0000
0130
0000
,  // measure 42
0100
0001
0010
0100
0001
0100
0010
0001
0010
0100
0001
0100
0020
0000
0031
0000
,  // measure 43
0001
0100
1000
0100
0020
0030
1000
0100
0001
0100
0020
0030
0001
0100
0010
1000
,  // measure 44
0002
0103
2000
3100
0002
0103
0002
0103
,  // measure 45
1000
0100
0001
0100
2000
3000
0001
0100
1000
0100
0002
0003
1000
0001
0010
0100
,  // measure 46
2000
3100
0002
0103
2000
3100
2000
3100
,  // measure 47
1000
0001
0100
0010
2000
3000
1000
0010
0100
0001
2000
3000
0100
0010
0001
0100
,  // measure 48
0020
1030
0200
1300
0020
1030
0020
1030
,  // measure 49
1000
0010
0100
0010
1000
0100
0010
0100
1000
0001
0010
0001
0100
0010
0100
0001
,  // measure 50
0010
0100
1000
0001
0100
0010
0100
0001
2000
0000
0000
0000
3002
0000
0003
0000
,  // measure 51
1001
0000
1000
0100
0010
0000
0001
0100
0020
0000
2030
0000
3002
0000
0203
0000
,  // measure 52
2300
3200
0320
2030
3002
0023
0230
2300
,  // measure 53
3001
0000
0100
1000
0001
0000
0010
1000
0001
0000
0100
0010
0001
0000
1000
0100
,  // measure 54
0002
0203
0320
2030
3002
0023
0230
1300
,  // measure 55
1100
0000
1000
0001
0100
0000
1000
0100
0001
0000
1000
0100
0001
0000
0100
1000
,  // measure 56
0002
0023
2030
3020
0032
0203
2300
3200
,  // measure 57
0310
0000
1000
0001
0010
0000
1000
0010
0001
0000
1000
0010
0001
0000
0010
1000
,  // measure 58
0002
0023
0230
2300
3002
0203
2300
3200
,  // measure 59
0302
1000
0000
1000
,  // measure 60
2003
0001
0000
0001
,  // measure 61
3020
0100
0000
0100
,  // measure 62
0230
0010
0000
0310
,  // measure 63
0110
0000
1010
0000
1000
0010
0100
0010
1000
0000
0001
0010
0000
0100
0010
0000
,  // measure 64
0011
0000
0101
0000
0001
0100
0010
0100
0001
0000
0001
0010
0000
0010
0100
0000
,  // measure 65
1100
0000
0101
0000
0001
0100
1000
0100
0001
0000
0001
0010
0000
0010
0100
0000
,  // measure 66
0100
0010
0100
0010
0001
0010
0001
0010
0100
1000
0001
0100
0020
0000
1030
0000
,  // measure 67
1000
0010
0100
0001
0020
0000
0130
0000
0100
1000
0001
0100
0020
0000
0130
0000
,  // measure 68
0100
0001
1000
0100
0001
0100
1000
0001
0100
1000
0100
0001
2000
0000
3100
0000
,  // measure 69
1000
0100
0010
0001
0010
0100
1000
0001
0100
0010
1000
0010
0200
0000
0301
0000
,  // measure 70
0001
0100
0010
1000
0010
0100
0001
0010
0100
1000
0001
0100
0020
0000
0130
0000
,  // measure 71
0100
0001
1000
0100
0020
0000
0130
0000
0100
1000
0001
0100
0020
0000
0130
0000
,  // measure 72
0110
0000
1000
0001
1001
0000
0001
0010
0110
0100
1000
0001
0100
0000
0110
0000
,  // measure 73
1010
0000
1000
0001
0010
0000
0001
1000
0010
0000
0100
0010
1000
0000
0100
0010
,  // measure 74
0001
0100
0001
0100
0010
1000
0010
1000
0100
0010
0001
1000
0020
0000
0130
0000
,  // measure 75
0100
0010
0100
0010
0100
0010
0100
0010
1000
0010
1000
0010
1000
0010
1000
0010
,  // measure 76
1000
0001
1000
0001
1000
0001
1000
0001
0100
0001
0100
0001
0100
0001
0100
0001
,  // measure 77
0010
0001
0100
0001
0010
0001
0100
0001
1000
0100
0010
0100
1000
0100
0010
0100
,  // measure 78
1000
0010
0100
0010
1000
0010
0100
0010
1000
0001
0010
0001
1000
0001
0010
0001
,  // measure 79
0100
0010
1000
0001
0100
0010
1000
0001
0010
0100
1000
0001
0010
0100
1000
0001
,  // measure 80
0100
0010
1000
0001
0010
0100
1000
0001
0010
0100
1000
0001
0010
0100
1000
0001
,  // measure 81
0100
0010
1000
0100
0001
0100
0010
0001
0100
1000
0100
0010
1000
0001
0010
0100
,  // measure 82
1000
0001
0100
0010
1000
0001
0010
0100
2000
3001
0100
0010
2000
3100
0010
0100
,  // measure 83
1000
0100
0010
0100
1000
0001
0100
0010
1000
0001
0020
0000
0001
0000
0100
0000
,  // measure 84
0031
0100
0010
1000
0001
0010
0100
0010
0001
0100
0020
0000
1000
0000
0001
0000
,  // measure 85
0130
0010
1000
0001
0010
0100
1000
0001
0100
0010
2000
0000
0001
0000
3100
0000
,  // measure 86
1001
0000
1000
0000
0001
0000
0100
0000
0101
0000
0100
0000
0010
0000
1000
0000
0001
0010
0001
0010
0100
1000
0100
1000
0001
0100
0010
1000
0001
0100
0010
1000
,  // measure 87
0001
0010
0100
1000
0010
0100
1000
0100
0010
1000
0001
0010
0100
1000
0001
0100
,  // measure 88
0010
1000
0002
0103
0010
1000
0002
0013
0100
1000
0002
0103
1000
0100
0002
0013
,  // measure 89
0100
1000
0010
0100
1000
0100
0001
0010
0100
1000
0010
0100
0001
0010
1000
0010
,  // measure 90
0100
1000
0001
0100
1000
0100
0001
0010
0100
1000
0001
0100
0010
1000
0001
0010
,  // measure 91
1000
0010
0100
1000
0001
0100
1000
0001
0010
0100
0001
0010
1000
0001
0100
1000
,  // measure 92
0001
0100
1000
0100
0001
0010
1000
0010
0001
0100
0001
0100
0010
1000
0010
1000
,  // measure 93
0100
0010
1000
0010
0100
1000
0001
1000
0100
0010
0001
0100
0010
0100
0001
0010
,  // measure 94
0100
1000
1100
0000
1001
0001
0100
0101
,  // measure 95
0100
0010
0110
0000
1010
0110
0101
1001
,  // measure 96
1000
0010
0100
0010
1000
0001
0010
0001
0100
0000
0100
0010
1000
0001
0020
0000
,  // measure 97
0000
0131
0000
0000
;

//---------------dance-double - ---------------
#NOTES:
     dance-double:
     :
     Challenge:
     19:
     0,0,0,0,0:
// measure 0
00000000
00000000
00000000
00000000
,  // measure 1
00021000
00000000
00000000
00001000
00000000
00000000
00001000
00000000
00000000
00001000
00000000
00000000
00031000
00000000
00001000
00000000
,  // measure 2
00012000
00000000
00000000
00010000
00000000
00000000
00010000
00000000
00000000
00010000
00000000
00000000
00013000
00000000
00010000
00000000
,  // measure 3
00010200
00000000
00000000
00010000
00000000
00000000
00010000
00000000
00000000
00010000
00000000
00000000
00010300
00000000
00010000
00000000
,  // measure 4
00201000
00000000
00000000
00001000
00000000
00000000
00001000
00000000
00000000
00001000
00000000
00000000
00301000
00000000
00001000
00000000
,  // measure 5
02010000
00000000
00000000
00010000
00000000
00000000
00010000
00000000
00000000
00010000
00000000
00000000
03010000
00000000
00010000
00000000
,  // measure 6
20100000
00000000
00000000
00100000
00000000
00000000
00100000
00000000
00000000
00100000
00000000
00000000
30100000
00000000
00100000
00000000
,  // measure 7
20010000
00000000
00000000
00010000
00000000
00000000
00010000
00000000
00000000
00010000
00000000
00000000
30010000
00000000
00010000
00000000
,  // measure 8
00011000
00000000
00000000
00011000
00000000
00000000
00001001
00000000
00000000
00001001
00000000
00000000
00000110
00000000
00001001
00000000
,  // measure 9
00002000
00000000
00003011
00000000
,  // measure 10
00001001
00001000
00000100
00000010
00001000
00010000
00100000
10000000
,  // measure 11
01000000
00010000
00001000
00000100
00000001
00000010
00000100
00001000
,  // measure 12
00000001
00000100
00001000
00010000
01000000
10000000
00010000
01000000
,  // measure 13
00100000
00000000
10000000
00000000
10100000
00000000
10000000
00100000
01000000
00100000
10000000
00000000
10010000
00000000
00010000
00000000
,  // measure 14
00100000
00000000
00010000
01000000
00100000
00000000
10000000
00000000
01000000
00000000
00100000
00000000
00010000
00000000
01000000
00000000
,  // measure 15
10000000
01000000
00010000
00100000
01000000
10000000
00010000
00100000
,  // measure 16
01000000
00010000
00001000
00000100
00000001
00000010
00000100
00001000
,  // measure 17
00001001
00000000
00000000
00000001
00000000
00000000
00000101
00000000
00000000
00000100
00000000
00000000
00000110
00000000
00000010
00000000
,  // measure 18
00001000
00000000
00001000
00000000
00001001
00000000
00001000
00000010
00000100
00000002
00002000
00000000
00003003
00000000
00000000
00000000
,  // measure 19
00011000
00000000
00010000
00001000
00100000
00000000
00100000
00010000
01000000
00100000
10000000
00000000
10100000
00000000
00100000
00000000
,  // measure 20
01100000
00000000
01000000
00010000
00100000
00000000
01000000
10000000
00010000
01000000
00100000
00000000
10100000
00000000
00100000
00000000
,  // measure 21
00110000
00000000
00010000
00100000
01000000
00000000
01000000
00010000
00100000
01000000
10000000
00000000
10010000
00000000
00010000
00000000
,  // measure 22
00110000
00000000
00100000
00010000
01000000
00000000
01000000
00001000
00010000
00000100
00000010
00000000
00000011
00000000
00000010
00000000
,  // measure 23
00000110
00000000
00000100
00001000
00000001
00000000
00000001
00000100
00001000
00000100
00000001
00000000
00001001
00000000
00001000
00000000
,  // measure 24
00001100
00000000
00000100
00000010
00000001
00000000
00000001
00000100
00001000
00000100
00000010
00000000
00001010
00000000
00000010
00000000
,  // measure 25
00000011
00000000
00000001
00000010
00000100
00000000
00000100
00000001
00000010
00000100
00001000
00000000
00001001
00000000
00000001
00000000
,  // measure 26
00000100
00000000
00001000
00000000
00010000
00000000
00100000
00000000
01000000
00100000
10000000
00000000
10010000
00000000
00010000
00000000
,  // measure 27
00110000
00000000
00010000
00100000
01000000
10000000
00100000
01000000
00010000
10000000
00010000
10000000
00100000
10000000
00100000
10000000
,  // measure 28
01000000
00000000
01000000
10000000
00100000
00000000
00100000
01000000
00010000
10000000
01000000
00000000
01100000
00000000
00100000
00000000
,  // measure 29
00110000
00000000
00010000
00100000
01000000
10000000
00010000
01000000
10000000
01000000
10000000
01000000
00010000
01000000
00010000
01000000
,  // measure 30
00100000
00000000
00100000
10000000
00010000
00100000
01000000
10000000
00010000
00100000
00001000
00000000
00001000
00010000
00000010
00000000
,  // measure 31
00001010
00000000
00001000
00000010
00000100
00000001
00001000
00000100
00000010
00000001
00000010
00000001
00000100
00000010
00000100
00000010
,  // measure 32
00001000
00000000
00001000
00000001
00000010
00000000
00000010
00000100
00001000
00000001
00000100
00000000
00001100
00000000
00000100
00000000
,  // measure 33
00000011
00000000
00000001
00001000
00000001
00000100
00001000
00000100
00000010
00001000
00000010
00001000
00000001
00000010
00000001
00000010
,  // measure 34
00000100
00000000
00000100
00001000
00000010
00000000
00000010
00010000
00002000
00000000
00203000
00000000
00320000
00000000
01030000
00010000
,  // measure 35
00100000
01000000
10000000
00010000
01000000
10000000
01000000
00100000
10000000
01000000
00010000
01000000
20000000
00000000
30010000
00000000
,  // measure 36
00010000
01000000
00100000
10000000
00010000
00100000
01000000
10000000
00010000
01000000
10000000
01000000
00200000
00000000
10300000
00000000
,  // measure 37
10000000
00010000
00100000
01000000
10000000
00010000
01000000
00100000
10000000
00010000
01000000
00010000
00200000
00000000
01300000
00000000
,  // measure 38
01000000
00100000
00010000
01000000
00100000
10000000
00010000
00100000
00001000
00010000
00000100
00000000
00001100
00000000
00001000
00000000
,  // measure 39
00000010
00000100
00000001
00001000
00000100
00000010
00000100
00001000
00000001
00000010
00000100
00001000
00000002
00000000
00000103
00000000
,  // measure 40
00000100
00000010
00001000
00000010
00000100
00000001
00001000
00000100
00000001
00000100
00001000
00000001
00000200
00000000
00000310
00000000
,  // measure 41
00000010
00001000
00000001
00000010
00000100
00001000
00000010
00000100
00001000
00000100
00000001
00000010
00000200
00000000
00001300
00000000
,  // measure 42
00001100
00001000
00000001
00000100
00000101
00000100
00000010
00001000
00000100
00010000
00001000
00100000
00210000
00000000
01300000
00000000
,  // measure 43
01000000
10000000
00100000
01000000
00010000
00000000
00100000
00010000
01000000
00100000
10000000
00000000
01000000
10000000
00100000
01000000
,  // measure 44
10000000
00000000
01000000
00010000
10000000
00000000
01000000
00100000
00020000
00000000
20030000
00000000
32000000
00000000
03200000
00000000
,  // measure 45
01300000
10000000
00010000
01000000
00100000
00000000
01000000
00100000
10000000
00010000
00100000
00000000
01000000
00100000
00010000
01000000
,  // measure 46
00200000
00320000
20030000
32000000
03020000
00032000
00003200
00000302
,  // measure 47
00001003
00000100
00000010
00000001
00000100
00000000
00000100
00000010
00001000
00000001
00000010
00000000
00000100
00000010
00000001
00000100
,  // measure 48
00000010
00000000
00000100
00000010
00001000
00000000
00000100
00000010
00000001
00000100
00001000
00000100
00000010
00001000
00000001
00000010
,  // measure 49
00000100
00001000
00000010
00001000
00000100
00010000
00001000
00010000
00000100
00010000
00001000
00100000
00010000
01000000
00100000
01000000
,  // measure 50
00010000
00100000
01000000
10000000
00010000
01000000
10000000
01000000
00020000
00000000
00000000
00000000
20030000
00000000
30000000
00000000
,  // measure 51
10000000
01000000
00100000
00010000
00100000
01000000
10000000
00010000
02000000
00000000
23000000
00000000
32000000
00000000
03200000
00000000
,  // measure 52
10300000
00000000
10000000
00010000
00100000
00000000
00100000
00001000
00010000
00000000
00010000
00000100
00001000
00000000
00001000
00000001
,  // measure 53
00000100
00000010
00001000
00000010
00000100
00000001
00000010
00001000
00000020
00000000
00000230
00000000
00002300
00000000
00003002
00000000
,  // measure 54
00000103
00000000
00000100
00000010
00001000
00000000
00001000
00000100
00010000
00000000
00010000
00001000
00100000
00000000
00100000
00010000
,  // measure 55
01000000
10000000
01000000
00010000
00100000
01000000
10000000
00010000
02000000
00000000
23000000
00000000
32000000
00000000
03020000
00000000
,  // measure 56
00130000
00000000
01000000
00100000
00010000
00000000
00010000
10000000
00100000
00000000
01000000
00010000
00100000
00000000
00100000
00001000
,  // measure 57
00010000
00000100
00010000
00001000
00100000
00010000
00100000
00001000
00020000
00000000
00030200
00000000
00002300
00000000
00003002
00000000
,  // measure 58
00000103
00000010
00001000
00000001
00000010
00001000
00000010
00000100
00001000
00000001
00000100
00001000
00010000
01000000
10000000
00010000
,  // measure 59
20000000
01000000
00000000
01000000
,  // measure 60
30020000
01000000
00000000
01000000
,  // measure 61
02030000
00001000
00000000
00001000
,  // measure 62
03002000
00010000
00000000
00013000
,  // measure 63
00011000
00000000
00001010
00000000
00000010
00010000
00000000
00001000
01000000
00000000
00010000
00000010
00000000
00001000
01000000
00000000
,  // measure 64
01010000
00000000
10010000
00000000
10000000
00010000
00000000
00001000
00000001
00000000
00000001
00001000
00000000
00010000
10000000
00000000
,  // measure 65
10010000
00000000
10100000
00000000
10000000
00001000
00000000
00010000
00000010
00000000
00000100
00000001
00000000
00000001
00001000
00000200
,  // measure 66
00000020
00000000
00000000
00000000
00000330
00001000
00000000
00000000
,  // measure 67
00000011
00000010
00000100
00001000
00000001
00000000
00001001
00000000
00011000
00001000
00100000
00010000
01000000
00000000
10100000
00000000
,  // measure 68
10000000
00100000
01000000
00010000
00100000
10000000
00100000
01000000
10000000
00010000
01000000
10000000
02000000
00000000
03010000
00000000
,  // measure 69
01010000
00010000
00100000
01000000
10000000
00000000
10010000
00000000
00011000
00010000
00000010
00000100
00000001
00000000
00001001
00000000
,  // measure 70
00001000
00000100
00000001
00000100
00001000
00000010
00000100
00001000
00000100
00000001
00000010
00000100
00002000
00000000
00003001
00000000
,  // measure 71
00000001
00000100
00001000
00000100
00000002
00000000
00001003
00000000
00000100
00001000
00010000
00001000
00000200
00000000
00001300
00000000
,  // measure 72
00001000
00000100
00000001
00000010
00000100
00001000
00000010
00000100
00001000
00010000
01000000
10000000
00020000
00000000
01030000
00000000
,  // measure 73
00100000
01000000
00010000
10000000
02000000
00000000
03100000
00000000
01000000
10000000
00100000
01000000
00020000
00000000
10030000
00000000
,  // measure 74
10000000
00100000
00010000
00100000
10000000
01000000
00010000
01000000
10000000
00010000
00001000
00010000
20000000
00000000
30010000
00000000
,  // measure 75
10000000
00010000
10000000
00010000
10000000
00010000
10000000
00010000
00100000
00010000
00100000
00010000
00100000
00010000
00100000
00010000
,  // measure 76
01000000
00010000
01000000
00010000
01000000
00010000
01000000
00010000
01000000
00100000
01000000
00100000
01000000
00100000
01000000
00100000
,  // measure 77
10000000
00010000
00100000
00010000
10000000
00010000
00100000
00010000
01000000
00100000
10000000
00100000
01000000
00100000
10000000
00100000
,  // measure 78
01000000
00010000
01000000
00010000
00100000
00001000
00100000
00001000
00010000
00000100
00010000
00000100
00001000
00000001
00001000
00000001
,  // measure 79
00000100
00000010
00001000
00000001
00000100
00000010
00001000
00000001
00000100
00000010
00001000
00000001
00000010
00000100
00001000
00000001
,  // measure 80
00000100
00000001
00000010
00000100
00000010
00000001
00000100
00000001
00000010
00000100
00000001
00000100
00000010
00000001
00001000
00000010
,  // measure 81
00000100
00001000
00010000
01000000
10000000
00010000
01000000
10000000
01000000
00010000
00100000
01000000
10000000
00010000
00100000
00001000
,  // measure 82
00000100
00000010
00001000
00000001
00000010
00001000
00010000
00100000
20000000
30010000
00100000
01000000
00020000
01030000
10000000
00010000
,  // measure 83
01000000
00100000
10000000
00100000
01000000
00010000
00100000
02000000
00000000
10000000
20000000
00000000
00000000
00000000
33000000
00000000
,  // measure 84
11000000
10000000
00100000
00010000
00001000
00000010
00000001
00002000
00000000
00000001
00000002
00000000
00000000
00000000
00003003
00000000
,  // measure 85
00001001
00001000
00000100
00010000
00001000
00100000
00010000
01000000
01010000
01000000
00100000
10000000
00010000
00100000
01000000
10000000
,  // measure 86
11000000
00000000
10000000
00000000
10010000
00000000
00010000
00000000
01010000
00000000
01000000
00000000
01001000
00000000
00011000
00000000
00010000
00001000
00100000
00001000
00010000
00001000
01000000
00001000
00010000
00000100
00010000
00001000
00010000
00000010
00010000
00001000
,  // measure 87
00010000
01000000
10000000
00100000
01000000
00010000
00100000
10000000
00100000
00010000
01000000
10000000
01000000
00010000
00100000
00001000
,  // measure 88
00010000
00000100
00002000
00003010
00000100
00000001
00000020
00000130
00001000
00000001
00000200
00001300
00000100
00000001
00000020
00000130
,  // measure 89
00001000
00000001
00000100
00001000
00000100
00000010
00001000
00000100
00010000
01000000
10000000
00010000
01000000
10000000
01000000
00100000
,  // measure 90
10000000
00010000
00100000
01000000
10000000
00001000
00010000
00000001
00000100
00001000
00000100
00000010
00010000
00001000
00100000
01000000
,  // measure 91
11000000
10000000
00010000
01000000
10000000
00010000
00100000
01000000
00010000
00100000
10000000
00010000
01000000
10000000
00001000
00010000
,  // measure 92
00000100
00001000
00000001
00000100
00001000
00000001
00000010
00001000
00000001
00000010
00001000
00000001
00000100
00001000
00000010
00000100
,  // measure 93
00001000
00010000
01000000
10000000
00010000
01000000
10000000
01000000
00010000
00100000
10000000
00100000
00010000
01000000
00001000
00010000
,  // measure 94
00000100
00001000
00001010
00000000
00000101
00000100
00000010
00001000
,  // measure 95
00000001
00000010
00000011
00000000
00001100
00000100
00010100
00010000
,  // measure 96
00011000
00010000
00001000
00100000
00010000
01000000
10000000
01000000
00010000
00000000
00010000
10000000
00100000
00010000
00002000
00000000
,  // measure 97
00000000
00113000
00000000
00000000
;
