#VERSION:0.83;
#TITLE:DANCING ALL ALONE;
#SUBTITLE:(D.U.S Special);
#ARTIST:smile.dk;
#TITLETRANSLIT:;
#SUBTITLETRANSLIT:;
#ARTISTTRANSLIT:;
#GENRE:;
#CREDIT:;
#ORIGIN:;
#MUSIC:DANCING ALL ALONE (D.U.S Special).ogg;
#BANNER:DANCING ALL ALONE (D.U.S Special).png;
#BACKGROUND:DANCING ALL ALONE (D.U.S Special)-bg.png;
#JACKET:DANCING ALL ALONE (D.U.S Special)-jacket.png;
#DISCIMAGE:;
#CDIMAGE:;
#SELECTABLE:YES;
#LYRICSPATH:;
#CDTITLE:;
#SAMPLESTART:44.571;
#SAMPLELENGTH:13.715000000000003;
#BPMS:0.000000=140.000000;
#STOPS:;
#WARPS:;
#DELAYS:;
#SPEEDS:0.000000=1.000000=0.000000=0;
#SCROLLS:0.000000=1.000000;
#TICKCOUNTS:;
#TIMESIGNATURES:0.000000=4=4;
#LABELS:;
#COMBOS:;
#FAKES:;
#BGCHANGES:;
#FGCHANGES:;
#ATTACKS:;
#KEYSOUNDS:;

//---------------dance-single - ---------------
#NOTEDATA:;
#CHARTNAME:;
#CHARTSTYLE:;
#CREDIT:;
#STEPSTYPE:dance-single;
#DESCRIPTION:;
#DIFFICULTY:Challenge;
#METER:16;
#METERF:16;
#RADARVALUES:0,0,0,0,0;
#NOTES:
// measure 0
0000
0000
0000
0000
,  // measure 1
0000
0000
0000
0000
,  // measure 2
1001
1000
0010
0100
0010
0010
1000
0001
,  // measure 3
0020
0000
0031
0200
0000
0000
0310
0010
,  // measure 4
1000
0010
1000
0010
0100
0001
0100
0001
0010
0100
0010
0100
1000
0010
1000
0010
,  // measure 5
0100
0010
1000
0001
0010
1000
0010
0100
1000
0010
0100
0001
0010
0100
1000
0001
,  // measure 6
1001
1000
0010
0100
1000
0100
0001
1000
,  // measure 7
2001
3000
0001
0201
0300
0101
0110
1010
,  // measure 8
1000
0010
1000
0010
0100
0001
0100
0001
0010
1000
0010
1000
0010
0100
0010
0100
,  // measure 9
1000
0010
0100
0001
0010
1000
0010
0100
1000
0001
0100
1000
1100
0000
0100
0000
,  // measure 10
0101
1001
1100
1001
0011
1010
0011
0101
,  // measure 11
0220
0330
0110
1010
1000
0010
0100
0001
,  // measure 12
0010
0011
0110
0011
1001
1010
0011
1010
,  // measure 13
1100
0000
0110
0000
0011
0000
2002
0000
3003
0000
1100
0000
0001
0100
0010
1000
,  // measure 14
1010
0110
0101
0110
1010
1001
0011
0110
,  // measure 15
1100
0000
0110
0000
0011
0000
2002
0000
3003
0000
1010
0000
1000
0100
0010
0001
,  // measure 16
0011
0110
1100
1001
0101
0110
1010
1002
,  // measure 17
1003
0000
1000
0000
0100
0000
0020
0000
0031
0000
0010
0000
0100
1000
0010
0100
,  // measure 18
0102
0003
0201
0300
0101
0001
0011
0010
,  // measure 19
0110
0010
0001
1000
0010
1010
0110
0011
,  // measure 20
0110
0100
0010
1000
0010
0001
0010
0100
,  // measure 21
0002
0013
2000
3010
0100
1000
0001
0100
,  // measure 22
0010
0010
0100
0100
1000
0001
1000
0001
,  // measure 23
0100
0010
1010
0010
0100
0101
0110
1100
,  // measure 24
0110
0110
0101
0000
0101
1001
1100
0110
,  // measure 25
0012
0003
0012
0103
1000
0010
1010
0000
,  // measure 26
1000
0100
0010
0000
0001
0100
0010
0000
1000
0010
0100
0000
0001
0010
0100
0000
,  // measure 27
1100
1000
0001
0101
0001
0011
0110
1100
,  // measure 28
0100
1000
0010
1000
0001
0010
0100
0010
0001
0100
1000
0100
0010
1000
0001
0010
,  // measure 29
0110
0010
0011
1001
1000
1100
1001
0101
,  // measure 30
0001
0100
0010
0000
1000
0100
0010
0000
0001
0010
1000
0000
0010
0100
1000
0000
,  // measure 31
1001
1000
0010
0110
0100
0001
0010
0100
,  // measure 32
1000
0010
0001
0010
0100
0001
0010
0100
1000
0001
0100
1000
0100
0010
1000
0001
,  // measure 33
1001
1000
0010
1010
1000
1001
0110
1010
,  // measure 34
1001
0012
0013
1002
1003
0102
0103
0012
,  // measure 35
0013
0000
0000
0000
0011
0000
1001
0000
1000
0010
1000
0010
2020
3030
0110
0000
,  // measure 36
0101
0100
0001
0010
1000
0010
0100
1000
,  // measure 37
0020
0000
1000
0000
0130
0000
0020
0000
0001
0000
2030
0000
3001
0010
0100
0010
,  // measure 38
0011
2001
3001
2010
3010
2100
3100
2001
,  // measure 39
3001
0000
0000
0000
1001
0000
0110
0000
0100
0010
0100
0010
0220
0330
1001
0000
,  // measure 40
1010
1000
0010
0100
0001
0010
0100
1000
,  // measure 41
2002
0000
3003
0000
1000
0000
0010
0000
0100
0001
0010
0000
0011
0000
0110
0000
,  // measure 42
2200
0000
3300
0000
1000
0100
0010
0001
0010
0100
1000
0010
0100
0001
0100
0010
,  // measure 43
1000
0010
0100
0001
0010
0100
1000
0001
0200
0000
0000
0000
0301
1000
0000
0000
;

//---------------pump-single - This is the S20 chart of this song---------------
#NOTEDATA:;
#CHARTNAME:;
#CHARTSTYLE:;
#CREDIT:;
#STEPSTYPE:pump-single;
#DESCRIPTION:This is the S20 chart of this song;
#DIFFICULTY:Challenge;
#METER:20;
#METERF:20;
#RADARVALUES:0,0,0,0,0;
#NOTES:
// measure 0
00000
00000
00000
00000
,  // measure 1
00000
00000
00000
00000
,  // measure 2
10001
00001
00010
00100
00010
00001
10000
01000
,  // measure 3
02200
03300
01100
21000
00100
00010
00100
30001
,  // measure 4
10000
00100
01000
00100
10000
00010
00100
00010
01000
00100
01000
00001
00100
00010
01000
00100
,  // measure 5
10000
01000
00100
01000
10000
00100
01000
00010
00100
00001
00010
00100
00010
00001
00100
00010
,  // measure 6
01010
00010
00100
00001
00010
00100
00010
00001
,  // measure 7
20002
30003
10001
21000
00100
00001
00100
30010
,  // measure 8
00010
00100
01000
00100
00010
01000
00100
00010
00001
10000
00100
01000
00010
00100
01000
00100
,  // measure 9
00001
00010
00100
01000
00010
00100
01000
10000
00010
01000
00002
00003
00011
00000
00010
00000
,  // measure 10
00100
00110
01100
01001
00101
10001
10100
10010
,  // measure 11
02020
00000
03030
00000
01010
00000
10001
00000
10000
00010
00100
00000
00100
00001
01000
00000
,  // measure 12
00001
01001
01010
10010
11000
10010
01001
00011
,  // measure 13
01001
00000
01010
00000
10010
00000
22000
00000
33000
00000
10100
00000
10000
00100
01000
00010
,  // measure 14
00100
00101
01100
01010
00110
10010
10100
10001
,  // measure 15
02002
00000
03003
00000
01001
00000
01010
00000
01000
00010
00100
00000
00001
10000
01000
00000
,  // measure 16
00100
01100
11000
10100
10001
00101
00011
01001
,  // measure 17
01110
00000
01000
00000
00100
00000
10000
00100
01000
00000
01000
00010
00100
01000
00100
00010
,  // measure 18
20000
00000
00100
30000
00002
00100
01000
00103
,  // measure 19
00020
00000
00100
00030
00002
01100
01100
01103
,  // measure 20
02000
00000
00100
03010
00020
00100
00001
00130
,  // measure 21
20000
00000
00100
32000
00000
03200
00000
00320
,  // measure 22
02030
00100
00001
03100
00020
00100
10000
00130
,  // measure 23
02000
00000
00001
03100
00020
01100
01100
01130
,  // measure 24
02000
23000
30020
00030
00002
02003
03020
00230
,  // measure 25
02300
03100
20000
30010
00002
00013
01101
00000
,  // measure 26
01110
01100
01101
00101
10101
10100
10110
00110
,  // measure 27
02120
00000
03030
00000
01010
00000
11000
00000
10000
01000
00010
00000
10000
01000
00100
00000
,  // measure 28
00010
00100
01000
10000
00100
01000
10000
00100
00001
00010
00100
01000
00010
00100
01000
10000
,  // measure 29
11000
00000
10010
00000
01010
00000
02002
00000
03003
00000
00011
00000
00101
00000
00001
01000
,  // measure 30
01101
01100
01110
00110
10110
10100
10101
00101
,  // measure 31
02102
00000
03003
00000
01001
00000
10010
00000
10000
00010
00100
00000
00100
01000
10000
00100
,  // measure 32
02000
03000
00100
00000
00020
00030
00100
00000
00002
00003
00100
00000
20000
30000
00100
00000
,  // measure 33
02000
03000
00200
00300
00002
00003
00200
00300
01000
00010
00100
01000
10000
00100
01000
00010
,  // measure 34
01010
01001
11000
01001
10001
10010
00011
10010
,  // measure 35
02020
00000
03030
00000
01010
00000
10001
00000
10000
00100
00010
00100
02000
00000
03010
00000
,  // measure 36
01110
01000
00010
00100
01000
10000
00010
01000
,  // measure 37
00002
00003
00010
00000
00200
00300
01000
00000
10000
01000
00100
00010
00001
00010
00100
01000
,  // measure 38
11000
01100
10100
11000
00011
11000
10010
00011
,  // measure 39
20020
00000
30030
00000
10010
00000
01001
00000
00001
00100
01000
00100
00020
00000
01030
00000
,  // measure 40
01110
00000
02000
03000
00100
00000
00020
00030
00100
00000
02000
03000
00001
00000
20000
30000
,  // measure 41
10010
00000
00010
00000
01000
00000
00100
01000
00010
00000
01010
00000
01000
00010
00100
00001
,  // measure 42
20002
00000
30003
00000
10000
00100
01000
00010
00100
01000
10000
00010
01000
00001
00010
00100
,  // measure 43
01000
00010
00100
01000
10000
00001
00010
10000
00200
00000
00000
00000
00301
01000
00000
00000
;

//---------------dance-double - ---------------
#NOTEDATA:;
#CHARTNAME:;
#CHARTSTYLE:;
#CREDIT:;
#STEPSTYPE:dance-double;
#DESCRIPTION:;
#DIFFICULTY:Challenge;
#METER:17;
#METERF:17;
#RADARVALUES:0,0,0,0,0;
#NOTES:
// measure 0
00000000
00000000
00000000
00000000
,  // measure 1
00000000
00000000
00000000
00000000
,  // measure 2
00011000
00010000
00000010
00000100
00000001
00000010
00001000
00000010
,  // measure 3
00000022
00000000
00000033
00000000
00000110
00000000
00001100
00000000
00000100
00001000
00000100
00000000
00000010
00000001
00000010
00000000
,  // measure 4
00000001
00000010
00001000
00000010
00000100
00001000
00000010
00100000
01000000
10000000
00010000
10000000
01000000
10000000
00100000
01000000
,  // measure 5
00010000
00100000
10000000
00100000
01000000
10000000
00010000
00100000
01000000
00010000
00001000
00000100
00000001
00000010
00000100
00001000
,  // measure 6
00001010
00001000
00000001
00000010
00001000
00000010
00000001
00000100
,  // measure 7
00002020
00000000
00003030
00000000
00011000
00000000
01010000
00000000
00010000
01000000
00100000
00000000
10000000
01000000
00100000
00000000
,  // measure 8
00010000
01000000
10000000
01000000
00010000
00100000
01000000
10000000
00100000
00010000
00001000
00000010
00000100
00001000
00000001
00000100
,  // measure 9
00010000
00000100
00000001
00000010
00000100
00001000
00000010
00000100
00001000
00010000
01000000
00000000
01100000
00000000
00100000
00010000
,  // measure 10
10000000
10010000
00011000
00001001
00000110
00000011
00001100
00011000
,  // measure 11
02020000
00000000
03030000
00000000
01010000
00000000
10010000
00000000
10000000
00100000
01000000
00000000
00001000
00100000
01000000
00000000
,  // measure 12
10000000
10100000
01010000
00011000
00001010
00000011
00001010
00001100
,  // measure 13
00000110
00000000
00000011
00000000
00001001
00000000
00001010
00000000
00001000
00000010
00010000
00100000
00001000
00100000
10000000
00010000
,  // measure 14
00100000
00110000
01010000
00011000
10010000
00011000
00001001
00011000
,  // measure 15
00220000
00000000
00330000
00000000
00110000
00000000
01100000
00000000
01000000
10000000
00100000
00000000
01000000
00001000
00010000
00000000
,  // measure 16
00000100
00011000
00001010
00000011
00000110
00000101
00001001
00011000
,  // measure 17
10010000
00000000
10000000
00000000
00100000
00000000
01000000
00010000
00100000
00000000
01100000
00000000
01000000
00100000
00010000
01000000
,  // measure 18
01200000
00300000
02100000
03000000
10000000
00010000
00100000
00001000
,  // measure 19
00000200
00001000
00000301
00000010
00000100
00001100
00001001
00000101
,  // measure 20
00000001
00000010
00001000
00010000
00100000
10000000
00010000
00100000
,  // measure 21
20000000
00000000
00100000
00000000
30100000
00000000
00020000
00000000
10000000
00000000
02030000
00000000
13000000
00000000
10000000
01000000
,  // measure 22
00100000
00100000
01000000
01000000
10000000
00010000
10000000
00010000
,  // measure 23
02000000
03000000
01100000
00100000
10000000
10010000
00110000
10010000
,  // measure 24
10000000
01000000
00020000
00000000
00031000
00000100
00000001
00000010
,  // measure 25
00000002
00001000
00000103
00000010
00001000
00000001
00011000
00000000
,  // measure 26
00011000
00101000
01001000
00101000
00010010
00010100
00011000
10010000
,  // measure 27
02200000
00000000
03300000
00000000
01100000
00000000
10010000
00000000
10000000
00010000
00100000
00000000
00010000
01000000
00100000
00000000
,  // measure 28
10000000
00010000
00100000
01000000
00010000
00001000
00000100
00000010
00001000
00000001
00000010
00000100
00001000
00000010
00000100
00000001
,  // measure 29
00001002
00000000
00001003
00000000
00002001
00000000
00003020
00000000
00000030
00000000
00011000
00000000
00001000
00000000
00010000
00001000
,  // measure 30
00101000
10001000
01001000
00101000
00010010
00010100
00010001
00011000
,  // measure 31
00220000
00000000
00330000
00000000
00110000
00000000
11000000
00000000
10000000
00100000
01000000
00000000
01000000
00001000
00010000
00001000
,  // measure 32
20000000
30002000
02003000
03000200
00200300
00300020
00020030
00030002
,  // measure 33
00000103
00000000
00000001
00000000
00000010
00000000
00000100
00001000
00000010
00000000
00000100
00000010
00001000
00000001
00000010
00000100
,  // measure 34
00001100
00001010
00001010
00011000
00001100
00011000
00110000
10010000
,  // measure 35
02020000
00000000
03030000
00000000
10010000
00000000
01010000
00000000
00010000
01000000
00001000
00010000
00000200
00000000
00000310
00000000
,  // measure 36
00000011
00000010
00000100
00001000
00000002
00000203
00002300
00023000
,  // measure 37
01030000
00000000
10000000
00000000
00100000
00000000
01000000
00010000
00100000
00000000
01100000
00000000
01000000
00100000
00001000
00010000
,  // measure 38
00011000
00010100
00010100
00011000
01010000
00011000
00001010
00011000
,  // measure 39
02020000
00000000
03030000
00000000
10010000
00000000
01010000
00000000
10000000
00100000
00010000
00001000
00000020
00000000
00000031
00000000
,  // measure 40
00000011
00000000
00000010
00000000
00000100
00000000
00001000
00000000
00000002
00000000
00002003
00000000
00023000
00000000
20030000
30000000
,  // measure 41
10010000
00000000
10000000
00000000
00100000
00000000
01000000
00010000
00100000
00000000
00100000
00010000
00100000
00001000
00010000
00000010
,  // measure 42
00000220
00000000
00000330
00000000
00000100
00000001
00000010
00001000
00010000
00100000
01000000
00010000
00100000
10000000
00100000
00010000
,  // measure 43
01000000
10000000
00010000
00100000
01000000
00010000
00100000
01000000
20000000
00000000
00000000
00000000
30010000
01000000
00000000
00000000
;
