#VERSION:0.83;
#TITLE:Creed -1st Desire-;
#SUBTITLE:;
#ARTIST:TatshMusicCircle;
#TITLETRANSLIT:;
#SUBTITLETRANSLIT:;
#ARTISTTRANSLIT:;
#GENRE:;
#CREDIT:;
#ORIGIN:;
#MUSIC:Creed -1st Desire-.ogg;
#BANNER:Creed -1st Desire-.png;
#BACKGROUND:Creed -1st Desire--bg.png;
#JACKET:Creed -1st Desire--jacket.png;
#DISCIMAGE:;
#CDIMAGE:;
#SELECTABLE:YES;
#LYRICSPATH:;
#CDTITLE:;
#SAMPLESTART:67.618;
#SAMPLELENGTH:11.77900000000001;
#OFFSET:-0.13;
#BPMS:0.000000=163.000000,
176.000000=326.000000,
177.000000=163.000000,
321.000000=652.000000,
325.000000=163.000000
;
#STOPS:64.000000=1.472000,
176.000000=1.288000
;
#WARPS:;
#DELAYS:;
#SPEEDS:0.000000=1.000000=0.000000=0;
#SCROLLS:0.000000=1.000000;
#TICKCOUNTS:;
#TIMESIGNATURES:0.000000=4=4;
#LABELS:;
#COMBOS:;
#FAKES:;
#BGCHANGES:;
#FGCHANGES:;
#ATTACKS:;
#KEYSOUNDS:;

//---------------dance-single - ---------------
#NOTEDATA:;
#CHARTNAME:;
#CHARTSTYLE:;
#CREDIT:;
#STEPSTYPE:dance-single;
#DESCRIPTION:;
#DIFFICULTY:Beginner;
#METER:5;
#METERF:5;
#RADARVALUES:0,0,0,0,0;
#NOTES:
// measure 0
0000
0000
0000
0000
,  // measure 1
0000
0000
0000
0000
,  // measure 2
0000
0000
0000
0000
,  // measure 3
0000
0000
0000
0000
,  // measure 4
0000
0000
0000
0000
,  // measure 5
0000
0000
0000
0000
,  // measure 6
0000
0000
0000
0000
,  // measure 7
0000
0000
0000
0000
,  // measure 8
2000
0000
3000
0000
,  // measure 9
0002
0000
0003
0000
,  // measure 10
2000
0000
3000
0000
,  // measure 11
0200
0000
0300
0000
,  // measure 12
2000
0000
3000
0000
,  // measure 13
0002
0000
0003
0000
,  // measure 14
0020
0000
0030
0000
,  // measure 15
0002
0000
0000
0003
,  // measure 16
0000
0001
0000
0000
0000
0000
0000
0000
0000
0000
0000
0000
0000
0000
0000
0000
0000
0000
0000
0000
0000
0000
0000
0000
0000
0000
0000
0000
0000
0000
0000
0000
0000
0000
0000
0000
0000
0000
0000
0000
0000
0000
0000
0000
0000
0000
0000
0000
0000
0000
0000
0000
0000
0000
0000
0000
0000
0000
0000
0000
0000
0000
0000
0000
0000
0000
0000
0000
0000
0000
0000
0000
0000
0000
0000
0000
0000
0000
0000
0000
0000
0000
0000
0000
0000
0000
0000
0000
0000
0000
0000
0000
0000
0000
0000
0000
0001
0000
0000
0000
0000
0000
0000
0000
0000
0000
0000
0000
0000
0000
0000
0000
0000
0000
0000
0000
0000
0000
0000
0000
0000
0000
0000
0000
0000
0000
0000
0000
0000
0000
0000
0000
0000
0000
0000
0000
0000
0000
0000
0000
0000
0000
0000
0000
0000
0000
0000
0000
0000
0000
0000
0000
0000
0000
0000
0000
0000
0000
0000
0000
0000
0000
0000
0000
0000
0000
0000
0000
0000
0000
0000
0000
0000
0000
0000
0000
0000
0000
0000
0000
0000
0000
0000
0000
0000
0000
0000
0000
0000
0000
0000
0000
,  // measure 17
1000
1000
1000
0000
,  // measure 18
0010
0010
0010
0000
,  // measure 19
0100
0000
0010
0000
,  // measure 20
1000
0000
0001
0000
,  // measure 21
0100
0100
0100
0000
,  // measure 22
0001
0001
0001
0000
,  // measure 23
2000
0000
0000
3000
,  // measure 24
2000
0000
3000
0000
,  // measure 25
0020
0000
0030
0000
,  // measure 26
0200
0000
0000
0000
,  // measure 27
0000
0000
0300
0000
,  // measure 28
0001
0000
0010
0000
,  // measure 29
1000
0000
0010
0000
,  // measure 30
0001
0000
0100
0000
,  // measure 31
1000
0000
0010
0000
,  // measure 32
0001
0000
0100
0000
,  // measure 33
1000
0000
0100
0000
,  // measure 34
0010
0000
1000
0000
,  // measure 35
0010
0000
0001
0000
,  // measure 36
0100
0100
0100
0000
,  // measure 37
0001
0001
0001
0000
,  // measure 38
1000
1000
1000
0000
,  // measure 39
0010
0010
0010
0000
,  // measure 40
0100
0100
0100
0000
,  // measure 41
0001
0001
0001
0000
,  // measure 42
1000
1000
1000
0000
,  // measure 43
0010
0010
0010
0010
,  // measure 44
0000
1000
1000
1000
,  // measure 45
0000
0001
0001
0001
,  // measure 46
0000
0100
0100
0100
,  // measure 47
0000
0010
0010
0010
,  // measure 48
0000
0100
0100
0100
,  // measure 49
0000
0001
0001
0001
,  // measure 50
0000
1000
1000
1000
,  // measure 51
0000
0100
0100
0100
,  // measure 52
0000
0010
0010
0010
,  // measure 53
0000
0001
0001
0001
,  // measure 54
0000
1000
1000
1000
,  // measure 55
0000
0100
0000
1000
,  // measure 56
0000
0001
0001
0001
,  // measure 57
0000
0010
0010
0010
,  // measure 58
0000
0100
0100
0100
,  // measure 59
0000
1000
1000
1000
,  // measure 60
0000
0010
0000
0100
,  // measure 61
0000
0001
0000
1000
,  // measure 62
0000
0020
0000
0000
,  // measure 63
0030
0010
0010
0010
,  // measure 64
0000
1000
1000
1000
,  // measure 65
0000
0001
0001
0001
,  // measure 66
0001
0002
0000
0003
,  // measure 67
0000
1000
0000
0010
,  // measure 68
0000
0200
0000
0300
,  // measure 69
0000
0001
0000
1000
,  // measure 70
0000
0020
0000
0030
,  // measure 71
0000
0100
0100
0100
,  // measure 72
0100
0100
0000
0001
,  // measure 73
0000
1000
0000
0100
,  // measure 74
0000
0010
0000
0100
,  // measure 75
0000
1000
0000
0001
,  // measure 76
0000
0200
0000
0000
,  // measure 77
0300
0100
0100
0100
,  // measure 78
0000
0001
0001
0001
,  // measure 79
0000
1000
1000
1000
,  // measure 80
1000
0000
0000
0000
,  // measure 81
0000
2002
0000
0000
,  // measure 82
0000
0000
0000
0000
,  // measure 83
0000
3003
0000
0000
;

//---------------dance-single - ---------------
#NOTEDATA:;
#CHARTNAME:;
#CHARTSTYLE:;
#CREDIT:;
#STEPSTYPE:dance-single;
#DESCRIPTION:;
#DIFFICULTY:Easy;
#METER:8;
#METERF:8;
#RADARVALUES:0,0,0,0,0;
#NOTES:
// measure 0
0000
0000
0000
0000
,  // measure 1
0000
0000
0000
0000
,  // measure 2
0000
0000
0000
0000
,  // measure 3
0000
0000
0000
0000
,  // measure 4
0000
0000
0000
0000
,  // measure 5
0000
0000
0000
0000
,  // measure 6
0000
0000
0000
0000
,  // measure 7
0000
0000
0000
0000
,  // measure 8
2000
0000
3002
0000
,  // measure 9
0023
0000
0032
0000
,  // measure 10
2003
0000
3200
0000
,  // measure 11
0302
0000
0203
0000
,  // measure 12
2300
0000
3020
0000
,  // measure 13
0230
0000
0302
0000
,  // measure 14
0013
0100
1000
0100
,  // measure 15
0020
0000
0032
0000
,  // measure 16
0003
1000
0000
0000
0000
0000
0000
0000
0000
0000
0000
0000
0000
0000
0000
0000
0000
0000
0000
0000
0000
0000
0000
0000
0000
0000
0000
0000
0000
0000
0000
0000
0000
0000
0000
0000
0000
0000
0000
0000
0000
0000
0000
0000
0000
0000
0000
0000
0100
0000
0000
0000
0000
0000
0000
0000
0000
0000
0000
0000
0000
0000
0000
0000
0000
0000
0000
0000
0000
0000
0000
0000
0000
0000
0000
0000
0000
0000
0000
0000
0000
0000
0000
0000
0000
0000
0000
0000
0000
0000
0000
0000
0000
0000
0000
0000
0010
0000
0000
0000
0000
0000
0000
0000
0000
0000
0000
0000
0000
0000
0000
0000
0000
0000
0000
0000
0000
0000
0000
0000
0000
0000
0000
0000
0000
0000
0000
0000
0000
0000
0000
0000
0000
0000
0000
0000
0000
0000
0000
0000
0000
0000
0000
0000
0001
0000
0000
0000
0000
0000
0000
0000
0000
0000
0000
0000
0000
0000
0000
0000
0000
0000
0000
0000
0000
0000
0000
0000
0000
0000
0000
0000
0000
0000
0000
0000
0000
0000
0000
0000
0000
0000
0000
0000
0000
0000
0000
0000
0000
0000
0000
0000
,  // measure 17
0100
1000
0100
0010
,  // measure 18
1000
0100
0010
0100
,  // measure 19
1000
0001
0010
0001
,  // measure 20
0100
0010
1000
0001
,  // measure 21
0010
0100
0010
0001
,  // measure 22
0100
0010
1000
0001
,  // measure 23
0200
2300
3200
0302
,  // measure 24
1003
0100
0001
0100
,  // measure 25
0010
0001
0100
0010
,  // measure 26
2000
0000
3002
0000
,  // measure 27
0203
0000
0320
0000
,  // measure 28
2030
0000
3001
0001
,  // measure 29
0200
0000
0310
0010
,  // measure 30
2000
0000
3100
0100
,  // measure 31
0010
0010
0002
0000
,  // measure 32
2003
0000
3010
0010
,  // measure 33
0200
0000
0301
0001
,  // measure 34
2000
0000
3100
0100
,  // measure 35
0010
0010
0011
0000
,  // measure 36
1100
1000
0001
0100
,  // measure 37
0010
0100
0001
0010
,  // measure 38
0100
1000
0010
0100
,  // measure 39
1000
0100
0001
1000
,  // measure 40
0100
0001
0100
0010
,  // measure 41
0001
0100
0010
1000
,  // measure 42
0001
0010
1000
0010
,  // measure 43
0001
0100
0010
1000
,  // measure 44
0000
0001
0100
0001
,  // measure 45
0010
0100
1000
0001
,  // measure 46
0100
0001
1000
0010
,  // measure 47
0100
0001
1000
0100
,  // measure 48
1000
0010
0100
0001
,  // measure 49
1000
0100
1000
0001
,  // measure 50
0100
0100
0001
0010
,  // measure 51
0100
1000
1000
0010
,  // measure 52
0100
0110
0100
0001
,  // measure 53
0010
0110
0100
1000
,  // measure 54
0001
1001
0001
0100
,  // measure 55
0010
0220
0330
0110
,  // measure 56
1001
0110
0100
0010
,  // measure 57
0001
0100
0010
1000
,  // measure 58
0001
0010
0001
0100
,  // measure 59
0010
2000
0000
3001
,  // measure 60
0010
2000
0000
3020
,  // measure 61
0000
0031
0100
0010
,  // measure 62
1000
0020
0000
0030
,  // measure 63
0110
1001
1000
0010
,  // measure 64
0100
0001
0010
0100
,  // measure 65
1000
0001
0100
1000
,  // measure 66
0100
0020
0000
0000
,  // measure 67
0000
2030
0000
3002
,  // measure 68
0000
0023
0000
0000
,  // measure 69
0130
2000
0000
3001
,  // measure 70
0100
0020
0000
0000
,  // measure 71
0000
1030
0010
0100
,  // measure 72
0010
1000
0100
0001
,  // measure 73
0100
0010
0001
0100
,  // measure 74
0010
1000
0001
0010
,  // measure 75
0100
1000
0010
0100
,  // measure 76
1000
0200
0000
0000
,  // measure 77
0000
0301
1000
0100
,  // measure 78
1000
0010
0100
0001
,  // measure 79
0010
0100
0010
0001
,  // measure 80
1000
0000
0000
0000
,  // measure 81
0000
2002
0000
0000
,  // measure 82
0000
0000
0000
0000
,  // measure 83
0000
3003
0000
0000
;

//---------------dance-single - ---------------
#NOTEDATA:;
#CHARTNAME:;
#CHARTSTYLE:;
#CREDIT:;
#STEPSTYPE:dance-single;
#DESCRIPTION:;
#DIFFICULTY:Medium;
#METER:13;
#METERF:13;
#RADARVALUES:0,0,0,0,0;
#NOTES:
// measure 0
0000
0000
0000
0000
,  // measure 1
0000
0000
0000
0000
,  // measure 2
0000
0000
0000
0000
,  // measure 3
0000
0000
0000
0000
,  // measure 4
0000
0000
0000
0000
,  // measure 5
0000
0000
0000
0000
,  // measure 6
0000
0000
0000
0000
,  // measure 7
0000
0000
0000
0000
,  // measure 8
2000
0000
3002
0000
,  // measure 9
0103
0001
0010
0100
,  // measure 10
1000
0001
0100
0010
,  // measure 11
2000
0000
3020
0000
,  // measure 12
0230
0000
0302
0000
,  // measure 13
1003
0100
0001
0100
,  // measure 14
0010
0001
0100
0010
,  // measure 15
2000
0000
0200
0000
,  // measure 16
3300
1100
0000
0000
0000
0000
0000
0000
0000
0000
0000
0000
0000
0000
0000
0000
0000
0000
0000
0000
0000
0000
0000
0000
0000
0000
0000
0000
0000
0000
0000
0000
0000
0000
0000
0000
0000
0000
0000
0000
0000
0000
0000
0000
0000
0000
0000
0000
1000
0000
0000
0000
0000
0000
0000
0000
0000
0000
0000
0000
0000
0000
0000
0000
0000
0000
0000
0000
0000
0000
0000
0000
0000
0000
0000
0000
0000
0000
0000
0000
0000
0000
0000
0000
0000
0000
0000
0000
0000
0000
0000
0000
0000
0000
0000
0000
1001
0000
0000
0000
0000
0000
0000
0000
0000
0000
0000
0000
0000
0000
0000
0000
0000
0000
0000
0000
0000
0000
0000
0000
0000
0000
0000
0000
0000
0000
0000
0000
0000
0000
0000
0000
0000
0000
0000
0000
0000
0000
0000
0000
0000
0000
0000
0000
0001
0000
0000
0000
0000
0000
0000
0000
0000
0000
0000
0000
0000
0000
0000
0000
0000
0000
0000
0000
0000
0000
0000
0000
0000
0000
0000
0000
0000
0000
0000
0000
0000
0000
0000
0000
0000
0000
0000
0000
0000
0000
0000
0000
0000
0000
0000
0000
,  // measure 17
0100
0001
1000
0000
0100
1000
0010
0000
,  // measure 18
0100
0010
1000
0001
0010
0000
0100
0000
,  // measure 19
0010
0000
0001
0100
0010
0000
1010
0000
,  // measure 20
1000
0000
0100
0010
0001
0000
0100
0000
,  // measure 21
0010
0000
1000
0001
0010
0000
0100
0000
,  // measure 22
1000
0001
0100
0001
1000
0000
0100
0000
,  // measure 23
0020
0032
2003
3020
,  // measure 24
0130
0000
0010
0000
1000
0001
0010
0000
,  // measure 25
0100
0000
0010
0000
0001
0100
0010
0000
,  // measure 26
2000
0000
3002
0000
,  // measure 27
0203
0000
0320
0000
,  // measure 28
2030
0000
0000
0000
0000
0000
3001
0000
1000
0000
0001
0000
,  // measure 29
2000
0000
0000
0000
0000
0000
3010
0000
1000
0000
0010
0000
,  // measure 30
2000
0000
0000
0000
0000
0000
3100
0000
0010
0000
0100
0000
,  // measure 31
0020
0030
0011
0000
,  // measure 32
0002
0000
0000
0000
0000
0000
0103
0000
0010
0000
0100
0000
,  // measure 33
0002
0000
0000
0000
0000
0000
1003
0000
0100
0000
0010
0000
,  // measure 34
0200
0000
0000
0000
0000
0000
1300
0000
0001
0000
0100
0000
,  // measure 35
0001
0000
1000
0000
0010
0000
2000
0000
0000
0000
0000
0000
,  // measure 36
3001
0000
0100
0000
0001
1000
0100
0000
,  // measure 37
0010
0000
0100
0000
1000
0010
0100
0000
,  // measure 38
0001
0000
1000
0000
0100
1000
0001
0000
,  // measure 39
0100
0000
0010
0000
0100
0010
0100
0000
,  // measure 40
0001
0000
0010
0000
0100
1000
0001
0000
,  // measure 41
0100
0000
1000
0000
0100
0001
1000
0000
,  // measure 42
0100
0000
0010
0000
0001
0100
0010
0000
,  // measure 43
1000
0001
1000
0000
0001
1000
0001
0000
,  // measure 44
0000
0000
0010
0000
0001
0000
0100
0010
,  // measure 45
1000
0000
0001
0000
0100
0000
0010
0100
,  // measure 46
0001
0000
1000
0000
0010
0000
0100
0010
,  // measure 47
1000
0000
0001
0000
0010
0000
0100
1000
,  // measure 48
0001
0000
0100
0000
1000
0000
0100
0001
,  // measure 49
1000
0000
0100
0000
0010
0000
0100
1000
,  // measure 50
0001
0000
0100
0000
0001
0000
1000
0100
,  // measure 51
0010
0000
0100
0000
1000
0000
0001
0100
,  // measure 52
0010
0000
1000
0000
0001
0000
0010
0001
,  // measure 53
0100
0000
0010
0000
1000
0000
0001
0010
,  // measure 54
0100
0000
1000
0000
0010
0000
0100
1000
,  // measure 55
0100
0000
0001
0000
0010
0000
0100
1000
,  // measure 56
0001
0000
0100
0000
0010
0000
0100
0001
,  // measure 57
1000
0000
0100
0000
0001
0000
0100
1000
,  // measure 58
0001
0000
0100
0000
0010
0000
1000
0001
,  // measure 59
0010
0110
0010
0001
,  // measure 60
0100
0000
2000
0000
0000
3100
0002
0000
,  // measure 61
0000
1003
0100
0010
,  // measure 62
0100
2000
0000
0000
,  // measure 63
3001
0000
1000
0001
1000
0001
1000
0001
,  // measure 64
1000
0000
0010
0100
0010
0100
0010
0100
,  // measure 65
0010
0000
1000
0100
1000
0100
1000
0100
,  // measure 66
1000
0002
0000
0000
,  // measure 67
0000
0203
0000
0320
,  // measure 68
0000
2030
0000
0000
,  // measure 69
3002
0000
2003
0000
0000
3200
0000
0000
,  // measure 70
0320
0230
0000
0000
,  // measure 71
1300
0001
0100
0001
1000
0001
0100
0001
,  // measure 72
1000
0001
0200
0000
0320
0000
0230
0000
,  // measure 73
0301
2000
0000
3200
0000
0310
0100
1000
,  // measure 74
0010
0100
0001
0000
1000
0000
0100
1000
,  // measure 75
0010
0000
0100
0000
1000
0000
0100
0001
,  // measure 76
1000
2002
0000
0000
,  // measure 77
3003
0000
1000
0010
0100
0010
1000
0010
,  // measure 78
0100
0000
0001
0010
0100
0010
0001
0010
,  // measure 79
0100
0000
1000
0001
0010
0100
1000
0010
,  // measure 80
0100
0001
0000
0000
0000
0000
0000
0000
,  // measure 81
0000
2002
0000
0000
,  // measure 82
0000
0000
0000
0000
,  // measure 83
0000
3003
0000
0000
;

//---------------dance-single - ---------------
#NOTEDATA:;
#CHARTNAME:;
#CHARTSTYLE:;
#CREDIT:;
#STEPSTYPE:dance-single;
#DESCRIPTION:;
#DIFFICULTY:Hard;
#METER:17;
#METERF:17;
#RADARVALUES:0,0,0,0,0;
#NOTES:
// measure 0
0000
0000
0000
0000
,  // measure 1
0000
0000
0000
0000
,  // measure 2
0000
0000
0000
0000
,  // measure 3
0000
0000
0000
0000
,  // measure 4
0000
0000
0000
0000
,  // measure 5
0000
0000
0000
0000
,  // measure 6
0000
0000
0000
0000
,  // measure 7
0000
0000
0000
0000
0000
1000
0010
0100
,  // measure 8
0002
0000
0000
0000
0000
0000
1003
0001
0200
0000
0000
0000
0000
0000
0000
0000
,  // measure 9
0301
0000
0001
0100
0020
0000
1030
0010
,  // measure 10
0100
0000
0001
0000
1000
0000
0100
0000
0020
0000
0030
0200
0000
0300
2000
0000
,  // measure 11
3002
0000
0000
0000
0003
0000
0001
0100
0020
0000
0000
0000
0000
0000
0000
0000
,  // measure 12
0230
0000
0000
0000
0000
0000
0301
1000
0020
0000
0000
0000
0000
0000
0000
0000
,  // measure 13
0130
0000
0100
0010
0100
0000
0100
0001
,  // measure 14
0010
0100
1000
0001
0200
0000
0302
0000
,  // measure 15
0023
0000
0000
0000
0000
0000
0031
0010
0200
0000
0000
0000
0000
0000
0000
0000
,  // measure 16
0300
1001
0000
0000
0000
0000
0000
0000
0000
0000
0000
0000
0000
0000
0000
0000
0000
0000
0000
0000
0000
0000
0000
0000
0000
0000
0000
0000
0000
0000
0000
0000
0000
0000
0000
0000
0000
0000
0000
0000
0000
0000
0000
0000
0000
0000
0000
0000
1100
0000
0000
0000
0000
0000
0000
0000
0000
0000
0000
0000
0000
0000
0000
0000
0000
0000
0000
0000
0000
0000
0000
0000
1000
0000
0000
0000
0000
0000
0000
0000
0000
0000
0000
0000
0100
0000
0000
0000
0000
0000
0000
0000
0000
0000
0000
0000
0010
0000
0000
0000
0000
0000
0000
0000
0000
0000
0000
0000
0000
0000
0000
0000
0000
0000
0000
0000
0000
0000
0000
0000
0000
0000
0000
0000
0000
0000
0000
0000
0000
0000
0000
0000
0000
0000
0000
0000
0000
0000
0000
0000
0000
0000
0000
0000
0011
0000
0000
0000
0000
0000
0000
0000
0000
0000
0000
0000
0000
0000
0000
0000
0000
0000
0000
0000
0000
0000
0000
0000
0000
0000
0000
0000
0000
0000
0000
0000
0000
0000
0000
0000
0000
0000
0000
0000
0000
0000
0000
0000
0000
0000
0000
0000
,  // measure 17
0110
0000
0010
0100
1000
0000
1100
0000
1001
0000
0001
0100
0010
0000
0110
0000
,  // measure 18
0101
0001
1001
1000
1010
0010
0110
0100
,  // measure 19
0102
0000
0000
0000
0003
0000
1000
0001
0020
0000
0000
0000
0031
0000
0000
0000
,  // measure 20
0011
0000
0000
0000
1100
0000
1000
0001
0010
0000
0000
0000
0110
0000
0000
0000
,  // measure 21
1100
0000
0100
1000
0010
0000
0100
0000
1100
0000
0100
0010
1000
0000
0100
0000
,  // measure 22
0010
0001
0100
0010
1000
0001
0010
0100
,  // measure 23
1000
0100
0010
0100
1000
0010
0100
1000
0100
0010
1000
0001
0010
0100
1000
0001
,  // measure 24
0200
0301
0002
1003
2000
3100
0200
0310
,  // measure 25
0020
0031
0002
1003
2000
3010
0020
0130
,  // measure 26
0220
0030
0002
0003
,  // measure 27
2000
3000
0002
0303
,  // measure 28
0101
0000
0001
0000
0010
0000
0110
0000
1100
0000
1001
0000
,  // measure 29
0101
0000
0001
0000
1000
0000
1100
0000
0110
0000
0011
0000
,  // measure 30
0110
0000
0100
0000
1000
0000
1010
0000
0110
0000
0101
0000
,  // measure 31
1001
0000
1100
0000
1001
0000
0011
0000
0001
0010
0100
0010
,  // measure 32
0011
0000
0010
0000
0100
0000
1100
0000
1001
0000
0101
0000
,  // measure 33
1001
0000
1000
0000
0010
0000
0110
0000
0101
0000
0110
0000
,  // measure 34
0010
0000
1000
0000
0100
0000
0110
0000
0011
0000
0110
0000
,  // measure 35
1100
0000
1001
0000
0101
0000
1000
0001
1000
0010
1000
0100
,  // measure 36
1000
0100
0010
0001
0100
0010
1000
0100
0010
0100
1000
0010
0100
1000
0100
0001
,  // measure 37
0010
0100
1000
0001
0100
0010
0100
0001
0010
0100
0001
0100
1000
0010
0100
1000
,  // measure 38
0100
0001
0010
0100
1000
0010
0100
1000
0100
0010
1000
0001
0010
0100
1000
0001
,  // measure 39
0200
0000
0320
0000
2030
0000
3001
0100
0010
0000
0100
0000
0101
0000
0100
0000
,  // measure 40
0001
0100
0010
1000
0100
0010
0001
0100
0010
1000
0010
0100
0001
0010
0100
1000
,  // measure 41
0010
0100
1000
0100
0001
1000
0100
0010
0100
1000
0010
0100
0001
0010
0100
1000
,  // measure 42
0010
0100
0001
0100
0010
1000
0100
0010
0001
0100
0010
1000
0001
0010
0100
1000
,  // measure 43
0001
0000
1001
0000
0001
0010
0100
1000
0001
0000
1001
0000
1000
0010
0100
0001
,  // measure 44
0000
1000
0000
0000
0000
0000
0000
0000
0000
0000
0000
0000
0000
0000
0000
0000
0000
0000
0000
0000
0000
0000
0000
0000
0000
0000
0000
0000
0000
0000
0000
0000
0000
0000
0000
0000
0000
0000
0000
0000
0000
0000
0000
0000
0000
0000
0000
0000
0010
0000
0000
0000
0000
0000
0000
0000
0000
0000
0000
0000
0000
0000
0000
0000
0000
0000
0000
0000
0000
0000
0000
0000
0100
0000
0000
0000
0000
0000
0000
0000
0000
0000
0000
0000
0001
0000
0000
0000
0000
0000
0000
0000
0000
0000
0000
0000
0010
0000
0000
0000
0000
0000
0000
0000
0000
0000
0000
0000
0000
0000
0000
0000
0000
0000
0000
0000
0000
0000
0000
0000
0100
0000
0000
0000
0000
0000
0000
0000
0000
0000
0000
0000
1000
0000
0000
0000
0000
0000
0000
0000
0000
0000
0000
0000
0010
0000
0000
0000
0000
0000
0000
0000
0000
0000
0000
0000
0000
0000
0000
0000
0000
0000
0000
0000
0000
0000
0000
0000
0100
0000
0000
0000
0000
0000
0000
0000
0000
0000
0000
0000
0000
0000
0000
0000
0000
0000
0000
0000
0000
0000
0000
0000
,  // measure 45
0101
0000
0100
0000
0010
0000
1000
0001
0010
0000
0100
1000
0010
0000
0100
0000
,  // measure 46
1100
0000
0100
0000
0001
0000
0010
0100
1000
0000
0001
0100
0010
0000
0100
0000
,  // measure 47
0101
0000
0100
0000
0001
0010
0100
1000
0001
0000
1001
0000
1000
0010
0100
0001
,  // measure 48
1000
0000
1001
0000
1000
0100
0010
0100
1000
0000
1001
0000
0001
0100
0010
0100
,  // measure 49
0001
0000
1001
0000
1000
0100
0001
0100
1000
0000
1001
0000
0001
0100
1000
0100
,  // measure 50
0001
0000
1001
0000
1000
0010
0100
0001
0010
0000
0011
0000
0001
0010
0100
1000
,  // measure 51
0010
0000
1010
0000
1000
0010
1000
0010
0100
0001
0100
0001
0010
0100
1000
0010
,  // measure 52
0100
0000
0101
0000
0001
0010
0100
1000
0010
0000
1010
0000
0010
1000
0001
0010
,  // measure 53
0100
0000
1100
0000
0100
1000
0010
0100
1000
0000
1100
0000
1000
0100
0010
1000
,  // measure 54
0100
0000
1100
0000
0100
0010
0001
0100
0010
0000
0110
0000
0100
0001
0010
0100
,  // measure 55
1000
0000
1100
0000
0100
1000
0010
0100
0001
0010
0100
1000
0001
0000
0001
0000
,  // measure 56
0100
0000
0100
0000
0010
0100
0001
0010
0100
0000
0110
0000
0100
0010
0001
0100
,  // measure 57
0010
0000
0110
0000
0100
0001
1000
0100
0010
0000
0110
0000
0010
0100
1000
0001
,  // measure 58
0100
0110
0100
0001
0010
0100
1000
0010
,  // measure 59
0100
0001
2000
3000
1001
0000
0002
0000
,  // measure 60
0023
0000
0000
0000
0130
0000
1000
0001
0100
0000
1000
0000
0200
0000
0302
0000
,  // measure 61
0023
0230
2300
3002
0203
0320
0230
0000
,  // measure 62
0302
0000
0023
0000
0000
0000
0000
0030
,  // measure 63
0110
0000
0000
0000
0100
1000
0010
1000
0100
0010
0001
0010
0100
1000
0001
0100
,  // measure 64
0001
0010
0100
1000
0010
0100
0001
1000
0100
0010
0100
1000
0010
0100
0001
0010
,  // measure 65
0100
1000
0001
0100
0010
1000
0010
1000
0001
0100
0001
0100
0001
0010
0100
1000
,  // measure 66
0010
0100
0001
1000
0020
0000
0000
0000
0000
0000
0000
0000
0000
0000
0000
0000
,  // measure 67
0000
2030
0000
3002
,  // measure 68
0000
0023
0000
0000
,  // measure 69
0032
0000
2003
0000
0000
3020
0000
0000
,  // measure 70
0230
0320
0000
0000
,  // measure 71
0000
0000
1030
0000
0001
0000
0010
0000
1000
0000
0010
0000
0001
0100
0010
0100
,  // measure 72
0001
0010
0100
0001
0200
0000
1300
0000
0010
0000
0100
0000
0001
0000
1000
0000
,  // measure 73
0100
0110
0100
1100
1000
1001
0001
0100
,  // measure 74
0010
0100
0001
0010
0100
2000
0000
3002
,  // measure 75
0000
0203
0000
0320
0000
0230
0000
0301
,  // measure 76
0010
0100
2000
0000
0000
0000
0000
0000
,  // measure 77
3000
0000
0000
0000
0001
0010
0100
1000
0010
0100
1000
0100
0001
0010
0100
0001
,  // measure 78
0100
1000
0010
0100
1000
0100
0010
1000
0001
0010
1000
0010
0001
0100
1000
0100
,  // measure 79
0001
0010
0100
1000
0001
0100
0010
1000
0001
0100
0010
1000
0100
0010
0001
1000
,  // measure 80
0100
0010
0100
1000
0000
0000
0000
0000
0000
0000
0000
0000
0000
0000
0000
0000
,  // measure 81
0000
2002
0000
0000
,  // measure 82
0000
0000
0000
0000
,  // measure 83
0000
3003
0000
0000
;
000
,  // measure 83
0000
3003
0000
0000
;
