#VERSION:0.83;
#TITLE:Chameleon;
#SUBTITLE:(Live from Tel Aviv, Israel, 2019);
#ARTIST:Michela;
#TITLETRANSLIT:;
#SUBTITLETRANSLIT:;
#ARTISTTRANSLIT:;
#GENRE:;
#CREDIT:;
#MUSIC:Chameleon (Live from Tel Aviv, Israel, 2019).ogg;
#BANNER:Chameleon (Live from Tel Aviv, Israel, 2019).png;
#BACKGROUND:Chameleon (Live from Tel Aviv, Israel, 2019)-bg.png;
#JACKET:Chameleon (Live from Tel Aviv, Israel, 2019)-jacket.png;
#DISCIMAGE:;
#CDIMAGE:;
#SELECTABLE:YES;
#LYRICSPATH:;
#CDTITLE:;
#SAMPLESTART:30.275;
#SAMPLELENGTH:19.613;
#OFFSET:-1.469;
#BPMS:0.000000=98.009000;
#STOPS:;
#WARPS:;
#DELAYS:;
#SPEEDS:0.000000=1.000000=0.000000=0;
#SCROLLS:0.000000=1.000000;
#TICKCOUNTS:;
#TIMESIGNATURES:0.000000=4=4;
#LABELS:;
#COMBOS:;
#FAKES:;
#BGCHANGES:;
#FGCHANGES:;
#ATTACKS:;
#KEYSOUNDS:;

//---------------dance-single - ---------------
#NOTEDATA:;
#CHARTNAME:;
#CHARTSTYLE:;
#CREDIT:;
#STEPSTYPE:dance-single;
#DESCRIPTION:;
#DIFFICULTY:Beginner;
#METER:3;
#METERF:3;
#RADARVALUES:0,0,0,0,0;
#NOTES:
// measure 0
0000
0000
0000
0000
,  // measure 1
0000
0000
0000
0000
,  // measure 2
0000
0000
0000
0000
,  // measure 3
0000
0000
0000
0000
,  // measure 4
1000
0000
0001
0000
,  // measure 5
0010
0000
0001
0000
,  // measure 6
1000
0000
0100
0000
,  // measure 7
1000
0000
0001
0000
,  // measure 8
1000
0000
0010
0000
,  // measure 9
1000
0000
0001
0000
,  // measure 10
0100
0000
0010
0000
,  // measure 11
1000
0000
0001
0000
,  // measure 12
2000
3000
1000
0000
,  // measure 13
0002
0003
0001
0000
,  // measure 14
0010
0020
0030
0000
,  // measure 15
0010
0020
0030
0000
,  // measure 16
2000
3000
1000
0000
,  // measure 17
0200
0300
0100
0000
,  // measure 18
0010
0020
0030
0000
,  // measure 19
0020
0000
0030
0100
,  // measure 20
0100
0100
0100
0000
,  // measure 21
0001
0001
0001
0000
,  // measure 22
1000
1000
1000
0000
,  // measure 23
0010
0010
0010
0000
,  // measure 24
1000
0000
1000
0000
,  // measure 25
0001
0000
0001
0000
,  // measure 26
0100
0000
0100
0000
,  // measure 27
0010
0010
0000
0000
,  // measure 28
0001
0000
1000
0000
,  // measure 29
0010
0000
0100
0000
,  // measure 30
0001
0000
1000
0000
,  // measure 31
0010
0010
0000
0000
,  // measure 32
2000
3000
1000
0000
,  // measure 33
0200
0300
0100
0000
,  // measure 34
0010
0020
0030
0000
,  // measure 35
0010
0020
0030
0000
,  // measure 36
0002
0003
0001
0000
,  // measure 37
0200
0300
0100
0000
,  // measure 38
0010
0020
0030
0000
,  // measure 39
0010
0020
0030
0000
,  // measure 40
1000
0000
0001
0000
,  // measure 41
0020
0000
0030
0000
,  // measure 42
0001
0000
1000
0000
,  // measure 43
0200
0000
0300
0000
,  // measure 44
1000
0000
0001
0000
,  // measure 45
0200
0300
0100
0000
,  // measure 46
0010
0020
0030
0000
,  // measure 47
0010
0020
0030
0000
,  // measure 48
0200
0300
0000
0000
;

//---------------dance-single - ---------------
#NOTEDATA:;
#CHARTNAME:;
#CHARTSTYLE:;
#CREDIT:;
#STEPSTYPE:dance-single;
#DESCRIPTION:;
#DIFFICULTY:Easy;
#METER:7;
#METERF:7;
#RADARVALUES:0,0,0,0,0;
#NOTES:
// measure 0
0000
0000
0000
0000
,  // measure 1
0000
0000
0000
0000
,  // measure 2
0000
0000
0000
0000
,  // measure 3
0000
0000
0000
0000
,  // measure 4
1000
0010
1000
0100
,  // measure 5
0010
0001
0100
0010
,  // measure 6
1000
0010
0100
0010
,  // measure 7
2000
3000
0002
0003
,  // measure 8
0100
0010
1000
0001
,  // measure 9
0010
0100
1000
0001
,  // measure 10
0100
0010
1000
0001
,  // measure 11
2000
3000
0002
0013
,  // measure 12
2000
0001
0001
3001
,  // measure 13
0200
0010
0010
0310
,  // measure 14
0002
0020
0033
0001
,  // measure 15
2000
0020
3030
0001
,  // measure 16
0020
0001
1000
0031
,  // measure 17
0200
1000
0001
1300
,  // measure 18
0020
1000
0001
1030
,  // measure 19
0020
0100
0130
0010
,  // measure 20
0100
0001
0100
0010
,  // measure 21
0100
1000
0100
0010
,  // measure 22
0100
0001
0100
0010
,  // measure 23
0110
1001
0220
0330
,  // measure 24
0010
0001
1000
0010
,  // measure 25
0010
1000
0001
0010
,  // measure 26
0100
1000
0001
0100
,  // measure 27
0010
0020
0000
0030
,  // measure 28
1000
0010
0100
0001
,  // measure 29
0010
0100
1000
0001
,  // measure 30
0100
0010
1000
0100
,  // measure 31
0010
0020
0000
0030
,  // measure 32
0002
0000
2003
0000
,  // measure 33
3200
0000
0320
0000
,  // measure 34
0032
0020
0033
0001
,  // measure 35
2000
0020
3030
0000
,  // measure 36
0002
1000
1000
1003
,  // measure 37
0200
0010
0010
0310
,  // measure 38
2000
0020
0000
3030
,  // measure 39
0220
0000
0000
0330
,  // measure 40
1001
0010
1001
0100
,  // measure 41
1001
0110
1001
0110
,  // measure 42
0101
0010
1100
0010
,  // measure 43
0002
2003
3200
0310
,  // measure 44
0011
1000
1100
0001
,  // measure 45
0101
0100
0010
1000
,  // measure 46
0001
0021
0130
1000
,  // measure 47
0010
1020
0130
1000
,  // measure 48
0200
0300
0000
0000
;

//---------------dance-single - ---------------
#NOTEDATA:;
#CHARTNAME:;
#CHARTSTYLE:;
#CREDIT:;
#STEPSTYPE:dance-single;
#DESCRIPTION:;
#DIFFICULTY:Medium;
#METER:11;
#METERF:11;
#RADARVALUES:0,0,0,0,0;
#NOTES:
// measure 0
0000
0000
0000
0000
,  // measure 1
0000
0000
0000
0000
,  // measure 2
0000
0000
0000
0000
,  // measure 3
0000
0000
0000
0000
,  // measure 4
2000
3100
0002
0103
,  // measure 5
2000
3010
0002
0013
,  // measure 6
2000
3100
0020
0130
,  // measure 7
0020
0032
2003
3200
,  // measure 8
2300
3010
0002
0013
,  // measure 9
2000
3001
0002
1003
,  // measure 10
2000
3100
0002
0103
,  // measure 11
2000
0000
3002
0000
0023
0000
0130
1000
,  // measure 12
0002
1000
0010
1003
,  // measure 13
0200
0001
1000
0301
,  // measure 14
1000
0010
0020
0000
0130
0000
1000
0000
,  // measure 15
0100
0010
0020
0000
0031
0000
0010
0000
,  // measure 16
0210
1300
0120
0031
,  // measure 17
0201
1300
1200
0301
,  // measure 18
1000
0010
0020
0000
0130
0000
0001
1000
,  // measure 19
0020
0000
0100
0000
0130
0000
0010
1000
,  // measure 20
0100
0010
0100
1000
0001
0100
0010
0000
,  // measure 21
0100
0001
0010
0100
1000
0001
0100
0000
,  // measure 22
0100
0010
1000
0001
0010
0100
1000
0000
,  // measure 23
1001
0110
0220
0330
,  // measure 24
1000
0010
0000
0010
0100
0010
0000
0010
,  // measure 25
1000
0010
0000
0010
0001
0010
0000
0010
,  // measure 26
1000
0100
0000
0100
0010
0100
0000
0100
,  // measure 27
1100
0220
0000
0330
,  // measure 28
0001
1000
0000
1000
0010
1000
0000
1000
,  // measure 29
0100
0010
0000
0010
0001
0010
0000
0010
,  // measure 30
0100
1000
0000
1000
0010
0100
0000
0100
,  // measure 31
0101
0000
0220
0000
0330
0000
1000
0010
,  // measure 32
0200
0000
0001
0000
1000
0000
0301
0010
,  // measure 33
0200
0000
1000
0000
0001
0000
1300
0001
,  // measure 34
0100
0010
0020
0000
1030
0000
0001
1000
,  // measure 35
0100
0010
0020
0000
0031
0000
0001
0010
,  // measure 36
0210
1300
1002
0103
,  // measure 37
0201
0310
2010
3100
,  // measure 38
1200
0010
0002
0003
1300
0000
1000
0010
,  // measure 39
0100
0010
0020
0000
1030
0000
1000
0010
,  // measure 40
0110
0100
0000
0100
0101
0100
0000
0100
,  // measure 41
1100
2000
0000
3100
0110
0010
0000
0010
,  // measure 42
0110
0100
0000
0100
1100
1000
0000
1000
,  // measure 43
1002
0000
0023
0000
2030
0000
3010
0100
,  // measure 44
2000
0000
3010
0100
0001
0010
0100
1000
,  // measure 45
0200
1000
0301
0000
1000
0010
0100
0010
,  // measure 46
1000
0001
0020
0000
0130
0000
0100
0010
,  // measure 47
0001
1000
0020
0000
0130
0000
0010
1000
,  // measure 48
0200
0000
0000
0300
0000
0000
0000
0000
0000
0000
0110
0000
;

//---------------dance-single - ---------------
#NOTEDATA:;
#CHARTNAME:;
#CHARTSTYLE:;
#CREDIT:;
#STEPSTYPE:dance-single;
#DESCRIPTION:;
#DIFFICULTY:Hard;
#METER:15;
#METERF:15;
#RADARVALUES:0,0,0,0,0;
#NOTES:
// measure 0
0000
0000
0000
0000
,  // measure 1
0000
0000
0000
0000
,  // measure 2
0000
0000
0000
0000
,  // measure 3
0000
0000
0000
0000
,  // measure 4
1000
0000
0001
0010
0100
0010
0001
1000
0200
0000
2300
0000
3002
0000
0203
0000
,  // measure 5
0310
0000
0100
0010
1000
0000
0001
0000
0200
0000
0310
0000
2000
0000
3010
0000
,  // measure 6
0100
0000
0001
0010
0100
1000
0001
0100
0020
0000
1030
0000
2000
0000
3001
0000
,  // measure 7
1001
0000
1000
0001
0010
0001
0100
0000
0101
0000
0001
0100
0010
0100
1000
0000
,  // measure 8
1000
0100
0000
0001
0100
0000
1001
0000
1000
0001
0000
0010
0100
0000
1100
0000
,  // measure 9
1000
0001
0000
0001
0100
0000
0101
0000
0100
0010
0000
0010
1000
0000
1010
0000
,  // measure 10
1000
0000
0001
0010
0100
1000
0010
0100
0002
0000
1003
0000
2000
0000
3001
0000
,  // measure 11
1001
0000
1000
0001
0010
0001
1000
0000
1001
0000
1000
0001
0200
0000
0320
0000
,  // measure 12
2030
0000
0001
0010
0100
0010
0001
3010
,  // measure 13
0200
0000
0000
0000
1300
0000
0000
0000
1000
0010
0000
0100
0010
0000
1000
0000
,  // measure 14
0001
0010
0020
0100
0130
0000
0100
0010
,  // measure 15
0001
1000
0020
0100
0130
0000
0100
0010
,  // measure 16
1020
0000
0001
1000
0100
0100
1000
0031
,  // measure 17
1000
0000
0001
0000
0100
0000
0001
0000
1000
0010
0000
0001
0010
0000
0100
0000
,  // measure 18
0001
0000
0000
0000
0000
0000
0010
0000
0000
0000
0000
0000
0020
0000
0000
0000
0000
0000
0000
0000
0000
0000
0000
0000
0130
0000
0000
0000
0000
0000
0000
0000
0000
0100
0000
0000
1000
0000
0000
0000
0001
0000
0000
0000
1000
0000
0000
0000
,  // measure 19
0020
0000
0000
0000
0000
0000
0000
0000
1030
0000
0000
0000
0020
0000
0000
0000
0000
0000
0000
0000
0031
0000
0000
0000
0020
0000
0000
0000
0000
0000
0000
0000
0000
1030
0000
0000
0010
0000
0000
1000
0000
0000
0001
0000
0000
1000
0000
0000
,  // measure 20
0100
0000
1000
0010
0100
0000
0101
0000
1100
0000
1000
0010
0100
0010
0001
0010
,  // measure 21
2000
0000
3001
0010
0100
0000
1100
0000
0101
0000
1000
0010
0100
0001
0010
0001
,  // measure 22
0200
0000
0301
1000
0100
0000
1000
0010
0100
0000
0001
0010
0100
0010
0001
1000
,  // measure 23
0100
0000
0000
0000
0010
0000
0000
0000
0010
0000
0000
0000
0001
0000
0000
0000
0010
0000
0000
0000
0010
0000
0000
0000
0220
0000
0000
0000
0000
0000
0000
0000
0000
0330
0000
0000
0000
0000
0000
1000
0000
0000
0000
0000
0000
1000
0000
0000
,  // measure 24
0010
0000
0100
0000
0000
0001
0000
0010
0001
0000
1000
0000
0000
1000
0000
0001
,  // measure 25
0010
0000
0001
0000
0000
0010
0000
0100
0010
0000
0001
0000
0000
1000
0000
0001
,  // measure 26
0200
0000
0000
0000
0300
0010
0000
1000
0200
0000
1300
0000
2000
0000
3001
0000
,  // measure 27
0001
0000
0000
0000
0010
0000
0000
0000
0010
0000
0000
0000
0220
0000
0000
0000
0330
0000
0000
0000
0000
2002
0000
0000
0000
0000
0000
0000
0000
0000
0000
0000
0000
0000
0000
0000
3003
0000
0000
1000
0000
0000
0000
0000
0000
1000
0000
0000
,  // measure 28
0010
0000
0100
0000
0000
0001
0000
0010
0100
0000
1000
0000
0000
1000
0000
0001
,  // measure 29
0100
0000
0010
0000
0000
0010
0000
0010
1000
0000
0001
0000
0000
0010
0000
0001
,  // measure 30
2000
0000
0000
0000
3000
0010
0000
0100
0002
0000
1003
0000
2000
0000
3001
0000
,  // measure 31
0001
0000
0100
0000
0010
0000
0220
0000
0000
0000
0000
0000
0330
0000
0000
0000
0000
0000
1000
0000
0000
0010
0000
0000
,  // measure 32
2100
0001
0100
0010
0100
0001
0010
3001
,  // measure 33
0200
1000
0001
0010
1000
0001
0010
1300
,  // measure 34
0001
0010
0020
0100
0130
0000
0100
1000
,  // measure 35
0001
0010
0020
0100
0130
0000
0100
0010
,  // measure 36
0021
1030
1200
0301
,  // measure 37
2100
3001
0201
1300
,  // measure 38
0100
0000
0001
0000
0020
0000
0100
0000
0130
0000
0000
0010
0100
0010
0001
0010
,  // measure 39
2000
0000
0010
0000
3010
0000
0100
0000
0100
0000
1000
0000
1001
1000
0000
0001
,  // measure 40
1001
0000
1010
0000
1000
0001
0010
0100
1000
0000
1100
0000
1000
0001
0100
0010
,  // measure 41
2000
0000
3020
0000
1000
0000
0100
0000
0001
0000
0100
0000
1030
0001
0000
1000
,  // measure 42
0200
0000
1300
0000
1000
0010
0100
0010
2000
0000
3200
0000
1000
0000
0301
0000
,  // measure 43
2000
0000
3002
0000
0203
0000
0301
0010
,  // measure 44
0110
0000
0100
1000
0010
0000
1010
0000
0101
0000
0011
0000
1100
0000
1001
0000
,  // measure 45
0101
0000
1100
0000
0101
0000
1001
0000
1000
0010
0000
0001
0010
0000
1010
0000
,  // measure 46
1001
0000
0011
0000
1020
0000
0100
0000
0130
0000
0000
1000
0010
0100
0010
0001
,  // measure 47
0010
0000
1000
0000
0020
0000
0100
0000
0130
0000
0000
0010
1000
0010
0001
0010
,  // measure 48
0200
0000
0000
0000
0000
0000
0000
0000
0000
0000
0000
0000
0300
0000
0000
0000
0000
0000
0000
0000
0000
0000
0000
0000
0000
0000
0000
1000
0000
0000
0000
0000
0010
0000
0000
0000
0010
0000
0000
0000
0110
0000
0000
0000
0000
0000
0000
0000
;
