
//----- song ID: nova -----//
#TITLE:Casanova (LONG);
#ARTIST:Gisela;
#BANNER:Casanova (LONG).png;
#BACKGROUND:Casanova (LONG)-bg.png;
#MUSIC:Casanova (LONG).mp3;
#OFFSET:-0.132;
#SAMPLESTART:45.0;
#SAMPLELENGTH:16.5;
#DISPLAYBPM:138;
#BPMS:0.000=138.000;
;

//---------------dance-single - D.U.S ----------------
#NOTES:
     dance-single:
     :
     Challenge:
     18:
     :
0000
0000
0000
0000
,
0000
0000
0000
0000
,
2000
0000
0000
3000
,
0002
0000
0000
0003
,
0200
0000
0000
0300
,
0110
0000
1000
0000
1001
0000
1000
0010
0100
0001
0010
0000
0001
1000
0001
1000
,
0002
0003
0001
0100
0020
0030
0010
1000
,
0100
0010
0001
0200
0300
0020
0030
1000
,
0200
0000
0001
0010
0001
0000
1300
0000
,
0001
0100
1001
0000
1000
0100
1001
0000
,
0200
0000
1300
0001
0020
0000
0031
1000
,
0100
0010
0001
0200
0300
0020
0030
1000
,
0002
0003
0100
0010
0000
1000
1001
0000
,
1001
0100
0010
0000
0110
1000
0001
0000
,
2000
3000
0100
0010
0002
0003
0100
0010
,
1000
0001
0100
0020
0030
2000
3000
0100
,
0020
0000
0001
0100
0001
0000
0130
0000
,
1000
0100
0110
0000
0001
0100
0110
0000
,
0200
0300
0010
1000
0200
0300
0010
0001
,
0100
0010
1000
0200
0300
0002
0003
0100
,
2000
3000
0010
1000
0000
0010
0001
0000
,
0001
0010
0110
0000
1000
0100
0110
0000
,
1100
0000
0101
0000
1001
0000
1000
0200
,
0300
0010
0001
1000
1001
0000
0110
0000
,
0002
0003
0200
0300
0020
0030
1000
0200
,
0000
0000
0300
1000
0002
0000
0000
0003
,
2000
3000
0200
0300
0002
0003
0200
0300
,
1000
0100
0010
0001
0100
0010
1000
0100
0001
0100
1000
0010
1000
0001
0100
0010
,
1000
0001
0100
0010
1000
0100
0001
0100
1000
0010
0100
0010
1000
0001
0100
0010
,
1000
0010
0100
0001
0010
0100
1000
0100
0010
1000
0010
0100
1000
0010
0100
0001
,
1000
0001
0100
0010
1000
0010
0100
0001
0010
0100
1000
0100
0010
0001
0100
0010
,
1000
0001
0100
0010
0001
0010
0100
0001
0010
0100
1000
0010
0100
0010
1000
0100
,
0001
0100
1000
0010
0100
0001
1000
0010
1000
0100
0001
0100
1000
0010
0100
0010
,
1000
0001
0100
1000
0100
0001
0010
0100
1000
0010
0100
1000
0100
0001
0010
0100
,
1000
0010
0100
0010
1000
0100
0010
0001
0100
0010
0100
0010
1000
0010
1000
0010
,
0001
0010
1000
0100
0010
0001
0100
0010
1000
0100
0001
0100
1000
0010
0001
0010
,
1000
0010
0100
0001
0010
0100
1000
0010
0100
0010
0001
0010
1000
0010
0100
0010
,
0100
0001
0010
0100
1000
0010
0100
1000
0100
0001
0010
0100
1000
0010
0100
0001
,
1000
0100
0010
0100
1000
0010
0100
0010
0100
0010
0001
0010
1000
0010
0100
0010
,
1000
0001
0010
0100
1000
0010
0100
0001
0010
0100
1000
0100
0010
0001
0100
0010
,
1000
0100
1000
0010
0100
0001
0010
0001
0100
0010
1000
0100
0001
0100
1000
0010
,
1000
0100
0001
0100
1000
0010
0001
0010
,
2000
3200
0320
0032
,
1003
1000
0010
0100
0001
0001
0010
0100
,
1000
0010
0100
0001
0001
0010
0100
1000
,
1000
0010
0100
0001
0010
0001
1001
0001
,
0100
0010
1000
0100
1000
0001
1001
1000
,
0010
0100
0001
0010
0100
1000
0010
0100
,
0001
0010
0001
0100
0010
1000
0100
1000
,
0010
1000
0100
0010
0001
0100
0010
1000
,
1001
1000
1010
0000
1001
1000
1100
0000
,
1001
0000
0110
0000
1001
0000
0001
0100
,
0000
0010
1000
0001
1001
0000
0110
0000
,
0010
1000
0010
0100
0001
0100
0010
1000
,
0100
0010
0001
1000
0010
0001
0010
1000
,
0200
0300
0002
0003
0200
0300
2000
3000
,
0010
1000
0100
0010
0001
0100
0010
1000
0001
0100
0010
0001
0010
0100
0001
0010
,
0100
1000
0010
0100
0001
0010
0100
0001
0100
0010
0001
0100
0010
1000
0100
0010
,
0001
0100
0010
1000
0100
0001
0100
1000
0010
0100
0001
0010
1000
0010
0001
0100
,
0010
0001
0010
0100
0001
0010
1000
0010
0001
0100
0010
1000
0100
0010
0001
0100
,
1000
0100
0010
1000
0100
0001
0100
1000
0010
0100
1000
0100
0001
0010
0100
1000
,
0010
0100
0001
0100
0010
1000
0100
1000
0010
0100
0001
1000
0010
1000
0100
0010
,
0001
0100
0010
1000
0001
0100
0010
1000
0100
0010
0001
1000
0100
0010
0001
1000
,
0010
0100
1000
0100
0010
0001
0010
1000
0010
0100
0001
0010
0100
1000
0010
0100
,
0001
1000
0010
0100
0010
1000
0100
0010
1000
0010
0100
1000
0010
0100
0001
1000
,
0010
0100
0001
0100
1000
0100
0001
0100
0010
1000
0100
0010
1000
0010
0100
1000
,
0010
0100
0001
1000
0010
0100
0001
0010
0100
1000
0001
0100
0010
0001
0010
0100
,
0001
0010
0100
0010
0001
0100
0010
1000
0100
0001
0100
1000
0010
0100
0001
0010
,
0100
1000
0010
0100
0001
0010
0001
0100
0010
1000
0100
1000
0010
0100
0001
0010
,
0100
1000
0010
0100
0001
0010
0100
1000
0010
0100
1000
0100
0010
1000
0100
0010
,
0001
0010
0100
1000
0100
0010
0001
0010
,
0002
0000
0203
0000
0320
0000
2030
0000
,
3001
0000
0000
1000
0100
0010
0000
0001
,
0000
0100
0000
0010
0000
2000
0000
3000
,
0002
0003
0100
0020
0000
0000
0000
0030
,
2000
3000
0020
0030
0200
0300
0002
0003
,
2000
0000
3000
0010
0010
0100
0000
0001
,
0000
1000
0000
0010
0000
0200
0000
0000
,
0002
0000
0000
0000
0000
0000
0303
0000
,
2000
3000
0020
0030
0002
0003
0020
0030
,
1000
0100
0010
0001
0100
0010
1000
0100
0001
0100
1000
0010
1000
0001
0100
0010
,
1000
0001
0100
0010
1000
0100
0001
0100
1000
0010
0100
0010
1000
0001
0100
0010
,
1000
0010
0100
0001
0010
0100
1000
0100
0010
1000
0010
0100
1000
0010
0100
0001
,
1000
0001
0100
0010
1000
0010
0100
0001
0010
0100
1000
0100
0010
0001
0100
0010
,
1000
0001
0100
0010
0001
0010
0100
0001
0010
0100
1000
0010
0100
0010
1000
0100
,
0001
0100
1000
0010
0100
0001
1000
0010
1000
0100
0001
0100
1000
0010
0100
0010
,
1000
0001
0100
1000
0100
0001
0010
0100
1000
0010
0100
1000
0100
0001
0010
0100
,
1000
0010
0100
0010
1000
0100
0010
0001
0100
0010
0100
0010
1000
0010
1000
0010
,
1000
0001
0010
0100
1000
0010
0001
0010
1000
0100
1000
0010
0100
0001
1000
1000
,
0010
0100
0001
0100
1000
0100
0001
0100
0010
1000
0100
0010
1000
0010
0100
1000
,
0010
0100
0001
1000
0010
0100
0001
0010
0100
1000
0001
0100
0010
0001
0010
0100
,
0001
0010
0100
0010
0001
0100
0010
1000
0100
0001
0100
1000
0010
0100
0001
0010
,
0100
1000
0010
0100
0001
0010
0001
0100
0010
1000
0100
1000
0010
0100
0001
0010
,
0100
1000
0010
0100
0001
0010
0100
1000
0010
0100
1000
0100
0010
1000
0100
0010
,
0001
0010
0100
1000
0100
0010
0001
0010
,
0002
0000
0203
0000
0320
0000
2030
0000
,
3001
1000
0001
1000
0001
1000
2002
0000
0000
0000
0000
0000
3003
0000
0000
0000
,
1100
0022
0000
0000
0000
0000
0000
0000
,
0033
0000
0000
0000
;
