#TITLE:Birichino;
#SUBTITLE:;
#ARTIST:Demis Mirarchi;
#MUSIC:Birichino.mp3;
#BANNER:Birichino.png;
#BACKGROUND:Birichino-bg.png;
#LYRICSPATH:;
#CDTITLE:;
#SAMPLESTART:39.933;
#SAMPLELENGTH:16.067;
#BPMS:0.000000=120.000000,
32.000000=60.000000,
56.000000=120.000000
;
#STOPS:;
#TIMESIGNATURES:;
#BGCHANGES:;
#FGCHANGES:;
#ATTACKS:;
#SPEEDS:;
#SCROLLS:;
#DISPLAYBPM:60-120;

//---------------dance-single - ---------------
#NOTES:
     dance-single:
     :
     Beginner:
     5:
     :
// measure 0
0000
0000
0000
0000
,  // measure 1
0000
0000
0000
0000
,  // measure 2
0000
0000
0000
0000
,  // measure 3
0000
0000
0000
0000
,  // measure 4
1000
0000
1000
0000
,  // measure 5
0001
0001
0001
0000
,  // measure 6
1000
0000
1000
0000
,  // measure 7
0001
0001
0001
0000
,  // measure 8
0100
0000
0100
0000
,  // measure 9
0010
0000
0010
0000
,  // measure 10
1000
0000
1000
0000
,  // measure 11
0001
0000
0001
0000
,  // measure 12
1000
0000
1000
0000
,  // measure 13
0100
0000
0100
0000
,  // measure 14
0010
0010
0010
0000
,  // measure 15
0100
0100
0100
0000
,  // measure 16
0010
0010
0010
0000
,  // measure 17
0001
0001
0001
0000
,  // measure 18
0010
0010
0010
0000
,  // measure 19
0100
0100
0100
0000
,  // measure 20
0010
0010
0010
0000
,  // measure 21
1000
1000
1000
0000
,  // measure 22
0001
0000
0001
0000
,  // measure 23
1000
0000
1000
0000
,  // measure 24
0010
0000
0010
0000
,  // measure 25
1000
0000
1000
0000
,  // measure 26
0001
0000
0001
0000
,  // measure 27
0100
0000
0100
0000
,  // measure 28
0010
0000
0010
0000
,  // measure 29
0100
0000
0100
0000
,  // measure 30
0001
0001
0001
0000
,  // measure 31
0100
0100
0100
0000
,  // measure 32
1000
1000
1000
0000
,  // measure 33
0100
0100
0100
0000
,  // measure 34
0001
0001
0001
0000
,  // measure 35
0010
0010
0010
0000
,  // measure 36
1000
1000
1000
0000
,  // measure 37
0010
0010
0010
0000
,  // measure 38
1001
1001
1001
0000
,  // measure 39
1001
1001
1001
0000
,  // measure 40
0110
0110
0110
0000
,  // measure 41
0110
0110
0110
0000
,  // measure 42
1000
0000
0001
0000
,  // measure 43
0100
0000
0010
0000
,  // measure 44
0110
0000
0110
0000
,  // measure 45
1001
1001
1001
1001
;

//---------------dance-single - ---------------
#NOTES:
     dance-single:
     :
     Easy:
     9:
     0,0,0,0,0:
// measure 0
0000
0000
0000
0000
,  // measure 1
0000
0000
0000
0000
,  // measure 2
0000
0000
0000
0000
,  // measure 3
0000
0000
0000
0000
,  // measure 4
1000
1100
0001
0101
,  // measure 5
1000
1100
1001
0101
,  // measure 6
0001
0101
1000
1100
,  // measure 7
0001
0101
1001
1100
,  // measure 8
1000
1001
0001
0101
,  // measure 9
0010
0110
0100
1100
,  // measure 10
1000
1010
0010
0110
,  // measure 11
0100
0101
0001
0011
,  // measure 12
0010
0011
0001
0101
,  // measure 13
0100
0110
0010
1010
,  // measure 14
1000
1100
0001
0101
,  // measure 15
1000
1010
1100
1010
,  // measure 16
0001
0101
1000
1100
,  // measure 17
0001
0011
0101
0011
,  // measure 18
0010
0110
1000
1100
,  // measure 19
0010
0110
0011
0110
,  // measure 20
0100
1100
0010
1010
,  // measure 21
0100
0011
1010
0011
,  // measure 22
0010
0010
0100
0010
,  // measure 23
1000
0100
0010
0001
,  // measure 24
0010
0001
0100
0100
,  // measure 25
0010
1000
0010
0001
,  // measure 26
1000
1000
0010
0010
,  // measure 27
0010
0100
0010
1000
,  // measure 28
0100
0100
1000
0010
,  // measure 29
1000
0001
1000
1001
,  // measure 30
0011
0011
0100
0010
,  // measure 31
1000
0100
0010
0011
,  // measure 32
0010
0100
1000
0100
,  // measure 33
0010
0001
1000
1001
,  // measure 34
1000
0010
0100
0100
,  // measure 35
0001
0010
0010
0110
,  // measure 36
0100
0100
1000
0010
,  // measure 37
0010
1000
0001
0101
,  // measure 38
0100
0110
0010
1010
,  // measure 39
1000
1001
0001
0101
,  // measure 40
0100
0110
0010
1010
,  // measure 41
1000
1100
0100
0110
,  // measure 42
0010
0110
0100
1100
,  // measure 43
1000
1010
0010
0011
,  // measure 44
0010
0110
0100
0101
,  // measure 45
0001
1001
1000
1001
;

//---------------dance-single - ---------------
#NOTES:
     dance-single:
     :
     Medium:
     11:
     0,0,0,0,0:
// measure 0
0000
0000
0000
0000
,  // measure 1
0000
0000
0000
0000
,  // measure 2
0000
0000
0000
0000
,  // measure 3
0000
0000
0000
0000
,  // measure 4
1000
1001
0001
1001
,  // measure 5
1000
1100
0101
1100
,  // measure 6
1000
1010
0010
0110
,  // measure 7
0101
1100
0101
1100
,  // measure 8
0101
0000
0000
0000
0000
0001
1000
0000
0000
0000
0000
0000
1001
0000
0000
0000
0000
1000
0001
0000
0000
0000
0000
0000
,  // measure 9
0011
0000
0000
0000
0000
0010
0001
0000
0000
0000
0000
0000
0101
0000
0000
0000
0000
0000
1001
0000
0000
0000
0000
0000
,  // measure 10
1010
0000
0000
0000
0000
0010
1000
0000
0000
0000
0000
0000
1100
0000
0000
0000
0000
0100
1000
0000
0000
0000
0000
0000
,  // measure 11
0110
0000
0000
0000
0000
0100
0010
0000
0000
0000
0000
0000
0011
0000
0000
0000
0000
0001
0010
0000
0000
0000
0000
0000
,  // measure 12
0110
0000
0000
0000
0000
0010
0100
0000
0000
0000
0000
0000
1100
0000
0000
0000
0000
0100
1000
0000
0000
0000
0000
0000
,  // measure 13
1001
0000
0000
0000
0000
1000
0001
0000
0000
0000
0000
0000
0011
0000
0000
0000
0000
0010
0100
0000
0000
0000
0000
0000
,  // measure 14
0010
0011
0100
0110
,  // measure 15
1000
1100
1010
1001
,  // measure 16
0010
0110
0100
1100
,  // measure 17
1000
1001
0001
1001
,  // measure 18
1000
1010
0010
0110
,  // measure 19
0010
1010
1000
1001
,  // measure 20
0100
0101
0010
0110
,  // measure 21
0010
0011
0001
1001
,  // measure 22
0011
0011
0101
0101
,  // measure 23
1010
1010
1001
1001
,  // measure 24
1010
1010
1100
1100
,  // measure 25
1001
1001
0011
0011
,  // measure 26
1001
1001
0110
0110
,  // measure 27
1010
1010
1001
1001
,  // measure 28
0101
0101
0110
0110
,  // measure 29
1010
1010
1001
1001
,  // measure 30
0010
0011
0100
0110
,  // measure 31
1000
1010
1100
0101
,  // measure 32
0010
0011
1000
1010
,  // measure 33
0100
0101
1010
0101
,  // measure 34
1000
1010
0100
0101
,  // measure 35
0001
0011
1100
0011
,  // measure 36
0100
0101
0010
1010
,  // measure 37
0010
0110
0101
0110
,  // measure 38
1000
1010
0100
0101
,  // measure 39
0010
0110
0011
0110
,  // measure 40
1000
1100
0010
0110
,  // measure 41
0010
1010
0101
1010
,  // measure 42
0100
1100
0010
0011
,  // measure 43
0001
0101
1010
0101
,  // measure 44
0010
0110
0010
0011
,  // measure 45
0001
0000
0000
1001
0000
0000
1001
0000
1000
0001
1000
1001
;

//---------------dance-single - ---------------
#NOTES:
     dance-single:
     :
     Hard:
     14:
     0,0,0,0,0:
// measure 0
0000
0000
0000
0000
,  // measure 1
0000
0000
0000
0000
,  // measure 2
0000
0000
0000
0000
,  // measure 3
0000
0000
0000
0000
,  // measure 4
0001
0000
0000
0000
0000
0000
0000
0000
0000
0000
0000
0000
0000
0000
0000
0000
0000
0000
0000
0000
0000
0000
0000
0000
0000
0000
0000
0000
0000
0000
0000
0000
0000
0000
0000
0000
0000
0000
0000
0000
0000
0000
0000
0000
0000
0000
0000
0001
1000
0000
0000
0000
0000
0000
0000
0000
0000
0000
0000
0000
0000
0000
0000
0000
0000
0000
0000
0000
0000
0000
0000
0000
0000
0000
0000
0000
0000
0000
0000
0000
0000
0000
0000
0000
0000
0000
0000
0000
0000
0000
0000
0000
0000
0000
0000
0000
1000
0000
0000
0000
0000
0000
0000
0000
0000
0000
0000
0000
0000
0000
0000
0000
0000
0000
0000
0000
0000
0000
0000
0000
0000
0000
0000
0000
0000
0000
0000
0000
0000
0000
0000
0000
0000
0000
0000
0000
0000
0000
0000
0000
0000
0000
0000
1000
0001
0000
0000
0000
0000
0000
0000
0000
0000
0000
0000
0000
0000
0000
0000
0000
0000
0000
0000
0000
0000
0000
0000
0000
0000
0000
0000
0000
0000
0000
0000
0000
0000
0000
0000
0000
0000
0000
0000
0000
0000
0000
0000
0000
0000
0000
0000
0000
,  // measure 5
0001
0011
0110
1100
,  // measure 6
1000
0000
0000
0000
0000
0000
0000
0000
0000
0000
0000
0000
0000
0000
0000
0000
0000
0000
0000
0000
0000
0000
0000
0000
0000
0000
0000
0000
0000
0000
0000
0000
0000
0000
0000
0000
0000
0000
0000
0000
0000
0000
0000
0000
0000
0000
0000
1000
0010
0000
0000
0000
0000
0000
0000
0000
0000
0000
0000
0000
0000
0000
0000
0000
0000
0000
0000
0000
0000
0000
0000
0000
0000
0000
0000
0000
0000
0000
0000
0000
0000
0000
0000
0000
0000
0000
0000
0000
0000
0000
0000
0000
0000
0000
0000
0000
0001
0000
0000
0000
0000
0000
0000
0000
0000
0000
0000
0000
0000
0000
0000
0000
0000
0000
0000
0000
0000
0000
0000
0000
0000
0000
0000
0000
0000
0000
0000
0000
0000
0000
0000
0000
0000
0000
0000
0000
0000
0000
0000
0000
0000
0000
0000
0001
0010
0000
0000
0000
0000
0000
0000
0000
0000
0000
0000
0000
0000
0000
0000
0000
0000
0000
0000
0000
0000
0000
0000
0000
0000
0000
0000
0000
0000
0000
0000
0000
0000
0000
0000
0000
0000
0000
0000
0000
0000
0000
0000
0000
0000
0000
0000
0000
,  // measure 7
1000
1010
0110
0101
,  // measure 8
1000
0000
0100
0010
0000
1000
0000
0000
0010
0100
0000
0100
0100
0000
1000
0010
0000
0020
0000
0000
0130
0001
0000
0001
,  // measure 9
0100
0000
0010
1000
0000
0020
0000
0000
1030
0100
0000
0000
0110
0000
0000
0010
0000
0000
0011
0000
0000
0001
0000
0000
,  // measure 10
0001
0000
0100
0010
0000
1000
0000
0000
0001
1000
0000
0100
0010
0000
0100
1000
0000
0010
0000
0000
0100
0001
0000
0100
,  // measure 11
0010
0000
1000
0100
0000
0020
0000
0000
1030
0010
0000
0000
0110
0000
0000
1000
0000
0000
1010
0000
0000
0010
0000
0000
,  // measure 12
0110
0000
0100
0001
0000
0010
0000
0000
0100
0010
0000
0100
1000
0000
0010
0100
0000
0010
1000
0000
0000
0010
0000
1000
,  // measure 13
0001
0000
0010
0100
0000
0010
0001
0000
1000
0010
0000
0000
1010
0000
0000
1000
0000
0000
0001
1000
0010
0100
0010
1000
,  // measure 14
0001
0000
1000
1001
0000
0000
0010
0000
0100
0110
0000
0000
,  // measure 15
0001
0010
0000
0110
0000
0000
0011
0000
0000
0001
0010
0100
,  // measure 16
1000
0000
1000
1010
0000
0000
0100
0000
0100
0101
0000
0000
,  // measure 17
0001
0010
0000
0110
0000
0000
0010
0001
0100
0010
1000
0100
,  // measure 18
0010
0000
0010
0011
0000
0000
1000
0000
1000
1001
0000
0000
,  // measure 19
1000
0010
0000
1010
0000
0000
0011
0000
0000
1000
0010
0100
,  // measure 20
0001
0000
0001
0101
0000
0000
1000
0000
1000
1010
0000
0000
,  // measure 21
0001
0000
0000
0101
0000
0000
1000
0100
0010
0001
0010
0010
,  // measure 22
0011
0011
1100
0110
,  // measure 23
1001
0110
1001
0110
,  // measure 24
0011
1100
1010
0101
,  // measure 25
0011
1010
0110
0011
,  // measure 26
1001
1010
1001
0011
,  // measure 27
1001
1100
1001
0101
,  // measure 28
1100
1100
0101
0101
,  // measure 29
1001
0110
1001
0110
,  // measure 30
1000
0000
1000
1010
0000
0000
0100
0000
0100
0101
0000
0000
,  // measure 31
0001
0010
0000
0110
0000
0000
1001
0000
0000
1000
0010
0100
,  // measure 32
0001
0000
0001
0011
0000
0000
0100
0000
0100
1100
0000
0000
,  // measure 33
1000
0010
0000
1010
0000
0000
0001
0010
0100
1000
0010
0100
,  // measure 34
0001
0000
0001
0101
0000
0000
1000
0000
1000
1010
0000
0000
,  // measure 35
1000
0001
0000
1001
0000
0000
0110
0000
0000
0001
1000
0100
,  // measure 36
0010
0000
0010
0011
0000
0000
0001
0000
0001
0101
0000
0000
,  // measure 37
1001
0000
0000
1100
0000
0000
1000
0010
0100
0001
0010
0010
,  // measure 38
0001
0000
0000
0000
0000
0000
0000
0000
0000
0000
0000
0000
0000
0000
0000
0000
0000
0000
0000
0000
0000
0000
0000
0000
0000
0000
0000
0000
0000
0000
0000
0000
0001
0000
0000
0000
0000
0000
0000
0000
0000
0000
0000
0000
0000
0000
0000
0000
0101
0000
0000
0000
0000
0000
0000
0000
0000
0000
0000
0000
0000
0000
0000
0000
0000
0000
0000
0000
0000
0000
0000
0000
0000
0000
0000
0000
0000
0000
0000
0000
0000
0000
0000
0000
0000
0000
0000
0000
0000
0000
0000
0000
0000
0000
0000
0000
1000
0000
0000
0000
0000
0000
0000
0000
0000
0000
0000
0000
0000
0000
0000
0000
0000
0000
0000
0000
0000
0000
0000
0000
0000
0000
0000
0000
0000
0000
0000
0000
1000
0000
0000
0000
0000
0000
0000
0000
0000
0000
0000
0000
0000
0000
0000
1000
0100
0000
0000
0000
0000
0000
0000
0000
0000
0000
0000
0000
0000
0000
0000
0000
0000
0000
0000
0000
0000
0000
0000
0000
0000
0000
0000
0000
0000
0000
0000
0000
0000
0000
0000
0000
0000
0000
0000
0000
0000
0000
0000
0000
0000
0000
0000
0000
,  // measure 39
0001
0010
0000
0110
0000
0000
1001
0000
0000
1010
0010
0100
,  // measure 40
0001
0000
0001
0011
0000
0000
1000
0000
1000
1010
0000
0000
,  // measure 41
0100
0010
0000
0110
0000
0000
1000
0010
0100
0001
0010
0100
,  // measure 42
1000
0000
1000
1010
0000
0000
0100
0000
0100
0110
0000
0000
,  // measure 43
0010
0001
0000
0011
0000
0000
1100
0000
0000
1000
0100
0010
,  // measure 44
0001
0000
0001
0011
0000
0000
0100
0000
0100
1100
0000
0000
,  // measure 45
1000
0010
0000
0110
0000
0000
1000
0100
0010
0001
0010
0110
;
