#VERSION:0.83;
#TITLE:BOOM BOOM DISCO NIGHT;
#SUBTITLE:;
#ARTIST:Y&Co.;
#TITLETRANSLIT:;
#SUBTITLETRANSLIT:;
#ARTISTTRANSLIT:;
#GENRE:;
#CREDIT:;
#ORIGIN:;
#MUSIC:BOOM BOOM DISCO NIGHT.ogg;
#BANNER:BOOM BOOM DISCO NIGHT.png;
#BACKGROUND:BOOM BOOM DISCO NIGHT-bg.png;
#JACKET:BOOM BOOM DISCO NIGHT-jacket.png;
#DISCIMAGE:;
#CDIMAGE:;
#SELECTABLE:YES;
#LYRICSPATH:;
#CDTITLE:;
#SAMPLESTART:50.371;
#SAMPLELENGTH:15.484000000000002;
#OFFSET:-0.809;
#BPMS:0.000000=155.000000;
#STOPS:;
#WARPS:;
#DELAYS:;
#SPEEDS:0.000000=1.000000=0.000000=0;
#SCROLLS:0.000000=1.000000;
#TICKCOUNTS:;
#TIMESIGNATURES:0.000000=4=4;
#LABELS:;
#COMBOS:;
#FAKES:;
#BGCHANGES:;
#FGCHANGES:;
#ATTACKS:;
#KEYSOUNDS:;

//---------------dance-single - ---------------
#NOTEDATA:;
#CHARTNAME:;
#CHARTSTYLE:;
#CREDIT:;
#STEPSTYPE:dance-single;
#DESCRIPTION:;
#DIFFICULTY:Beginner;
#METER:4;
#METERF:4;
#RADARVALUES:0,0,0,0,0;
#NOTES:
// measure 0
0000
0000
0000
0000
,  // measure 1
0000
0000
0000
0000
,  // measure 2
0000
0000
0000
0000
,  // measure 3
0000
0000
0000
0000
,  // measure 4
1000
0000
1000
0000
,  // measure 5
0001
0000
0001
0000
,  // measure 6
0010
0000
0010
0000
,  // measure 7
0220
0000
0330
0000
,  // measure 8
1000
1000
1000
0000
,  // measure 9
0001
0001
0001
0000
,  // measure 10
0010
0010
0010
0000
,  // measure 11
0100
0100
0100
0000
,  // measure 12
1000
1000
1000
0000
,  // measure 13
0010
0010
0010
0000
,  // measure 14
0100
0100
0100
0000
,  // measure 15
0010
0010
0010
0000
,  // measure 16
1000
0000
1000
0000
,  // measure 17
0001
0000
0001
0000
,  // measure 18
0010
0000
0010
0000
,  // measure 19
0001
0000
0001
0000
,  // measure 20
0100
0000
0100
0000
,  // measure 21
0010
0000
0010
0000
,  // measure 22
1000
0000
1000
0000
,  // measure 23
0100
0000
0100
0000
,  // measure 24
0010
0010
0010
0000
,  // measure 25
0001
0000
0001
0000
,  // measure 26
0100
0100
0100
0000
,  // measure 27
0010
0000
0010
0000
,  // measure 28
1000
1000
1000
0000
,  // measure 29
0100
0000
0100
0000
,  // measure 30
1000
1000
1000
0000
,  // measure 31
2002
0000
3003
0000
,  // measure 32
1000
1000
1000
0000
,  // measure 33
0010
0010
0010
0000
,  // measure 34
0100
0100
0100
0000
,  // measure 35
0010
0010
0010
0000
,  // measure 36
1000
1000
1000
0000
,  // measure 37
0010
0010
0010
0000
,  // measure 38
0001
0000
0001
0000
,  // measure 39
0010
0000
0010
0000
,  // measure 40
0200
0000
0300
0000
,  // measure 41
0220
0330
0000
0110
,  // measure 42
0100
0100
0100
0000
,  // measure 43
0001
0001
0001
0000
,  // measure 44
1000
1000
1000
0000
,  // measure 45
0010
0010
0010
0000
,  // measure 46
0100
0100
0100
0000
,  // measure 47
0001
0001
0001
0000
,  // measure 48
1000
1000
1000
0000
,  // measure 49
0010
0010
0010
0000
,  // measure 50
1000
1000
1000
0000
,  // measure 51
0001
0001
0001
0000
,  // measure 52
0100
0100
0100
0000
,  // measure 53
0010
0010
0010
0000
,  // measure 54
1000
1000
1000
0000
,  // measure 55
0001
0000
0001
0000
,  // measure 56
0100
0100
0100
0000
,  // measure 57
0220
0330
0000
0110
,  // measure 58
0100
0100
0100
0000
,  // measure 59
0010
0010
0010
0000
,  // measure 60
1000
1000
1000
0000
,  // measure 61
0001
0001
0001
0000
,  // measure 62
0100
0100
0100
0000
,  // measure 63
0010
0010
0010
0000
,  // measure 64
1000
0000
1000
0000
,  // measure 65
0001
0001
0001
0000
,  // measure 66
0020
0000
0030
0000
,  // measure 67
0220
0330
0000
0110
,  // measure 68
0100
0100
0100
0000
,  // measure 69
1000
1000
1000
0000
,  // measure 70
0001
0001
0001
0000
,  // measure 71
0100
0100
0100
0000
,  // measure 72
0010
0010
0010
0000
,  // measure 73
1000
1000
1000
0000
,  // measure 74
0001
0001
0001
0000
,  // measure 75
0010
0010
0010
0000
,  // measure 76
0110
0000
0000
0000
;

//---------------dance-single - ---------------
#NOTEDATA:;
#CHARTNAME:;
#CHARTSTYLE:;
#CREDIT:;
#STEPSTYPE:dance-single;
#DESCRIPTION:;
#DIFFICULTY:Easy;
#METER:8;
#METERF:8;
#RADARVALUES:0,0,0,0,0;
#NOTES:
// measure 0
0000
0000
0000
0000
,  // measure 1
0000
0000
0000
0000
,  // measure 2
0000
0000
0000
0000
,  // measure 3
0000
0000
0000
0000
,  // measure 4
1000
0010
0100
0010
,  // measure 5
1000
0001
0010
0100
,  // measure 6
0010
0001
0100
0010
,  // measure 7
2020
0000
3030
1010
,  // measure 8
1100
0100
0010
0001
,  // measure 9
0011
1100
1010
0101
,  // measure 10
0001
0010
0100
1000
,  // measure 11
1010
0101
0011
1100
,  // measure 12
0100
0010
0001
0100
,  // measure 13
1010
0101
0011
1100
,  // measure 14
1000
0010
0001
0010
,  // measure 15
0200
0302
0023
0230
,  // measure 16
1300
0010
0100
0010
,  // measure 17
1000
0100
0010
0100
,  // measure 18
1000
0001
0100
1000
,  // measure 19
0200
0320
2030
3001
,  // measure 20
0010
1000
0010
0100
,  // measure 21
1000
0010
0100
0010
,  // measure 22
1000
0001
0100
0010
,  // measure 23
1001
1001
0110
0110
,  // measure 24
0010
0100
0001
0010
,  // measure 25
1000
0010
0100
1000
,  // measure 26
0010
0100
0001
0010
,  // measure 27
0100
0010
0001
0010
,  // measure 28
0100
1000
0001
0100
,  // measure 29
0010
1000
0001
0010
,  // measure 30
1000
0010
0100
2000
,  // measure 31
0002
0000
0000
3003
,  // measure 32
1001
1001
1000
0010
,  // measure 33
0110
1001
0110
1001
,  // measure 34
1100
0011
0001
0100
,  // measure 35
0011
1010
0011
0101
,  // measure 36
1000
0100
0001
0100
,  // measure 37
1000
0010
0001
0010
,  // measure 38
0100
0010
1000
0010
,  // measure 39
0100
0001
0010
0200
,  // measure 40
2000
0000
0000
3300
,  // measure 41
1000
0100
0010
0110
,  // measure 42
0100
1000
0010
0100
,  // measure 43
0001
1000
0100
1000
,  // measure 44
0010
0100
0001
0010
,  // measure 45
1000
0010
0001
0100
,  // measure 46
1000
0100
0010
1000
,  // measure 47
0001
0010
0100
0010
,  // measure 48
0001
1000
0010
0100
,  // measure 49
1000
0100
0001
1000
,  // measure 50
1100
1100
1000
0001
,  // measure 51
0101
0101
0001
0100
,  // measure 52
0110
0110
0100
1000
,  // measure 53
1010
1010
0101
1010
,  // measure 54
1100
1100
1000
0010
,  // measure 55
0110
0110
0100
0001
,  // measure 56
0101
0101
1010
1010
,  // measure 57
2002
0000
3003
0110
,  // measure 58
0101
0101
0001
0010
,  // measure 59
0011
1010
0011
0101
,  // measure 60
1001
1001
1000
0100
,  // measure 61
0011
1010
0011
0101
,  // measure 62
0001
0100
1000
0100
,  // measure 63
0001
0010
1000
0010
,  // measure 64
0100
1000
0010
0100
,  // measure 65
0001
0010
0100
2000
,  // measure 66
0002
0000
0000
3003
,  // measure 67
1000
0100
0010
0110
,  // measure 68
0100
1000
0010
0100
,  // measure 69
0101
0011
1100
1010
,  // measure 70
1000
0001
0010
0100
,  // measure 71
1100
1001
0101
1001
,  // measure 72
1000
0010
0100
0001
,  // measure 73
0011
1100
1010
0101
,  // measure 74
0100
0010
1000
0010
,  // measure 75
0100
0001
0010
0100
,  // measure 76
1001
0000
0000
0000
;

//---------------dance-single - ---------------
#NOTEDATA:;
#CHARTNAME:;
#CHARTSTYLE:;
#CREDIT:;
#STEPSTYPE:dance-single;
#DESCRIPTION:;
#DIFFICULTY:Medium;
#METER:11;
#METERF:11;
#RADARVALUES:0,0,0,0,0;
#NOTES:
// measure 0
0000
0000
0000
0000
,  // measure 1
0000
0000
0000
0000
,  // measure 2
0000
0000
0000
0000
,  // measure 3
0000
0000
0000
0000
,  // measure 4
1000
0000
0001
0000
0100
0001
1000
0000
,  // measure 5
0100
0000
1000
0000
0010
0100
0001
0000
,  // measure 6
1000
1000
0100
0100
0010
0010
0001
0000
,  // measure 7
2002
0000
0000
3003
,  // measure 8
1000
0000
0010
0000
0100
0010
1000
0000
,  // measure 9
0001
0000
0100
0000
0001
0100
0010
0000
,  // measure 10
1000
0000
0100
0000
0001
0100
1000
0000
,  // measure 11
0010
0000
0100
0000
1000
0100
0001
0000
,  // measure 12
0010
0000
0100
0000
1000
0010
0100
0000
,  // measure 13
0001
0000
0010
0000
0100
1000
0001
0000
,  // measure 14
0100
0010
1000
0000
0100
0010
0001
0000
,  // measure 15
2000
0001
0010
3010
,  // measure 16
0001
0000
0100
0000
0010
0100
0000
0110
,  // measure 17
0000
0100
0010
0000
1000
0010
0100
0000
,  // measure 18
0001
0000
0010
0000
0100
0010
0001
0000
,  // measure 19
2000
3020
0032
0023
,  // measure 20
1030
0000
0100
0000
0001
0100
0000
1100
,  // measure 21
0000
0100
0000
1000
0010
0000
0100
0000
,  // measure 22
0001
0000
0010
0000
0100
0010
0000
0001
,  // measure 23
0000
0001
1000
0001
1000
0001
1000
0001
,  // measure 24
1000
0000
0100
0000
1000
0010
0100
0000
,  // measure 25
0001
0000
0010
0000
0001
0100
0010
0000
,  // measure 26
1000
0000
0001
0000
0010
0001
1000
0000
,  // measure 27
0100
0000
1000
0000
0010
0100
1000
0000
,  // measure 28
0100
0000
0001
0000
1000
0100
0001
0000
,  // measure 29
0100
0000
0000
1000
0000
0000
0001
0000
0100
0000
0000
0010
0000
0000
0100
0000
,  // measure 30
0001
0000
1000
0000
1010
0000
1000
0020
,  // measure 31
0200
0000
0000
0330
,  // measure 32
0110
1001
1000
0010
,  // measure 33
0001
0010
1000
0010
0001
0000
0110
0000
,  // measure 34
1001
0000
0110
0000
0010
0001
0100
0000
,  // measure 35
1000
0100
0001
0100
1000
0000
1100
0000
,  // measure 36
1000
0000
0100
0000
0001
1000
0100
0000
,  // measure 37
0010
0000
0100
0000
1000
0001
0100
0000
,  // measure 38
0002
1000
0010
0103
,  // measure 39
2000
0100
0001
3010
,  // measure 40
0210
0001
1000
0310
,  // measure 41
0001
0000
0000
1000
0000
0000
0020
0000
0000
0000
0000
0000
0130
0000
0000
0000
,  // measure 42
0100
0000
0001
0000
1000
0100
0010
0000
,  // measure 43
0001
0000
0100
0000
1000
0100
0010
0000
,  // measure 44
1000
0000
0100
0000
0001
0100
1000
0000
,  // measure 45
0001
0000
0100
0000
0010
0100
0001
0000
,  // measure 46
1000
0000
0100
0000
0010
0001
0100
0000
,  // measure 47
1000
0000
0100
0000
0010
1000
0001
0000
,  // measure 48
0010
0100
1000
0000
0001
0100
0010
0000
,  // measure 49
2000
0001
0100
3010
,  // measure 50
0100
0000
0100
0000
0100
1000
0001
0000
,  // measure 51
0100
0000
0100
0000
0100
0001
0010
0000
,  // measure 52
0100
0000
0100
0000
0100
0010
0001
0000
,  // measure 53
0100
0000
0100
0001
1000
0100
1000
0000
,  // measure 54
0100
0000
0100
0000
1000
0010
0100
0000
,  // measure 55
0001
0010
1000
0010
,  // measure 56
0100
0000
0100
0000
0100
1000
0001
0000
,  // measure 57
0100
0100
0220
0330
,  // measure 58
0110
0000
1001
0000
1000
0010
0001
0000
,  // measure 59
0001
0010
1000
0010
0001
0000
0011
0000
,  // measure 60
0110
0000
1001
0000
0001
1000
0100
0000
,  // measure 61
0001
0100
1000
0100
0001
0000
0101
0000
,  // measure 62
0100
0000
1000
0000
0010
0100
0001
0000
,  // measure 63
1000
0000
0100
0000
0010
0100
1000
0000
,  // measure 64
0002
0010
1000
0103
,  // measure 65
2000
0100
0001
3010
,  // measure 66
0020
0001
1000
0130
,  // measure 67
1000
0000
0000
0100
0000
0000
0020
0000
0000
0000
0000
0000
0031
0000
0000
0000
,  // measure 68
0001
0000
0100
0000
1000
0100
0010
0000
,  // measure 69
1000
0000
0100
0000
0001
0100
0010
0000
,  // measure 70
0001
0000
0100
0000
0010
1000
0100
0000
,  // measure 71
0100
0000
1000
0000
0001
0100
1000
0000
,  // measure 72
0100
0000
0001
0000
1000
0100
0010
0000
,  // measure 73
0001
0000
0100
0000
0010
0100
0001
0000
,  // measure 74
1000
0100
0010
0000
0001
0010
0100
0000
,  // measure 75
2000
0001
0100
3010
,  // measure 76
0110
0000
0000
0000
;

//---------------dance-single - ---------------
#NOTEDATA:;
#CHARTNAME:;
#CHARTSTYLE:;
#CREDIT:;
#STEPSTYPE:dance-single;
#DESCRIPTION:;
#DIFFICULTY:Hard;
#METER:17;
#METERF:17;
#RADARVALUES:0,0,0,0,0;
#NOTES:
// measure 0
0000
0000
0000
0000
,  // measure 1
0000
0000
0000
0000
,  // measure 2
0000
2002
0000
3003
,  // measure 3
1000
0001
1000
1001
,  // measure 4
1000
0000
0000
1000
0010
0000
0100
0000
0001
1000
0000
0100
0010
0000
0100
0000
,  // measure 5
1000
0000
0000
0001
0100
0000
0010
0000
0100
0001
0000
1000
0010
0000
0100
0000
,  // measure 6
0001
1000
0001
0000
0010
0100
0010
0000
0100
1000
0100
0000
1000
0010
1000
0000
,  // measure 7
2020
0000
0030
3100
,  // measure 8
0100
0010
0000
0010
0001
0100
0010
1000
0001
0010
0100
1000
0010
0100
1000
0100
,  // measure 9
0001
0010
0100
1000
0001
0010
0100
1000
0010
0100
0001
1000
0010
0100
0001
1000
,  // measure 10
0100
0010
0000
0010
0100
1000
0001
0100
1000
0100
0010
1000
0001
0010
0100
1000
,  // measure 11
0010
0100
0001
1000
0010
0100
0001
1000
0100
0010
0001
1000
0100
0010
0001
1000
,  // measure 12
0100
0010
0000
0010
0001
0100
0010
1000
0001
0010
0100
1000
0010
0100
1000
0100
,  // measure 13
0001
0010
0100
1000
0001
0010
0100
1000
0010
0100
0001
1000
0010
0100
0001
1000
,  // measure 14
0100
0010
0001
0010
0100
1000
0010
1000
0100
0010
1000
0010
0100
1000
0010
1000
,  // measure 15
0100
1000
0100
1000
0100
1000
0100
1000
0100
1000
0100
1000
0100
1000
0100
1000
,  // measure 16
1100
0000
1001
0000
0101
1001
0000
1010
,  // measure 17
0000
1000
0010
0100
0001
1000
0100
0010
,  // measure 18
0001
0000
0100
0001
1000
0000
0100
1000
0010
0000
0100
0001
0010
0000
0100
1000
,  // measure 19
0020
0100
0001
0100
1030
0000
1010
0000
,  // measure 20
1001
0000
0011
0000
0110
1100
0000
1010
,  // measure 21
0000
1000
0010
0100
0001
1000
0100
0010
,  // measure 22
0001
0000
0100
0001
1000
0000
0100
1000
0001
0000
0100
0010
1000
0000
1010
0000
,  // measure 23
0001
0011
0110
1100
1010
0011
1010
0011
,  // measure 24
1010
0000
1000
0000
0100
0000
0010
0000
0001
0010
0100
0010
0001
0010
0100
0010
,  // measure 25
0001
0000
0100
0000
0010
0000
1000
0000
0100
1000
0010
1000
0100
1000
0010
1000
,  // measure 26
0100
0000
1000
0000
0010
0000
0001
0000
0010
0100
0001
0100
0010
0100
0001
0100
,  // measure 27
0010
0000
1000
0000
0001
0000
0010
0000
0100
1000
0001
1000
0100
1000
0001
1000
,  // measure 28
0100
0000
1000
0000
0010
0000
0100
0000
0001
0010
1000
0010
0001
0010
1000
0010
,  // measure 29
0011
0000
0001
0010
0000
0010
0100
0000
1100
0000
0100
1000
0000
1000
0001
0000
,  // measure 30
1001
0000
0001
0100
0010
0000
1000
0100
0010
0000
0001
0100
0010
0000
2010
0000
,  // measure 31
0001
0001
0001
0001
0001
0001
0001
3001
,  // measure 32
2002
0000
3003
0000
0220
0000
0330
0000
0100
0000
0001
1000
0100
0000
0010
0000
,  // measure 33
0011
0010
1010
0010
0011
0001
0101
0100
,  // measure 34
0220
0330
2002
3003
0110
0010
1000
0100
,  // measure 35
0011
0010
1100
0100
0011
0010
0110
0100
,  // measure 36
2200
3300
0022
0033
2002
3003
0110
0010
,  // measure 37
0100
0001
0010
0100
1000
0010
1010
0010
,  // measure 38
0100
0000
0001
0010
0100
0000
1000
0010
0100
0000
1000
0100
0001
0000
1000
0100
,  // measure 39
0001
0000
0100
1000
0010
0000
0100
0001
0010
0000
0100
1000
0010
0000
0100
0001
,  // measure 40
2000
0100
0001
0100
0010
0010
0100
3100
,  // measure 41
1100
0000
0100
1000
0000
0001
0010
0000
0100
0010
0001
0100
0110
0010
1000
0100
,  // measure 42
0010
0001
0000
0010
0100
1000
0001
0100
1000
0100
0010
1000
0100
0010
0001
0100
,  // measure 43
0010
1000
0001
0100
0010
1000
0001
0100
0010
0100
0001
1000
0010
0100
0001
1000
,  // measure 44
0100
0010
0000
0010
0001
0100
1000
0100
0010
1000
0100
0010
0001
0100
0010
1000
,  // measure 45
0100
0010
0001
1000
0100
0010
0001
1000
0010
0100
0001
1000
0010
0100
0001
1000
,  // measure 46
0100
0010
0000
0010
0001
0100
0010
1000
0001
0010
0100
1000
0010
0100
0001
0010
,  // measure 47
0100
1000
0001
0010
0100
1000
0001
0010
0100
1000
0010
0100
1000
0100
0010
1000
,  // measure 48
0100
0010
0001
0100
1000
0100
0010
1000
0100
0001
0100
0010
0001
0100
0010
1000
,  // measure 49
0100
1000
0100
1000
0100
1000
0100
1000
0100
1000
0100
1000
0100
1000
0100
1000
,  // measure 50
1100
0000
1100
0000
1100
1100
0000
1001
,  // measure 51
0101
0000
0101
0000
0101
0101
0000
0011
,  // measure 52
0110
0000
0110
0000
0110
0110
0000
1100
,  // measure 53
1001
0000
0000
0001
1000
0000
1000
0100
0010
0000
0001
0000
0011
0000
0000
0000
,  // measure 54
0110
0000
0110
0000
0110
0110
0000
1100
,  // measure 55
1001
0000
0000
0101
0000
0000
1001
0000
1100
0000
0000
1010
0000
0000
0110
0000
,  // measure 56
1010
0000
1010
0000
0101
0001
0101
0100
,  // measure 57
0010
0100
0010
0100
0001
0010
0001
0010
0100
1000
0010
0100
0001
0010
0100
0010
,  // measure 58
0022
0000
0033
0000
2200
0000
3300
0000
0001
0000
0100
0010
1000
0000
0100
0000
,  // measure 59
0011
0010
1010
0010
0011
0010
2200
3300
,  // measure 60
2002
3003
0202
0303
1001
1000
0001
0010
,  // measure 61
1010
0010
0011
0010
1010
1000
2002
3003
,  // measure 62
0220
0330
2002
3003
0220
0330
0100
0001
,  // measure 63
0010
0100
1000
0010
0100
0001
1001
0000
,  // measure 64
1000
0000
0100
1000
0001
0000
0100
0001
0010
0000
0100
1000
0010
0000
0100
0010
,  // measure 65
1000
0000
0001
0010
0100
0000
1000
0001
0100
0000
1000
0100
0010
0000
1000
0100
,  // measure 66
0020
0001
1000
0100
0001
0001
0100
0130
,  // measure 67
0110
0000
0100
1000
0000
1000
0010
0000
0100
0010
1000
0001
0010
0100
1000
0001
,  // measure 68
0100
0010
0000
0010
1000
0100
0001
0100
1000
0010
0100
0001
0010
0100
1000
0010
,  // measure 69
0100
0001
0010
0001
0100
0010
1000
0010
0100
0001
1000
0001
0100
0010
1000
0010
,  // measure 70
0100
0001
0000
0001
0010
0100
1000
0001
0100
0010
1000
0010
0100
0001
0010
0100
,  // measure 71
1000
0010
0100
0010
1000
0001
0010
0001
1000
0100
0001
0100
1000
0010
0001
0010
,  // measure 72
1000
0100
0000
0100
0010
0001
0100
0010
1000
0100
0010
0001
0100
1000
0100
0010
,  // measure 73
1000
0100
0010
0001
1000
0100
0010
0001
1000
0010
0100
0001
1000
0010
0100
0001
,  // measure 74
0010
0100
1000
0001
0100
0010
1000
0001
0010
0100
1000
0010
0100
0001
0010
0100
,  // measure 75
1000
0001
1000
0001
1000
0001
1000
0001
1000
0001
1000
0001
1000
0001
1000
0001
,  // measure 76
2002
0000
0000
3003
;
