#TITLE:朝がまた来る (D.U.S Special);
#SUBTITLE:(Morning Will Come Again);
#ARTIST:Dreams Come True;
#TITLETRANSLIT:ASA GA MATA KURU (D.U.S Special);
#MUSIC:ASA GA MATA KURU.ogg;
#BANNER:ASA GA MATA KURU.png;
#BACKGROUND:ASA GA MATA KURU-bg.png;
#LYRICSPATH:;
#CDTITLE:;
#SAMPLESTART:25.616;
#SAMPLELENGTH:15;
#DISPLAYBPM:96;
#BPMS:0.000000=96.035000;
#STOPS:;
#TIMESIGNATURES:;
#BGCHANGES:;
#FGCHANGES:;
#ATTACKS:;
#SPEEDS:;
#SCROLLS:;
#KEYSOUNDS:;

//---------------dance-single - ---------------
#NOTES:
     dance-single:
     :
     Challenge:
     17:
     0,0,0,0,0:
// measure 0
0000
0000
0000
0000
,  // measure 1
0000
0000
0000
0000
,  // measure 2
0000
0000
0000
0000
,  // measure 3
0000
0000
0000
0000
0000
0000
0000
0000
0000
0000
0000
0000
0000
0000
0010
1000
,  // measure 4
0010
0100
0010
0200
0000
0002
0000
0000
,  // measure 5
0000
0000
0000
0000
0000
0000
0000
0000
0303
0000
0101
0000
0101
0100
0010
1000
,  // measure 6
1010
0000
1010
0000
0101
0100
0001
0010
0100
0000
1000
0000
1001
1000
0010
0100
,  // measure 7
1000
0000
0100
0000
0101
0001
0010
0100
1000
0000
0010
0000
1010
0010
0100
0001
,  // measure 8
1000
0000
1000
0000
1010
0000
1000
0001
0100
0010
1000
0000
1010
0000
1000
0000
,  // measure 9
0020
0000
1030
0002
0000
0203
0000
0320
0000
2030
0000
3200
0000
0320
0000
0032
,  // measure 10
1003
0000
0001
0000
1001
1000
0010
0100
1000
0000
0100
0000
0101
0001
0010
0100
,  // measure 11
0010
0000
0001
0000
1001
1000
0010
0100
1000
0000
0100
0000
0101
0001
1000
0010
,  // measure 12
0200
0300
0200
0300
0002
0003
0002
0003
0020
0030
0020
0030
2000
3000
2000
3000
,  // measure 13
0020
0030
0020
0030
0200
0300
0200
0300
2000
3000
1000
0002
0003
0001
2000
0000
,  // measure 14
3100
0000
0000
0000
0100
0000
0000
0000
0110
0000
0010
0000
0001
0000
1000
0000
0100
0000
0001
0100
0001
0000
0100
0000
0010
0000
1000
0000
0001
0000
1000
0000
,  // measure 15
0010
0000
1000
0000
0100
0000
0010
1000
0000
1000
0010
0000
0110
0000
0100
0000
,  // measure 16
1000
0000
0001
0000
0100
0000
0001
0100
0000
0100
0001
0000
1100
0000
1001
0000
,  // measure 17
0101
2001
3100
1200
0310
0001
0101
0010
,  // measure 18
0110
0000
0100
0000
0101
0000
0001
0100
0010
1000
0100
0000
1100
0000
1001
0000
,  // measure 19
0011
0000
0010
0000
0110
0000
0100
1000
0010
0100
0001
0000
1000
0000
1020
0000
,  // measure 20
0130
0000
0210
0000
0301
0000
1000
0000
0010
1000
0010
0000
0100
0001
0010
0100
,  // measure 21
1000
0000
1000
0000
0010
0000
0100
0010
0000
0001
0010
0000
1000
0000
1000
0000
,  // measure 22
0001
0000
0001
0000
0010
0000
0100
0010
0000
1000
0010
0000
0100
0000
1000
0010
,  // measure 23
0001
0010
1000
0200
0301
0200
1300
2000
,  // measure 24
3010
0000
0000
0000
0100
0000
0000
0000
0001
0000
1000
0001
1000
0000
0001
1000
2020
0000
0000
0000
3030
0000
0000
0000
1001
0000
0000
0000
1001
0000
0001
0000
,  // measure 25
0100
0000
0100
0000
0110
0000
0010
1000
0100
0010
0001
0000
0011
0000
1001
0000
,  // measure 26
1100
0000
1001
0000
0101
0000
0001
0100
0010
1000
0100
0000
0110
0000
0010
0000
,  // measure 27
0011
0000
1001
0000
1010
0000
0010
1000
0001
0100
0010
0000
1010
0000
0101
0100
,  // measure 28
0110
0000
0010
0000
1000
0010
0100
0001
0000
0001
1000
0000
1000
0001
0010
0100
,  // measure 29
1000
0000
1000
0000
1010
0000
0010
0100
0001
0010
0100
0000
1100
0000
1001
0000
,  // measure 30
0101
0000
1001
0000
1010
0000
0010
1000
0001
0100
0010
0000
1010
0000
0101
0100
,  // measure 31
0120
0030
0210
0300
2010
3000
1020
0030
1002
0003
2001
3000
0012
0003
0021
0030
,  // measure 32
0210
0300
0120
0030
2100
3000
1200
0300
1001
0000
0001
0100
0000
0100
0010
0000
,  // measure 33
1010
0000
0000
0000
1010
0000
0000
0000
0010
0000
0100
0000
0001
0000
0010
0000
0100
0000
1000
0001
1000
0000
0001
0000
1001
0000
0001
1000
0001
0000
0100
0000
,  // measure 34
0010
1000
0001
1000
0010
1000
0001
1000
0100
0010
0001
0010
0100
0010
0001
0010
,  // measure 35
0100
0000
1000
0000
1001
0000
0001
0100
0000
0100
0010
0000
0110
0000
0000
0000
;

//---------------dance-double - ---------------
#NOTES:
     dance-double:
     :
     Challenge:
     18:
     0,0,0,0,0:
// measure 0
00000000
00000000
00000000
00000000
,  // measure 1
00000000
00000000
00000000
00000000
,  // measure 2
20000000
00000000
30001000
00020000
00000000
00000000
00030000
00000001
,  // measure 3
00000002
00000000
00000000
00000000
00010003
00000000
00002000
00000000
00000000
00000000
00000000
00000000
00003000
00000000
01000000
00010000
,  // measure 4
00100000
01000000
10000000
00020000
00000000
02000000
00000000
00000000
,  // measure 5
00000000
00000000
00000000
00000000
00000000
00000000
00000000
00000000
03030000
00000000
10000000
00000000
11000000
01000000
00100000
01000000
,  // measure 6
10000000
00000000
01000000
00000000
11000000
01000000
00010000
00001000
00000100
00000000
00000001
00000000
00000101
00000100
00001000
00010000
,  // measure 7
01000000
00000000
10000000
00000000
10100000
00100000
00010000
00001000
00000010
00000000
00000001
00000000
00000011
00000010
00001000
00010000
,  // measure 8
00100000
00000000
10000000
00000000
10100000
00000000
10000000
00010000
01000000
00100000
10000000
00000000
10100000
00000000
01010000
00000000
,  // measure 9
02000000
00000000
03001000
00020000
00000000
00030200
00000000
00002300
00000000
00003002
00000000
00000203
00000000
00000320
00000000
00001030
,  // measure 10
00000100
00000000
00001000
00000000
00001001
00001000
00000100
00010000
00001000
00000000
01000000
00000000
01010000
01000000
00001000
00010000
,  // measure 11
00000100
00000000
00001000
00000000
00001001
00001000
00000010
00010000
00001000
00000000
10000000
00000000
10010000
00010000
00100000
00001000
,  // measure 12
00020000
00030000
00020000
00030000
00000020
00000030
00000020
00000030
00002000
00003000
00002000
00003000
00000002
00000003
00000002
00000003
,  // measure 13
00000200
00000300
00000200
00000300
00002000
00003000
00002000
00003000
00010000
00000000
00001000
00010000
00000000
00001000
00010000
00000000
,  // measure 14
00011000
00000000
00000000
00000000
00011000
00000000
00000000
00000000
01010000
00000000
00000000
00000000
01000000
00000000
00100000
00000000
10000000
00000000
01000000
00010000
01000000
00000000
01000000
00000000
10000000
00000000
00001000
00000000
00010000
00000000
00000001
00000000
,  // measure 15
00001000
00000000
00000100
00000000
00001100
00000000
00001000
00000010
00000000
00000010
00001000
00000000
00001001
00000000
00001100
00000000
,  // measure 16
00001001
00000000
00001000
00000000
00001010
00000000
00000010
00001000
00000000
00001000
00000100
00000000
00001100
00000000
00021000
00000000
,  // measure 17
00031000
00012000
00013000
00011000
01010000
01010000
11000000
11000000
,  // measure 18
10000000
00000000
10000000
00000000
10100000
00000000
00100000
10000000
00000000
10000000
00010000
00000000
01010000
00000000
10010000
00000000
,  // measure 19
10100000
00000000
10000000
00000000
11000000
00000000
10000000
00100000
00000000
00100000
01000000
00000000
01010000
00000000
02000000
00000000
,  // measure 20
00010000
00000000
00100000
00000000
03100000
00000000
00100000
10000000
10010000
00000000
01001000
00000000
00011000
00000000
00010100
00000000
,  // measure 21
00001001
00000000
00000001
00000000
00000100
00000000
00000020
00000031
00000020
00001000
00001030
00000000
00001100
00000000
00011000
00000000
,  // measure 22
01010000
00000000
11000000
00000000
10010000
00000000
10000000
00020000
00130000
02000000
13000000
00000000
11000000
00000000
10010000
00010000
,  // measure 23
01010000
00011000
00001010
00011000
00110000
00011000
00001100
00011000
,  // measure 24
00001000
00000000
00010000
00000000
01000000
00000000
10000000
00000000
00010000
00000000
01000000
00010000
01000000
00000000
00100000
10000000
20200000
00000000
00000000
00000000
30300000
00000000
00000000
00000000
10100000
00000000
00000000
00000000
10100000
00000000
00100000
00000000
,  // measure 25
01100000
00000000
01000000
00000000
01010000
00000000
00010000
00100000
00001000
00010000
00000100
00000000
00001100
00000000
00001001
00001000
,  // measure 26
00000010
00000000
00010000
00000000
00011000
00000000
00001000
01000000
00010000
00100000
01000000
00000000
11000000
00000000
10010000
00010000
,  // measure 27
01010000
00000000
00001000
00000000
00011000
00000000
00001000
00010000
00000010
00000100
00000001
00000000
00000101
00000000
00001001
00001000
,  // measure 28
00001010
00000000
00000010
00001000
00000200
00020300
00030000
02000000
03000000
20000000
30000000
00010000
10010000
10000000
00100000
01000000
,  // measure 29
00001000
00000000
00010000
00000000
00011000
00000000
00010000
00000001
00000100
00000010
00001000
00000000
00001100
00000000
00011000
00001000
,  // measure 30
00011000
00000000
00010000
00000000
01010000
00000000
01000000
10000000
00100000
01000000
00010000
00000000
01010000
00000000
01010000
00010000
,  // measure 31
00120000
00030000
00210000
00300000
00012000
00003000
00021000
00030000
00001200
00000300
00002100
00003000
00001002
00000003
00002001
00003000
,  // measure 32
00000102
00000003
00000201
00000300
00000120
00000030
00000210
00000300
00001010
00000000
00000010
00010000
00000000
00010000
01000000
00000000
,  // measure 33
11000000
00000000
00000000
00000000
10010000
00000000
00000000
00000000
00010000
00000000
01000000
00000000
00001000
00000000
00010000
00000000
00000100
00000000
00001000
00000010
00001000
00000000
00000001
00000000
00000100
00000000
00000010
00000000
00001000
00000000
00000100
00000000
,  // measure 34
00010000
00001000
01000000
00010000
00100000
01000000
10000000
00010000
01000000
00001000
00010000
00000100
00001000
00000001
00000100
00000010
,  // measure 35
00001000
00000000
00000100
00000000
00011000
00000000
00010000
01000000
00000000
01000000
10000000
00000000
10010000
00000000
00000000
00000000
;
