#VERSION:0.83;
#TITLE:Arabiens Drøm;
#SUBTITLE:;
#ARTIST:Anne Gadegaard;
#TITLETRANSLIT:;
#SUBTITLETRANSLIT:;
#ARTISTTRANSLIT:;
#GENRE:;
#CREDIT:;
#ORIGIN:;
#MUSIC:Arabiens Drøm.ogg;
#BANNER:Arabiens Drøm.png;
#BACKGROUND:Arabiens Drøm-bg.png;
#JACKET:Arabiens Drøm-jacket.png;
#DISCIMAGE:;
#CDIMAGE:;
#SELECTABLE:YES;
#LYRICSPATH:;
#CDTITLE:;
#SAMPLESTART:54.026;
#SAMPLELENGTH:16.69599999999999;
#OFFSET:0.235;
#BPMS:0.000000=115.000000;
#STOPS:;
#WARPS:;
#DELAYS:;
#SPEEDS:0.000000=1.000000=0.000000=0;
#SCROLLS:0.000000=1.000000;
#TICKCOUNTS:;
#TIMESIGNATURES:0.000000=4=4;
#LABELS:;
#COMBOS:;
#FAKES:;
#BGCHANGES:;
#FGCHANGES:;
#ATTACKS:;
#KEYSOUNDS:;

//---------------dance-single - ---------------
#NOTEDATA:;
#CHARTNAME:;
#CHARTSTYLE:;
#CREDIT:;
#STEPSTYPE:dance-single;
#DESCRIPTION:;
#DIFFICULTY:Beginner;
#METER:4;
#METERF:4;
#RADARVALUES:0,0,0,0,0;
#NOTES:
// measure 0
0000
0000
0000
0000
,  // measure 1
0000
0000
0000
0000
,  // measure 2
0000
0000
0000
0000
,  // measure 3
0000
0000
0000
0000
,  // measure 4
2002
0000
0000
3003
,  // measure 5
1000
1000
1000
0000
,  // measure 6
0001
0001
0001
0000
,  // measure 7
0010
0010
0010
0000
,  // measure 8
0001
0001
0001
0000
,  // measure 9
0010
0010
0010
0000
,  // measure 10
0100
0100
0100
0000
,  // measure 11
1000
1000
1000
0000
,  // measure 12
0010
0010
0010
0000
,  // measure 13
0110
0000
0000
0000
,  // measure 14
0100
0100
0100
0000
,  // measure 15
0001
0001
0001
0000
,  // measure 16
1000
1000
1000
0000
,  // measure 17
0100
0100
0100
0000
,  // measure 18
0010
0010
0010
0000
,  // measure 19
0001
0001
0001
0000
,  // measure 20
1000
1000
1000
0000
,  // measure 21
0010
0010
0010
0000
,  // measure 22
0200
0300
0100
0000
,  // measure 23
0002
0003
0001
0000
,  // measure 24
2000
3000
1000
0000
,  // measure 25
0020
0030
0010
0000
,  // measure 26
0010
0000
0010
0000
,  // measure 27
1000
1000
1000
0000
,  // measure 28
0001
0000
0001
0000
,  // measure 29
0010
0010
0010
0000
,  // measure 30
0100
0000
0100
0000
,  // measure 31
1000
1000
1000
0000
,  // measure 32
0001
0000
0001
0000
,  // measure 33
0010
0010
0010
0000
,  // measure 34
0100
0100
0100
0000
,  // measure 35
1000
1000
1000
0000
,  // measure 36
0001
0001
0001
0000
,  // measure 37
0100
0100
0100
0000
,  // measure 38
0010
0010
0010
0000
,  // measure 39
1000
1000
1000
0000
,  // measure 40
0001
0001
0001
0000
,  // measure 41
0010
0010
0010
0010
,  // measure 42
0010
0000
0001
0000
,  // measure 43
1000
1000
1000
0000
,  // measure 44
0010
0000
0100
0000
,  // measure 45
0001
0001
0001
0000
,  // measure 46
1000
0000
0100
0000
,  // measure 47
0010
0010
0010
0000
,  // measure 48
0001
0000
0010
0000
,  // measure 49
0100
0100
0100
0000
,  // measure 50
1001
0000
0000
0000
;

//---------------dance-single - ---------------
#NOTEDATA:;
#CHARTNAME:;
#CHARTSTYLE:;
#CREDIT:;
#STEPSTYPE:dance-single;
#DESCRIPTION:;
#DIFFICULTY:Easy;
#METER:7;
#METERF:7;
#RADARVALUES:0,0,0,0,0;
#NOTES:
// measure 0
0000
0000
0000
0000
,  // measure 1
0000
0000
0000
0000
,  // measure 2
0000
0000
0000
0000
,  // measure 3
0000
0000
0000
0000
,  // measure 4
2001
3002
2003
3001
,  // measure 5
1000
0010
0100
0010
,  // measure 6
1000
0100
0010
0001
,  // measure 7
0100
0010
0001
0010
,  // measure 8
0100
0001
0010
0100
,  // measure 9
1000
0010
0100
1000
,  // measure 10
0100
0001
0010
0100
,  // measure 11
0001
0100
0010
0001
,  // measure 12
0100
0010
1000
0001
,  // measure 13
2001
0000
3100
1000
,  // measure 14
0010
0100
0001
0010
,  // measure 15
0200
1000
0001
1300
,  // measure 16
0010
0100
0001
0010
,  // measure 17
2000
0100
0010
3100
,  // measure 18
0010
0001
0100
0010
,  // measure 19
0002
0010
0100
0013
,  // measure 20
1000
0001
0010
0100
,  // measure 21
2000
0001
0010
3010
,  // measure 22
0010
0100
0001
0010
,  // measure 23
0100
1000
0001
0010
,  // measure 24
0100
1000
0001
0010
,  // measure 25
0110
1100
2002
3003
,  // measure 26
0001
0100
0010
0100
,  // measure 27
0001
0010
1000
0010
,  // measure 28
0001
0100
0010
1000
,  // measure 29
0100
0010
0001
0010
,  // measure 30
0100
1000
0001
0100
,  // measure 31
1000
0100
0010
1000
,  // measure 32
0100
0010
0001
0010
,  // measure 33
0100
1000
0001
0100
,  // measure 34
0010
0100
0001
1000
,  // measure 35
0100
0010
0001
0100
,  // measure 36
0010
0100
0001
1000
,  // measure 37
0200
0001
0010
1300
,  // measure 38
1000
0100
0010
1000
,  // measure 39
0010
0001
0100
0010
,  // measure 40
0001
0010
0100
0001
,  // measure 41
1001
0101
0011
1010
,  // measure 42
0001
0010
0100
1000
,  // measure 43
0010
0001
0010
1000
,  // measure 44
0100
0010
0001
0100
,  // measure 45
1000
0100
0010
1000
,  // measure 46
0100
0010
0001
0010
,  // measure 47
0100
1000
0001
0100
,  // measure 48
0010
0100
0001
0010
,  // measure 49
0100
1000
0001
0100
,  // measure 50
0220
0330
0000
0000
;

//---------------dance-single - ---------------
#NOTEDATA:;
#CHARTNAME:;
#CHARTSTYLE:;
#CREDIT:;
#STEPSTYPE:dance-single;
#DESCRIPTION:;
#DIFFICULTY:Medium;
#METER:12;
#METERF:12;
#RADARVALUES:0,0,0,0,0;
#NOTES:
// measure 0
0000
0000
0000
0000
,  // measure 1
0000
0000
0000
0000
,  // measure 2
0000
0000
0000
0000
,  // measure 3
0000
0000
0000
0000
,  // measure 4
2100
3020
0230
0301
,  // measure 5
0001
1000
0001
0000
0100
0010
0100
0000
,  // measure 6
0001
0010
0001
0000
0100
0000
0010
0000
,  // measure 7
1000
0100
1000
0000
0010
0100
0010
0000
,  // measure 8
1000
0100
0010
0000
0001
0000
0100
0000
,  // measure 9
0010
0100
0001
0000
0010
0001
0010
0000
,  // measure 10
0001
0100
0010
0000
1000
0000
0100
0000
,  // measure 11
0010
0100
1000
0000
0010
0100
1000
0000
,  // measure 12
0100
0010
1000
0000
0100
0000
0010
0000
,  // measure 13
0012
0000
0103
0010
,  // measure 14
0100
0010
1000
0000
0100
0010
0001
0000
,  // measure 15
2000
0001
0100
3001
,  // measure 16
0001
0100
0010
0000
1000
0010
0100
0000
,  // measure 17
0002
1000
0100
1003
,  // measure 18
1000
0100
0010
0000
0001
0010
0100
0000
,  // measure 19
2000
0010
0100
3010
,  // measure 20
0010
0100
0001
0000
1000
0100
0010
0000
,  // measure 21
0200
1000
0001
0310
,  // measure 22
0010
0000
0001
0000
0100
0010
1000
0000
,  // measure 23
0001
0000
0010
0000
0100
0010
0001
0000
,  // measure 24
0100
0000
1000
0000
0100
0010
1000
0000
,  // measure 25
0001
0001
0010
0010
0100
0100
1100
0000
,  // measure 26
0100
1000
0010
0000
0100
0001
0010
0000
,  // measure 27
0100
0000
0000
1000
0000
0000
0100
0000
0020
0000
0000
0000
0031
0000
0000
0000
,  // measure 28
0001
0100
0010
0000
1000
0100
0010
0000
,  // measure 29
0001
0000
0000
0100
0000
0000
0001
0000
0020
0000
0000
0000
0130
0000
0000
0000
,  // measure 30
1000
0001
0100
0000
0010
0100
0001
0000
,  // measure 31
1000
0000
0000
0010
0000
0000
0001
0000
0020
0000
0000
0000
1030
0000
0000
0000
,  // measure 32
1000
0001
0010
0000
0100
0010
0001
0000
,  // measure 33
0100
0000
0000
0001
0000
0000
0010
0000
0002
0000
0000
0000
1003
0000
0000
0000
,  // measure 34
1000
0100
1000
0000
0001
0100
0001
0000
,  // measure 35
1000
0010
1000
0000
0001
0010
0001
0000
,  // measure 36
0100
0010
0100
0000
0001
1000
0001
0000
,  // measure 37
2000
3200
0320
0031
,  // measure 38
0100
0001
0010
0000
0100
0010
0001
0000
,  // measure 39
0100
0010
0001
0000
0010
0000
1000
0000
,  // measure 40
0100
1000
0010
0000
0100
0010
1000
0000
,  // measure 41
0100
0010
0001
0010
1000
0000
0011
0000
,  // measure 42
0001
0100
0010
0000
1000
0100
0010
0000
,  // measure 43
0001
0000
0000
0100
0000
0000
0001
0000
0020
0000
0000
0000
0130
0000
0000
0000
,  // measure 44
1000
0100
0010
0000
0001
0010
0100
0000
,  // measure 45
1000
0000
0000
0010
0000
0000
0100
0000
0020
0000
0000
0000
1030
0000
0000
0000
,  // measure 46
1000
0001
0010
0000
0100
0010
0001
0000
,  // measure 47
0100
0000
0000
0010
0000
0000
0001
0000
0020
0000
0000
0000
1030
0000
0000
0000
,  // measure 48
1000
0100
0010
0000
0001
0100
0010
0000
,  // measure 49
1000
0000
0000
0001
0000
0000
0010
0000
0200
0000
0000
0000
0310
0000
0000
0000
,  // measure 50
2002
3003
0000
0000
;

//---------------dance-single - ---------------
#NOTEDATA:;
#CHARTNAME:;
#CHARTSTYLE:;
#CREDIT:;
#STEPSTYPE:dance-single;
#DESCRIPTION:;
#DIFFICULTY:Hard;
#METER:15;
#METERF:15;
#RADARVALUES:0,0,0,0,0;
#NOTES:
// measure 0
0000
0000
0000
0000
,  // measure 1
0000
0000
0000
0000
,  // measure 2
0000
0000
0000
0000
,  // measure 3
0000
0000
0000
0000
,  // measure 4
2002
0000
0000
3003
0000
0000
0001
0000
1000
0000
0001
0000
2000
0000
0000
0000
0000
0000
3010
0000
1000
0000
0010
0000
0200
0000
0000
0000
0000
0000
0301
0000
0100
0000
0001
0000
0020
0000
0000
0000
0000
0000
0130
0000
0000
0000
0000
0000
,  // measure 5
1100
0000
0100
1000
0010
0000
0001
0010
0100
0001
0010
0100
1000
0000
0001
0010
,  // measure 6
0100
1000
0010
0100
1000
0000
0100
0001
2000
0000
0000
3002
0000
0000
0013
0000
,  // measure 7
0011
0000
0001
0010
1000
0000
0010
0001
0100
0010
1000
0001
0010
0000
0100
0010
,  // measure 8
0001
0100
0010
1000
0001
0000
0010
0001
0200
0000
0000
0320
0000
0000
1030
0000
,  // measure 9
1001
0000
0001
1000
0010
0000
0100
0010
1000
0001
0010
0100
1000
0000
0010
0100
,  // measure 10
0001
0010
0100
1000
0001
0000
0100
0010
2000
0000
0000
3002
0000
0000
0013
0000
,  // measure 11
0110
0000
0100
0010
0001
0000
0100
0010
1000
0001
0010
0100
1000
0000
0010
0100
,  // measure 12
1000
0100
0001
0010
0100
0000
1000
0001
1001
0000
0000
0110
0000
0000
1010
0000
,  // measure 13
0102
0000
1000
0000
0103
1000
0010
0100
,  // measure 14
0001
0000
0001
1000
0000
1000
0010
0000
0100
0000
0100
0010
0000
0010
1000
0000
,  // measure 15
0002
0010
1000
0010
0103
0001
0010
0100
,  // measure 16
1000
0000
1000
0001
0000
0001
0010
0000
0100
0000
0100
1000
0000
1000
0010
0000
,  // measure 17
0200
0001
1000
0010
0301
0001
0010
0100
,  // measure 18
1000
0000
1000
0010
0000
0010
0100
0000
0001
0000
0001
0010
0000
0010
0100
0000
,  // measure 19
2000
0001
0100
0010
3100
1000
0010
0100
,  // measure 20
0001
0000
0000
0000
0000
0000
0000
0000
0000
0000
0000
0000
0000
0000
0000
0000
0000
0000
0000
0000
0000
0000
0000
0000
0001
0000
0000
0000
0000
0000
0000
0000
0000
0000
0000
0000
1000
0000
0000
0000
0000
0000
0000
0000
0000
0000
0000
0000
0000
0000
0000
0000
0000
0000
0000
0000
0000
0000
0000
0000
1000
0000
0000
0000
0000
0000
0000
0000
0000
0000
0000
0000
0010
0000
0000
0000
0000
0000
0000
0000
0000
0000
0000
0000
0000
0000
0000
0000
0000
0000
0000
0000
0000
0000
0000
0000
0100
0001
0000
0000
0000
0000
0000
0000
0000
0000
0000
0000
0000
0000
0000
0000
0000
0000
0000
0000
0000
0000
0000
0000
0010
1000
0000
0000
0000
0000
0000
0000
0000
0000
0000
0000
0000
0000
0000
0000
0000
0000
0000
0000
0000
0000
0000
0000
0010
0001
0000
0000
0000
0000
0000
0000
0000
0000
0000
0000
0000
0000
0000
0000
0000
0000
0000
0000
0000
0000
0000
0000
0100
1000
0000
0000
0000
0000
0000
0000
0000
0000
0000
0000
0000
0000
0000
0000
0000
0000
0000
0000
0000
0000
0000
0000
,  // measure 21
2001
0100
0010
3100
0002
0000
0023
0000
,  // measure 22
0031
0000
0100
0010
1000
0000
0010
0000
2000
0000
0000
0000
3002
0000
0000
0000
,  // measure 23
0103
0000
0010
0100
0001
0000
0010
0000
0200
0000
0000
0000
2300
0000
0000
0000
,  // measure 24
3010
0000
0100
0010
1000
0000
0001
0000
0200
0000
0000
0320
0000
0000
2030
0000
,  // measure 25
3002
0000
0000
0023
0000
0000
0032
0000
0203
0000
0000
0000
1000
0000
0000
0000
,  // measure 26
0301
0100
0010
1000
0020
0000
1030
0000
1000
0100
0010
0001
0020
0000
0031
0000
,  // measure 27
0012
0000
0000
1000
0000
0000
0100
0000
2000
0000
0000
0000
3003
0000
0000
0000
,  // measure 28
0100
0001
1000
0001
0020
0000
0130
0000
0100
1000
0001
1000
0020
0000
0130
0000
,  // measure 29
0102
0000
0000
0010
0000
0000
1000
0000
0020
0000
0000
0000
0033
0000
0000
0000
,  // measure 30
0010
0001
1000
0001
0020
0000
0130
0000
0100
1000
0001
1000
0020
0000
0130
0000
,  // measure 31
2001
0000
0000
0100
0000
0000
0001
0000
0020
0000
0000
0000
3030
0000
0000
0000
,  // measure 32
1000
0010
0100
0001
0020
0000
0130
0000
0001
0010
0100
1000
0020
0000
0130
0000
,  // measure 33
0210
0000
0000
0001
0000
0000
1000
0000
0020
0000
0000
0000
0330
0000
0000
0000
,  // measure 34
0100
0010
1000
0001
0010
0100
1000
0010
0100
1000
0100
0010
1000
0001
0010
0100
,  // measure 35
0001
0100
0010
0001
0100
0010
1000
0001
0010
0100
1000
0010
0100
1000
0100
0001
,  // measure 36
0010
0100
1000
0001
0100
1000
0100
0010
1000
0100
0010
0001
0100
0010
1000
0001
,  // measure 37
M000
0M00
00M0
000M
M000
0M00
00M0
000M
M000
0M00
00M0
000M
M000
0M00
00M0
000M
M000
0M00
00M0
000M
M000
0M00
00M0
000M
M000
0M00
00M0
000M
M000
0M00
00M0
000M
M000
0M00
00M0
000M
M000
0M00
00M0
000M
M000
0M00
00M0
000M
M000
0M00
00M0
000M
M000
0M00
00M0
000M
M000
0M00
00M0
000M
M000
0M00
00M0
000M
M000
0M00
00M0
000M
M000
0M00
00M0
000M
M000
0M00
00M0
000M
M000
0M00
00M0
000M
M000
0M00
00M0
000M
M000
0M00
00M0
000M
M000
0M00
00M0
000M
M000
0M00
00M0
000M
M000
0M00
00M0
000M
M000
0M00
00M0
000M
M000
0M00
00M0
000M
M000
0M00
00M0
000M
M000
0M00
00M0
000M
M000
0M00
00M0
000M
M000
0M00
00M0
000M
M000
0000
0000
0000
0000
0000
0000
0000
0000
0000
0000
0000
0000
0000
0000
0000
0000
0000
0000
0000
0000
0000
0000
0000
1001
0000
0000
0000
0000
0000
0000
0000
0000
0000
0000
0000
0000
0000
0000
0000
0000
0000
0000
0000
0000
0000
0000
0000
0000
0000
0000
0000
0000
0000
0000
0000
0000
0000
0000
0000
0000
0000
0000
0000
0000
0000
0000
0000
0000
0000
0000
0000
,  // measure 38
1000
0000
0001
0100
0010
0000
1000
0100
0010
0001
0100
0010
1000
0000
0001
0010
,  // measure 39
0100
1000
0010
0100
1000
0000
0100
0001
1002
0000
0000
0010
0000
0000
0103
0000
,  // measure 40
0011
0000
0001
0010
0100
0000
1000
0100
0010
1000
0010
0100
1000
0000
0100
0010
,  // measure 41
0011
0010
0100
1100
0100
0010
1010
0010
0022
0033
0000
0000
2002
3003
0000
0000
,  // measure 42
0001
0100
0010
1000
0020
0000
1030
0010
0100
0001
0010
0100
2000
0000
3001
1000
,  // measure 43
1020
0000
0000
0001
0000
0000
1000
0000
0230
0000
0000
0000
0310
0000
0000
0000
,  // measure 44
0100
0001
0010
0100
2000
0000
3001
1000
0010
0100
1000
0100
0002
0000
1003
0001
,  // measure 45
0020
0000
0000
0230
0000
0000
2300
0000
3020
0000
0000
0032
0000
0000
0023
0000
,  // measure 46
0130
0001
0010
0100
2000
0000
3010
1000
0100
0010
0001
0100
2000
0000
3100
0010
,  // measure 47
2000
0000
0000
3002
0000
0000
0023
0000
2030
0000
0000
0000
3020
0000
0000
0000
,  // measure 48
0031
0100
0010
1000
0200
0000
0310
0100
1000
0010
0100
0001
0020
0000
1030
0010
,  // measure 49
0002
0000
0103
2000
0000
3100
0020
0000
2030
0000
3100
0002
0000
0103
0010
0000
,  // measure 50
0022
0033
0000
0000
;
