
//----- song ID: alwn -----//
#TITLE:A LOVE WE NEVER KNEW;
#ARTIST:Julianne & Edison;
#BANNER:A LOVE WE NEVER KNEW.png;
#BACKGROUND:A LOVE WE NEVER KNEW-bg.png;
#MUSIC:A LOVE WE NEVER KNEW.mp3;
#OFFSET:-4.151;
#SAMPLESTART:37.4;
#SAMPLELENGTH:14.1;
#DISPLAYBPM:137;
#BPMS:0.000=137.000;
;

//---------------dance-single - D.U.S ----------------
#NOTES:
     dance-single:
     :
     Challenge:
     16:
     :
0000
0000
0000
0000
,
0000
0000
0000
0000
,
1001
0000
0000
1000
0100
0000
1000
0000
1001
0000
0000
1000
0100
0000
1000
0000
,
1001
0000
0000
0001
0010
0000
0001
0000
1001
0000
0000
0001
0010
0000
0001
0000
,
1001
0000
0000
1000
0010
0000
1000
0000
1001
0000
0000
1000
0010
0000
1000
0000
,
1001
0000
0000
0001
0100
0000
0001
0000
1001
0000
0000
0001
0100
0000
0001
0000
,
1001
0000
0000
1000
0001
0000
1000
0000
1001
0000
0000
0001
1000
0000
0001
0000
,
0101
0000
0000
0100
0010
0000
0100
0000
0101
0000
0000
0100
0010
0000
0100
0000
,
0110
0000
0000
0010
1000
0000
0010
0000
0110
0000
0000
0010
1000
0000
0010
0000
,
1010
0000
0000
1000
0100
0000
1000
0000
1010
0000
0000
1000
0100
0000
1000
0000
,
0001
0101
1001
0101
1000
1100
1001
1100
,
0001
0011
0101
0011
0100
0110
0101
0110
,
1000
1010
1100
1010
0001
0101
0011
0101
,
1000
1100
1001
1010
0010
0110
1010
0110
,
1000
1100
0011
1100
0001
0101
1010
0101
,
1000
1001
0110
1001
0001
1001
0110
1001
,
1000
1010
0101
1010
0001
0011
1100
0011
,
1001
0000
0100
0000
0110
0000
1000
0000
1010
0000
0100
0010
1000
0000
1010
0000
,
0101
0000
0001
0100
0000
0000
0001
0000
1001
0000
0000
1000
0100
1000
0000
0000
,
1000
1100
0001
0101
,
1000
1010
0001
0011
,
1000
0000
1100
0000
0001
0000
0101
0010
,
1000
0100
0110
0010
0001
0100
0101
0000
,
0001
0101
1000
1100
,
0001
0011
1000
1010
,
0001
0000
0101
0000
1000
0000
1010
0100
,
0001
0010
0110
0100
1000
0010
0110
0100
,
0001
0000
0000
0001
0011
0000
0010
0000
0100
0000
0000
0100
1100
0000
1000
0000
,
1000
0000
0000
1000
1010
0000
0010
0000
0100
0000
0000
0100
0101
0000
0001
0000
,
0010
0000
0000
0010
0110
0000
0100
0000
1000
0000
0000
1000
1001
0000
0001
0000
,
0001
0000
0000
0001
0101
0000
0100
0000
1000
0000
0000
1000
1100
0000
0100
0000
,
0001
0000
0000
0001
0011
0000
0010
0000
0001
0000
0000
0001
0101
0000
0001
0000
,
0010
0000
0000
0010
0110
0000
0100
0000
1000
0000
0000
1000
1010
0000
0010
0000
,
0110
0000
0000
1000
0010
0000
1000
0000
0010
0000
0000
0100
0110
0000
0100
0000
,
1001
0000
1000
0001
1000
0001
1000
0001
1000
0001
1000
0001
1000
0001
1000
0001
,
1001
0000
1000
0100
0110
0000
0011
0000
0001
0100
0010
1000
1010
0000
1001
0000
,
0101
0000
0001
1000
1001
0000
1010
0000
1000
0100
0010
0001
0011
0000
0101
0100
,
0110
0000
0010
1000
1100
0000
0011
0000
0001
0100
0010
1000
1010
0000
0101
0000
,
1100
0000
0101
0000
1010
0000
0011
0000
0101
0001
0100
0001
0011
0000
0110
0100
,
1100
0000
1000
0100
0110
0000
1100
0000
1000
0100
0001
0100
0010
0000
0011
0000
,
0101
0000
0001
0100
1100
0000
0101
0000
1000
0100
0001
0100
1100
0000
0011
0001
,
1001
0000
0001
1000
0110
0000
1001
0000
0010
0001
0100
0010
1010
0000
0101
0000
,
1100
0000
0101
0000
1100
0000
1010
0000
0011
0000
0010
1000
0010
1000
0010
1000
,
0001
0100
0010
1000
0001
0100
0010
1000
0001
0100
0010
1000
0001
0100
0010
1000
,
0001
0010
0100
1000
0001
0010
0100
1000
0001
0010
0100
1000
0001
0010
0100
1000
,
0010
0100
0001
1000
0010
0100
0001
1000
0010
0100
0001
1000
0010
0100
0001
1000
,
0100
0010
0001
1000
0100
0010
0001
1000
0100
0010
0001
1000
0100
0010
0001
1000
,
0100
1000
0100
1000
0001
1000
0001
1000
0001
0100
0001
0100
0010
0100
0010
0100
,
0010
1000
0010
1000
0100
1000
0100
1000
0001
0010
0100
1000
0001
0010
0100
1000
,
0002
0000
0000
0003
,
0000
0000
0000
0000
;
