#TITLE:7th Wonder (LIVE);
#SUBTITLE:(Live from Tallin);
#ARTIST:Ira Losco;
#MUSIC:7th Wonder (LIVE).mp3;
#BANNER:7th Wonder (LIVE).png;
#BACKGROUND:7th Wonder (LIVE)-bg.png;
#LYRICSPATH:;
#CDTITLE:;
#SAMPLESTART:39.488;
#SAMPLELENGTH:20;
#OFFSET:-0.345;
#BPMS:0.000000=105.000000,
104.000000=52.500000,
116.000000=105.000000,
146.000000=52.500000,
149.000000=210.000000,
245.000000=105.000000
;
#STOPS:;
#TIMESIGNATURES:;
#BGCHANGES:;
#FGCHANGES:;
#ATTACKS:;
#SPEEDS:;
#SCROLLS:;
#KEYSOUNDS:;

//---------------dance-single - ---------------
#NOTES:
     dance-single:
     :
     Beginner:
     5:
     0,0,0,0,0:
// measure 0
0000
0000
0000
0000
,  // measure 1
0000
0000
0000
0000
,  // measure 2
0000
0000
0000
0000
,  // measure 3
0000
0000
2002
0000
,  // measure 4
0000
0000
0000
0000
,  // measure 5
0000
3003
1000
0000
,  // measure 6
0001
0000
1000
0000
,  // measure 7
1000
0000
0001
0000
,  // measure 8
1000
0000
0100
0000
,  // measure 9
0100
0000
1000
0000
,  // measure 10
0001
0000
0010
0000
,  // measure 11
0010
0000
0001
0000
,  // measure 12
1000
0000
0010
0000
,  // measure 13
0010
0000
2000
0000
,  // measure 14
0000
3000
0002
0000
,  // measure 15
0000
0003
2000
0000
,  // measure 16
0000
3000
0200
0000
,  // measure 17
0000
0300
1000
1000
,  // measure 18
1000
0000
0001
0001
,  // measure 19
0001
0000
1000
1000
,  // measure 20
1000
0000
0001
0001
,  // measure 21
0001
0000
0010
0000
,  // measure 22
0100
0000
1000
1000
,  // measure 23
1000
0000
2002
0000
,  // measure 24
0000
0000
0000
3003
,  // measure 25
1000
1000
1000
0000
,  // measure 26
1000
0000
0010
0000
,  // measure 27
0100
0000
0001
0000
,  // measure 28
2002
0000
3003
0000
,  // measure 29
1000
1000
1000
0000
,  // measure 30
0010
0010
0010
0000
,  // measure 31
0001
0001
0001
0000
,  // measure 32
1000
1000
1000
0000
,  // measure 33
0010
0000
0100
0000
,  // measure 34
0001
0001
0001
0000
,  // measure 35
2002
0000
0000
3003
,  // measure 36
1000
0000
0220
0000
,  // measure 37
0330
0110
0000
0000
,  // measure 38
0000
0010
0000
0010
,  // measure 39
0000
0010
0000
0000
,  // measure 40
0000
0100
0000
0100
,  // measure 41
0000
0100
0000
0000
,  // measure 42
0000
0001
0000
0001
,  // measure 43
0000
0001
0000
0000
,  // measure 44
0000
1000
0000
1000
,  // measure 45
0000
1000
0000
0000
,  // measure 46
0000
0010
0000
0000
,  // measure 47
0000
0100
0000
0000
,  // measure 48
0000
0010
0000
0010
,  // measure 49
0000
0010
0000
0000
,  // measure 50
0000
2002
0000
0000
,  // measure 51
0000
0000
0000
0000
,  // measure 52
0000
0000
0000
3003
,  // measure 53
0000
1000
0000
1000
,  // measure 54
0000
1000
0000
0000
,  // measure 55
0000
0001
0000
0001
,  // measure 56
0000
0001
0000
0000
,  // measure 57
0000
0100
0000
0100
,  // measure 58
0000
0100
0000
0000
,  // measure 59
0000
0010
0000
0010
,  // measure 60
0000
0010
0000
0000
,  // measure 61
0000
0110
0000
0000
;

//---------------dance-single - ---------------
#NOTES:
     dance-single:
     :
     Easy:
     8:
     0,0,0,0,0:
// measure 0
0000
0000
0000
0000
,  // measure 1
0000
0000
0000
0000
,  // measure 2
0000
0000
0000
0000
,  // measure 3
0000
0000
2002
0000
,  // measure 4
0000
0000
0000
0000
,  // measure 5
0000
3003
1000
0100
,  // measure 6
0010
0000
0010
0100
,  // measure 7
1000
0000
1000
0100
,  // measure 8
0001
0100
1000
0001
,  // measure 9
1001
0000
0001
0100
,  // measure 10
0010
0000
0010
0100
,  // measure 11
0001
0000
1000
0001
,  // measure 12
0100
0010
0100
0001
,  // measure 13
1001
0000
2000
0100
,  // measure 14
0000
3100
0002
0100
,  // measure 15
0000
0103
2000
0010
,  // measure 16
0000
3010
0002
0010
,  // measure 17
0000
0013
1000
0100
,  // measure 18
0001
0100
1000
0100
,  // measure 19
0010
0110
0010
0001
,  // measure 20
1000
0010
0100
0001
,  // measure 21
0100
0110
0010
0100
,  // measure 22
0100
0010
1000
0010
,  // measure 23
0100
0001
2002
0000
,  // measure 24
0000
3003
1000
0010
,  // measure 25
0100
0100
0100
0110
,  // measure 26
1000
0001
0100
0010
,  // measure 27
1000
0100
0010
0001
,  // measure 28
2002
3003
1000
1000
,  // measure 29
1000
0001
0100
0010
,  // measure 30
1000
0001
0010
0110
,  // measure 31
0010
0001
0100
0010
,  // measure 32
1000
0100
0001
0100
,  // measure 33
1000
0010
0100
0010
,  // measure 34
1000
0010
0001
0100
,  // measure 35
2000
0000
0000
0000
,  // measure 36
0001
0000
0002
0000
,  // measure 37
3003
0110
0000
0000
,  // measure 38
0000
0010
0000
0001
,  // measure 39
0000
0010
0000
0100
,  // measure 40
0000
0010
0000
0001
,  // measure 41
0000
1000
0000
1001
,  // measure 42
0000
0010
0000
1000
,  // measure 43
0000
0010
0000
0100
,  // measure 44
0000
0001
0000
1000
,  // measure 45
0000
0100
0000
1001
,  // measure 46
0000
1000
0000
0100
,  // measure 47
0000
0001
0000
0100
,  // measure 48
1000
0000
0010
0000
,  // measure 49
0100
0000
0001
0000
,  // measure 50
0000
2002
0000
0000
,  // measure 51
0000
0000
0000
0000
,  // measure 52
0000
0000
0000
3003
,  // measure 53
0000
1000
0000
0100
,  // measure 54
0000
0001
0000
0100
,  // measure 55
0000
1000
0000
0010
,  // measure 56
0000
0100
0000
0101
,  // measure 57
0000
0001
0000
0100
,  // measure 58
0000
1000
0000
0100
,  // measure 59
0000
0001
0000
0010
,  // measure 60
0000
0100
0000
1100
,  // measure 61
0000
2002
0000
3003
;

//---------------dance-single - ---------------
#NOTES:
     dance-single:
     :
     Medium:
     12:
     0,0,0,0,0:
// measure 0
0000
0000
0000
0000
,  // measure 1
0000
0000
0000
0000
,  // measure 2
0000
0000
0000
0000
,  // measure 3
0000
0000
2002
0000
,  // measure 4
0000
0000
0000
0000
,  // measure 5
0000
0000
3003
0000
1000
0000
0001
1000
,  // measure 6
0000
0001
1000
0000
0010
0000
0100
0010
,  // measure 7
0000
0100
0010
0000
1000
0001
0100
0000
,  // measure 8
0001
1000
0100
0000
1000
0001
0010
0002
,  // measure 9
0000
0000
1003
0000
1000
0000
0100
1000
,  // measure 10
0000
0100
1000
0000
0001
0000
0100
0001
,  // measure 11
0000
0100
0001
0000
1000
0001
0100
0000
,  // measure 12
0001
1000
0100
0020
0000
0001
0001
0002
,  // measure 13
0000
0000
0033
0000
0001
0020
0000
0230
,  // measure 14
0000
2300
0000
3020
0000
0230
0000
0302
,  // measure 15
0000
0023
0000
0230
0000
2300
0000
3020
,  // measure 16
0000
0230
0000
0302
0000
0023
0000
0032
,  // measure 17
0000
0103
0100
0020
0000
1030
1000
0002
,  // measure 18
0000
0103
0100
0001
0000
1000
0000
1001
,  // measure 19
0000
1000
1000
0020
0000
0130
0100
0002
,  // measure 20
0000
0103
0100
0001
0000
1000
0000
1001
,  // measure 21
0000
0000
2000
0000
3010
0010
0010
0000
,  // measure 22
0100
0100
0100
0000
0001
1000
0001
2000
,  // measure 23
0000
0002
3003
0000
1001
1000
0001
0100
,  // measure 24
0010
0000
0100
0010
0000
1000
0001
0000
,  // measure 25
0011
0001
1000
0200
0000
0000
1300
0000
,  // measure 26
1000
0001
0010
0001
1000
0010
0100
0010
,  // measure 27
1000
0100
0010
0001
1000
0010
0100
0001
,  // measure 28
2002
0000
0000
0000
0000
0000
3003
0000
1000
0000
0001
0000
0001
0000
1000
2000
,  // measure 29
0000
3010
0010
0200
0000
0301
0001
0010
,  // measure 30
0000
0001
0000
1001
0000
1000
1000
0020
,  // measure 31
0000
0130
0100
0002
0000
0013
0001
1000
,  // measure 32
0000
0010
0000
1010
0000
1000
0010
0000
,  // measure 33
0010
0010
0010
0000
0100
0100
0100
0000
,  // measure 34
0001
0100
0010
0200
0000
0002
0000
0303
,  // measure 35
2001
0001
0100
0100
,  // measure 36
0010
0000
0002
0000
,  // measure 37
3003
0110
0010
0000
,  // measure 38
1000
0000
0001
0000
,  // measure 39
0100
0000
0001
0010
,  // measure 40
0001
0000
1000
0000
,  // measure 41
1001
0000
1000
0000
,  // measure 42
0010
0000
0100
0000
,  // measure 43
0010
0000
1000
0100
,  // measure 44
1000
0000
0001
0000
,  // measure 45
1001
0000
0000
1000
,  // measure 46
0010
1000
1000
1000
,  // measure 47
0000
0001
0001
0001
,  // measure 48
0000
1000
0001
1000
,  // measure 49
0002
0000
2000
0000
,  // measure 50
3003
1001
1000
0010
,  // measure 51
0100
0010
1000
0100
,  // measure 52
0010
0000
0100
1000
,  // measure 53
0001
1001
1000
0010
,  // measure 54
0010
0100
0100
0001
,  // measure 55
0001
0010
0010
0100
,  // measure 56
0100
0010
0010
0001
,  // measure 57
0001
1000
1000
0010
,  // measure 58
0010
0100
0100
0010
,  // measure 59
0010
1000
1000
0100
,  // measure 60
0100
0010
0010
0001
,  // measure 61
0001
2002
0000
3003
;

//---------------dance-single - ---------------
#NOTES:
     dance-single:
     :
     Hard:
     15:
     0,0,0,0,0:
// measure 0
0000
0000
0000
0000
,  // measure 1
0000
0000
0000
0000
,  // measure 2
0000
0000
0000
0000
,  // measure 3
0000
0000
2002
0000
,  // measure 4
0000
0000
0000
0000
,  // measure 5
0000
0000
3003
0000
1000
0010
0100
0001
,  // measure 6
1000
0100
0010
0000
0100
0000
0000
0000
1000
0000
0001
0000
0010
0000
0100
0000
,  // measure 7
1000
0001
0100
0000
0010
0000
0000
0000
1000
0100
0010
0000
0100
0000
1000
0000
,  // measure 8
0001
0100
0010
0000
0100
0000
0001
0000
1000
0000
0001
0000
0100
0000
2001
0000
,  // measure 9
0001
0100
0010
3100
0001
0100
0010
1000
,  // measure 10
0001
1000
0100
0000
0010
0000
0000
0000
0001
0000
1000
0000
0010
0000
0001
0000
,  // measure 11
0001
0010
0100
0000
0001
0000
0000
0000
1000
0001
0100
0000
0010
0000
0100
0000
,  // measure 12
0001
1000
0100
0000
0010
0000
0200
0000
1000
0000
0010
0000
1000
0000
0301
0000
,  // measure 13
0100
1000
0010
0000
0100
0000
0001
0000
2000
0000
3001
0000
0002
0000
1003
0000
,  // measure 14
2000
3100
0200
0310
0020
1030
2000
3010
,  // measure 15
0020
0031
0002
0103
0200
0310
0020
1030
,  // measure 16
2000
3100
0200
0301
0002
0103
0200
1300
,  // measure 17
1000
0000
1001
0000
0110
0000
1000
0100
0010
0000
0100
0000
1001
0000
0001
0100
,  // measure 18
0010
0000
0100
0000
1001
0000
1000
0100
0010
0000
0001
0100
0010
0000
1010
0000
,  // measure 19
1000
0000
0001
0000
0100
0000
0010
1000
0001
0000
0100
0000
1001
0000
1000
0100
,  // measure 20
0010
0000
0100
0000
1001
0000
0001
1000
0100
0000
1000
0001
0100
0000
1001
0000
,  // measure 21
1000
0000
0001
0000
0100
0000
0010
0000
1000
0100
1000
0000
1100
0000
1000
0000
,  // measure 22
0001
0100
0001
0000
0101
0000
0001
0000
1010
0000
0011
0000
1100
0000
0101
0000
,  // measure 23
1001
0110
2000
3001
1001
1000
0010
0001
,  // measure 24
0010
1000
0100
0020
0030
0001
1000
0100
,  // measure 25
1010
0000
0011
0000
0101
0000
1100
0000
2000
3000
0020
0030
0002
0003
0200
0300
,  // measure 26
1000
0001
0000
0100
0000
0001
1000
0100
0000
0100
1000
0010
0000
0000
0010
1000
,  // measure 27
1010
0010
1000
0001
0000
0010
0001
0010
0100
2000
0000
0000
0000
3000
0000
0001
,  // measure 28
0110
0000
2000
0000
0002
0000
0000
0000
0000
0000
0000
0000
3003
0000
0000
0000
1001
0000
1000
0001
1000
0000
1100
0000
1000
0010
1010
0000
1001
0000
1000
0100
,  // measure 29
0010
0000
0100
0000
1100
0000
1000
0010
0100
0000
0001
0000
0101
0000
0001
0100
,  // measure 30
0010
0000
1000
0001
0010
0000
0011
0000
0100
0000
1000
0000
0001
0000
1000
0010
,  // measure 31
0100
0000
0001
0000
1001
0000
0001
0010
0100
0000
1000
0000
1001
0000
1000
0010
,  // measure 32
0100
0000
0001
0010
0100
0000
1200
0000
0010
0000
0001
0000
1300
0000
0001
0000
,  // measure 33
0100
0010
1000
0000
0001
0000
0011
0000
0100
1000
0100
0000
0001
0000
0100
0000
,  // measure 34
1010
0110
0101
0011
0110
1100
2000
3001
,  // measure 35
1001
1000
0010
0001
0010
1000
0100
0010
,  // measure 36
0000
0000
0001
0000
1000
0000
0200
0000
0000
0000
0000
0020
0000
0000
0000
0000
,  // measure 37
0330
1001
1000
0010
,  // measure 38
0100
0001
0010
0000
0100
0000
1100
0000
,  // measure 39
1000
0010
0100
0000
0001
0000
0101
0000
,  // measure 40
0100
0010
1000
0000
0001
0010
0100
0000
,  // measure 41
1100
1000
1100
0001
,  // measure 42
0010
0100
1000
0000
0001
0000
0100
0000
,  // measure 43
0010
0100
0010
0000
1000
0000
0100
0000
,  // measure 44
0001
0100
1000
0000
0001
0100
1000
0000
,  // measure 45
0110
0020
2030
3200
,  // measure 46
0320
0000
0031
0100
0001
0000
1010
0000
,  // measure 47
1000
0000
1000
0100
1000
0000
1100
0000
,  // measure 48
1000
1010
0011
0101
,  // measure 49
0021
0100
1000
0100
,  // measure 50
0031
0011
1000
0010
,  // measure 51
0100
0001
1000
0100
,  // measure 52
0020
0030
0010
0001
,  // measure 53
0010
0011
0011
0101
,  // measure 54
0101
1010
1010
1100
,  // measure 55
1100
1001
0101
1100
,  // measure 56
1001
0000
1000
0010
0100
0000
0101
0000
,  // measure 57
1010
1100
1100
0011
,  // measure 58
0011
1001
1001
1010
,  // measure 59
1010
0011
1100
1010
,  // measure 60
0101
0000
1000
0010
0100
0000
0001
0100
,  // measure 61
0010
1000
2002
0000
0000
0000
3003
0000
;
