#TITLE:01_ballade;
#SUBTITLE:(Hoshi no Kakera - High Pitched);
#ARTIST:Hatsune Miku;
#MUSIC:01_ballade.mp3;
#BANNER:01_ballade.png;
#BACKGROUND:01_ballade-bg.png;
#LYRICSPATH:;
#CDTITLE:;
#SAMPLESTART:46.151;
#SAMPLELENGTH:15.616999999999997;
#OFFSET:-0.124;
#BPMS:0.000000=146.000000;
#STOPS:;
#TIMESIGNATURES:;
#BGCHANGES:;
#FGCHANGES:;
#ATTACKS:;
#SPEEDS:;
#SCROLLS:;
#KEYSOUNDS:;

//---------------dance-single - D.U.S---------------
#NOTES:
     dance-single:
     The very first time that I used SMEditor on a website. Please enjoy!:
     Beginner:
     4:
     0,0,0,0,0:
// measure 0
0000
0000
0000
0000
,  // measure 1
0000
0000
0000
0000
,  // measure 2
0000
0000
0000
0000
,  // measure 3
0000
0000
0000
0000
,  // measure 4
0000
0000
0000
0000
,  // measure 5
1000
0000
0000
0000
,  // measure 6
1000
0000
0000
0000
,  // measure 7
0001
0000
0000
0000
,  // measure 8
0001
0000
0000
0000
,  // measure 9
0100
0000
0000
0000
,  // measure 10
0100
0000
0000
0000
,  // measure 11
0010
0000
0000
0000
,  // measure 12
0010
0000
0000
0000
,  // measure 13
2000
0000
3000
0000
,  // measure 14
0002
0000
0003
0000
,  // measure 15
2000
0000
3000
0000
,  // measure 16
0002
0000
0003
0000
,  // measure 17
0200
0000
0300
0000
,  // measure 18
0020
0000
0030
0000
,  // measure 19
0200
0000
0300
0000
,  // measure 20
0020
0000
0030
0000
,  // measure 21
1000
1000
1000
0000
,  // measure 22
1000
1000
1000
0000
,  // measure 23
0001
0001
0001
0000
,  // measure 24
0001
0001
0001
0000
,  // measure 25
0100
0100
0100
0000
,  // measure 26
0100
0100
0100
0000
,  // measure 27
0010
0010
0010
0000
,  // measure 28
0020
0000
0030
0000
,  // measure 29
2000
0000
0000
3000
,  // measure 30
0002
0000
0000
0003
,  // measure 31
2000
0000
0000
3000
,  // measure 32
0002
0000
0000
0003
,  // measure 33
0200
0000
0000
0300
,  // measure 34
0200
0000
0000
0300
,  // measure 35
0020
0000
0000
0030
,  // measure 36
0020
0000
0000
0030
,  // measure 37
2000
0000
0000
3000
,  // measure 38
0002
0000
0000
0003
,  // measure 39
2000
0000
0000
3000
,  // measure 40
0002
0000
0000
0003
,  // measure 41
0200
0000
0000
0300
,  // measure 42
0020
0000
0000
0030
,  // measure 43
0020
0000
0000
0030
,  // measure 44
0200
0000
0000
0300
,  // measure 45
0200
0000
0000
0000
,  // measure 46
0000
0000
0000
0300
,  // measure 47
0002
0000
0000
0000
,  // measure 48
0000
0000
0000
0003
,  // measure 49
0200
0000
0000
0000
,  // measure 50
0000
0000
0000
0300
,  // measure 51
0100
0000
0100
0000
,  // measure 52
0010
0000
0010
0000
,  // measure 53
0100
0100
0100
0000
,  // measure 54
0100
0100
0100
0000
,  // measure 55
0010
0010
0010
0000
,  // measure 56
0010
0010
0010
0000
,  // measure 57
0110
0000
0000
0000
;

//---------------dance-single - ---------------
#NOTES:
     dance-single:
     :
     Easy:
     8:
     0,0,0,0,0:
// measure 0
0000
0000
0000
0000
,  // measure 1
0000
0000
0000
0000
,  // measure 2
0000
0000
0000
0000
,  // measure 3
0000
0000
0000
0000
,  // measure 4
0000
0000
0000
0000
,  // measure 5
2000
0000
0000
3000
,  // measure 6
0002
0000
0000
0003
,  // measure 7
0200
0000
0000
0300
,  // measure 8
0020
0000
0000
0030
,  // measure 9
2000
0000
0000
3000
,  // measure 10
0020
0000
0000
0030
,  // measure 11
0200
0000
0000
0300
,  // measure 12
0002
0000
0000
0003
,  // measure 13
1000
0000
1000
0000
,  // measure 14
0100
0000
0100
0000
,  // measure 15
0010
0000
0010
0000
,  // measure 16
0100
0000
0100
0000
,  // measure 17
1000
0000
1000
0000
,  // measure 18
0010
0000
0010
0000
,  // measure 19
0100
0000
0100
0000
,  // measure 20
0010
0010
0010
0000
,  // measure 21
1000
0100
1000
0100
,  // measure 22
0001
0100
0001
0100
,  // measure 23
1000
0100
0001
0100
,  // measure 24
1000
0010
0001
1010
,  // measure 25
0001
0010
0001
0010
,  // measure 26
0100
1000
0100
1000
,  // measure 27
0100
1000
0010
1000
,  // measure 28
0200
0000
2300
0000
,  // measure 29
3002
0010
0010
0013
,  // measure 30
0020
0100
0100
0130
,  // measure 31
0200
1000
1000
1300
,  // measure 32
2000
0001
0001
3001
,  // measure 33
0002
0100
0100
0103
,  // measure 34
0200
0010
0010
0310
,  // measure 35
0020
1000
1000
1030
,  // measure 36
2000
0001
0001
3001
,  // measure 37
0002
0010
0010
0013
,  // measure 38
0020
1000
1000
1030
,  // measure 39
2000
0010
0010
3010
,  // measure 40
0020
0001
0001
0031
,  // measure 41
0002
0100
0100
0103
,  // measure 42
0200
0010
0010
0310
,  // measure 43
0020
1000
1000
1030
,  // measure 44
2000
0000
3002
0000
,  // measure 45
0203
0000
0000
0000
0020
0000
0000
0000
0000
0000
0000
0000
,  // measure 46
0000
0330
0020
0000
,  // measure 47
2030
0000
3200
0000
,  // measure 48
0302
0000
0203
0000
,  // measure 49
2300
0000
0000
0000
0002
0000
0000
0000
0000
0000
0000
0000
,  // measure 50
0000
0000
0000
3003
,  // measure 51
2000
0000
3200
0000
,  // measure 52
0320
0000
0032
0000
,  // measure 53
0023
0001
1000
0031
,  // measure 54
0002
1000
0010
1003
,  // measure 55
2000
0100
0010
3100
,  // measure 56
0200
0000
0302
0000
0023
0000
2030
3000
,  // measure 57
1001
0000
0000
0000
;

//---------------dance-single - ---------------
#NOTES:
     dance-single:
     :
     Medium:
     11:
     0,0,0,0,0:
// measure 0
0000
0000
0000
0000
,  // measure 1
0000
0000
0000
0000
,  // measure 2
0000
0000
0000
0000
,  // measure 3
0000
0000
0000
0000
,  // measure 4
0000
0000
1000
0001
,  // measure 5
2002
0000
3003
0000
0001
0001
0010
0002
,  // measure 6
0000
0003
1000
0010
,  // measure 7
0020
0030
0010
0100
,  // measure 8
0020
0030
0000
0020
0030
0000
1000
0002
,  // measure 9
0000
0000
0003
1000
,  // measure 10
2000
3000
0001
0200
0000
0300
0010
0000
,  // measure 11
0200
0000
0300
0100
,  // measure 12
0002
0000
0003
2000
0000
3000
0200
0300
,  // measure 13
0010
0001
0100
0010
1000
0010
0100
0001
,  // measure 14
0010
0100
1000
0001
0100
0010
0100
0001
,  // measure 15
0010
0100
1000
0100
0001
0100
1000
0010
,  // measure 16
0100
0010
1000
0001
0010
0100
0010
0001
,  // measure 17
1000
0010
0100
0010
1000
0100
0010
0100
,  // measure 18
1000
0010
0100
0001
0100
0010
1000
0100
,  // measure 19
0010
0001
0010
0100
0010
0001
0100
0010
,  // measure 20
1000
0100
0010
1000
0010
0100
1000
0010
,  // measure 21
0100
0001
0010
0100
0010
0001
0100
0010
,  // measure 22
1000
0100
0010
0100
1000
0010
0100
0001
,  // measure 23
0010
0100
1000
0100
0010
0001
0100
0010
,  // measure 24
1000
0010
0100
1000
0100
0010
1000
0100
,  // measure 25
0001
0100
1000
0010
0100
0001
0010
0100
,  // measure 26
0010
0001
0100
0010
1000
0100
0010
0100
,  // measure 27
1000
0010
0100
0001
0010
0100
1000
0010
,  // measure 28
0200
0000
0302
0000
,  // measure 29
2003
0000
0000
0000
0000
0000
3010
0000
0010
0000
0010
0000
,  // measure 30
0200
0000
0000
0000
0000
0000
0300
0000
0001
0000
0001
0000
,  // measure 31
0200
0000
0000
0000
0000
0000
0300
0000
0010
0000
0010
0000
,  // measure 32
2000
0000
0000
0000
0000
0000
3001
0000
0100
0000
0010
0000
,  // measure 33
2000
0000
3200
0000
,  // measure 34
0302
0000
0000
0000
0000
0000
0103
0000
1000
0000
0010
0000
,  // measure 35
0002
0000
0000
0000
0000
0000
0000
0000
0000
0000
0000
0000
0000
0000
0000
0000
0000
0000
0000
0000
0000
0000
0000
0000
0000
0000
0000
0000
0000
0000
0000
0000
0000
0000
0000
0000
0000
0000
0000
0000
0000
0000
0000
0000
0000
0000
0000
0000
0003
0000
0000
0000
0000
0000
0000
0000
0000
0000
0000
0000
0000
0000
0000
0000
0020
0000
0000
0000
0000
0000
0000
0000
0000
0000
0000
0000
0000
0000
0000
0000
0000
0000
0000
0000
0000
0000
0000
0000
0000
0000
0000
0000
0000
0000
0000
0000
0030
0000
0000
0000
0000
0000
0000
0000
0000
0000
0000
0000
0000
0000
0000
0000
0000
0000
0000
0000
0000
0000
0000
0000
0000
0000
0000
0010
0000
0000
0000
0000
0000
0000
0000
0000
0000
0000
0000
0000
0000
0000
0000
0000
0000
0000
0000
0000
0000
0000
0000
0000
0000
0000
0000
0000
0000
0000
0000
0000
0000
0000
0000
0000
1000
0000
0000
0000
0000
0000
0000
0000
0000
0000
0000
0000
0000
0000
0000
0000
0000
0000
0000
0000
0000
0000
0000
0000
0000
0000
0000
0000
0000
0000
0000
0000
,  // measure 36
0002
0000
0000
0000
0000
0000
0003
0000
1000
0000
0010
0000
,  // measure 37
0200
0000
0000
0000
0000
0000
0301
0000
0100
0000
0010
0000
,  // measure 38
0200
0000
0000
0000
0000
0000
0300
0000
0001
0000
0010
0000
,  // measure 39
0020
0000
0000
0030
0100
0000
0000
0000
0100
0000
1000
0000
,  // measure 40
0002
0000
0000
0000
0000
0000
0003
0000
0001
0000
1000
0000
,  // measure 41
0100
0000
0010
0000
0020
0000
0030
0000
0100
0000
2000
0000
,  // measure 42
0000
0000
0000
3000
0000
0000
0010
0000
0010
0000
0010
0000
,  // measure 43
0002
0000
0203
0000
,  // measure 44
0320
0000
0230
0000
,  // measure 45
0302
0000
0000
0000
2000
0000
0000
0000
0000
0000
0000
0000
,  // measure 46
0000
0000
0000
3003
,  // measure 47
2000
0000
3002
0000
,  // measure 48
0203
0000
0000
0300
0000
0000
0100
0000
0100
0000
0010
0000
,  // measure 49
0100
0000
0001
0000
0200
0000
0000
0000
0000
0000
0000
0000
,  // measure 50
0000
0000
0000
0000
,  // measure 51
0301
0100
1000
0100
,  // measure 52
0002
0000
2003
0000
,  // measure 53
3010
1000
0100
0010
0001
0100
0010
0100
,  // measure 54
0001
0010
0100
1000
0010
0100
0010
1000
,  // measure 55
0100
0010
0001
0100
0010
1000
0100
1000
,  // measure 56
0010
0100
1000
0100
0010
1000
0001
0010
,  // measure 57
0022
0000
0000
0000
,  // measure 58
0033
0000
0000
0000
;

//---------------dance-single - ---------------
#NOTES:
     dance-single:
     :
     Hard:
     15:
     0,0,0,0,0:
// measure 0
0000
0000
0000
0000
,  // measure 1
0000
0000
0000
0000
,  // measure 2
0000
0000
0000
0000
,  // measure 3
0000
0000
0000
0000
,  // measure 4
0000
0000
1000
0001
,  // measure 5
2002
0000
3003
0000
0010
0010
1000
0020
,  // measure 6
0000
0000
0030
0000
0200
0300
0020
0030
,  // measure 7
0200
0300
0001
0100
,  // measure 8
0020
0000
0030
0200
0000
0300
0010
0200
,  // measure 9
0000
0000
0300
0001
,  // measure 10
1000
0000
0100
0020
0000
0030
0001
0000
,  // measure 11
0200
0000
0300
0100
,  // measure 12
0020
0000
0030
0200
0000
0300
0002
0003
,  // measure 13
1000
0001
1000
0000
1000
0001
1000
0000
1000
0001
1000
0000
1000
0001
1000
0000
,  // measure 14
1000
0100
1000
0000
1000
0100
1000
0000
1000
0100
1000
0000
1000
0100
1000
0000
,  // measure 15
0100
0010
0100
0000
0100
0010
0100
0000
0100
0010
0100
0000
0100
0010
0100
0000
,  // measure 16
0010
0001
0010
0000
0010
0001
0010
0000
0010
0001
0010
0000
0010
0001
0010
0000
,  // measure 17
0001
1000
0001
0000
0001
1000
0001
0000
0001
1000
0001
0000
0001
1000
0001
0000
,  // measure 18
0100
0001
0100
0000
0100
0001
0100
0000
0100
0001
0100
0000
0100
0001
0100
0000
,  // measure 19
0100
0010
0100
0000
0100
0010
0100
0000
0100
0010
0100
0000
0100
0010
0100
0000
,  // measure 20
0010
1000
0010
0000
0010
1000
0010
0000
0010
1000
0010
0000
0010
1000
0010
0000
,  // measure 21
1000
0100
0010
0001
1000
0100
0010
0001
1000
0010
0100
0001
1000
0000
0000
0000
,  // measure 22
0001
0010
0100
1000
0001
0010
0100
1000
0001
1000
0010
0100
0001
0000
0000
0000
,  // measure 23
0100
0010
1000
0001
0100
0010
1000
0001
0010
0100
1000
0001
0100
0000
0000
0000
,  // measure 24
0010
0100
0001
1000
0010
0100
0001
1000
0010
1000
0001
0010
0100
0000
0000
0000
,  // measure 25
0100
1000
0001
0010
0100
1000
0001
0010
0100
0010
0001
1000
0010
0000
0000
0000
,  // measure 26
0010
1000
0001
0100
0010
1000
0001
0100
0010
0100
0001
0010
0100
0000
0000
0000
,  // measure 27
0100
0010
0001
1000
0100
0010
0001
1000
0100
1000
0010
0100
0001
0000
0000
0000
,  // measure 28
0200
0300
0000
0000
0200
0300
0000
0000
0010
0000
0010
0000
0010
1000
0010
1000
,  // measure 29
0020
0030
2000
3000
0200
0300
0020
0030
0200
0300
2000
3000
0020
0030
0200
0300
,  // measure 30
0002
0003
0020
0030
0200
0300
0020
0030
0002
0003
2000
3000
0020
0030
0200
0300
,  // measure 31
0020
0030
2000
3000
0200
0300
0002
0003
0200
0300
2000
3000
0020
0030
0200
0300
,  // measure 32
0020
0030
2000
3000
0200
0300
0002
0003
0200
0300
2000
3000
0020
0030
0200
0300
,  // measure 33
0020
0030
2000
3000
0200
0300
0020
0030
0200
0300
2000
3000
0020
0030
0200
0300
,  // measure 34
0020
0030
2000
3000
0200
0300
0002
0003
0200
0300
0020
0030
0002
0003
0020
0030
,  // measure 35
0200
0300
2000
3000
0020
0030
0200
0300
0002
0003
0020
0030
0002
0003
0200
0300
,  // measure 36
0020
0030
0002
0003
0020
0030
0200
0300
0002
0003
0020
0030
2000
3000
0020
0030
,  // measure 37
0002
0003
0200
0300
2000
3000
0200
0300
0002
0003
0020
0030
0200
0300
0020
0030
,  // measure 38
0002
0003
0200
0300
2000
3000
0200
0300
0002
0003
0020
0030
0200
0300
2000
3000
,  // measure 39
0020
0030
0200
0300
2000
3000
0200
0300
0020
0030
2000
3000
0200
0300
0002
0003
,  // measure 40
0200
0300
2000
3000
0020
0030
0200
0300
0020
0030
2000
3000
0200
0300
0002
0003
,  // measure 41
0200
0300
2000
3000
0020
0030
0200
0300
0002
0003
0200
0300
0020
0030
2000
3000
,  // measure 42
0200
0300
0002
0003
0200
0300
2000
3000
0020
0030
0200
0300
0002
0003
0020
0030
,  // measure 43
0002
0003
0200
0300
0020
0030
2000
3000
0200
0300
0020
0030
0002
0003
0200
0300
,  // measure 44
0020
0030
2000
3000
0002
0003
0020
0030
0200
0300
0020
0030
0002
0003
2000
3000
,  // measure 45
0020
0030
0200
0300
0002
0003
0020
0030
0200
0300
2000
3000
0020
0030
0200
0300
,  // measure 46
0002
0003
0020
0030
0200
0300
0002
0003
0200
0300
0020
0030
0002
0003
0200
0300
,  // measure 47
0020
0030
2000
3000
0200
0300
0002
0003
0200
0300
2000
3000
0020
0030
0200
0300
,  // measure 48
0002
0003
0020
0030
0200
0300
0020
0030
0002
0003
0200
0300
0020
0030
2000
3000
,  // measure 49
0200
0300
0002
0003
0200
0300
0020
0030
0002
0003
0200
0300
2000
3000
0200
0300
,  // measure 50
0002
0003
0020
0030
0200
0300
0002
0003
0200
0300
0020
0030
0002
0003
0200
0300
,  // measure 51
0020
0030
2000
3000
0200
0300
0002
0003
0200
0300
0020
0030
0002
0003
2000
3000
,  // measure 52
0020
0030
0200
0300
0002
0003
0020
0030
0200
0300
2000
3000
0020
0030
2000
3000
,  // measure 53
1000
0001
0100
0010
0001
0010
0100
0001
0010
0100
0010
0001
1000
0000
0000
0000
,  // measure 54
1000
0010
0100
0001
0010
0100
1000
0010
0100
1000
0100
0010
1000
0000
0000
0000
,  // measure 55
1000
0100
0010
0100
1000
0001
0100
0010
1000
0100
0010
1000
0010
0100
1000
0010
,  // measure 56
0100
0001
0010
0100
1000
0001
0100
0010
1000
0100
0001
0100
1000
0010
0100
0001
,  // measure 57
2002
0000
0000
0000
,  // measure 58
3003
0000
0000
0000
;
