
//----- song ID: dfyu -----//
#TITLE:(I Would) Die For You;
#ARTIST:Antique;
#BANNER:(I Would) Die For You.png;
#BACKGROUND:(I Would) Die For You-bg.png;
#MUSIC:(I Would) Die For You.mp3;
#OFFSET:-0.831;
#SAMPLESTART:62.0;
#SAMPLELENGTH:18.2;
#DISPLAYBPM:124;
#BPMS:0.000=124.000;
;

//---------------dance-single - D.U.S ----------------
#NOTES:
     dance-single:
     :
     Beginner:
     3:
     :
0000
0000
0000
0000
,
0000
0000
0000
0000
,
0000
0000
0000
0000
,
0000
0000
0000
0000
,
0000
0000
0000
0000
,
0000
0000
0000
0000
,
0000
0000
0000
0000
,
2002
0000
0000
3003
,
2000
0000
0000
3000
,
0002
0000
0000
0003
,
0200
0000
0000
0300
,
0020
0000
0000
0030
,
2000
0000
0000
3000
,
0002
0000
0000
0003
,
0020
0000
0000
0030
,
0200
0000
0000
0300
,
1000
0000
1000
0000
,
1000
0000
1000
0000
,
0001
0000
0001
0000
,
0001
0000
0001
0000
,
0100
0000
0100
0000
,
0100
0000
0100
0000
,
0010
0000
0010
0000
,
0010
0000
0010
0000
,
1000
0000
1000
0000
,
0001
0000
0001
0000
,
1000
0000
1000
0000
,
0010
0000
0010
0000
,
1000
0000
1000
0000
,
0100
0000
0100
0000
,
1000
0000
0001
0000
,
2002
0000
0000
3003
,
1000
1000
1000
0000
,
1000
1000
1000
0000
,
0001
0001
0001
0000
,
0001
0001
0001
0000
,
0100
0100
0100
0000
,
0100
0100
0100
0000
,
0010
0010
0010
0000
,
0020
0000
0000
0030
,
1000
1000
1000
0000
,
0010
0010
0010
0000
,
0100
0100
0100
0000
,
0001
0001
0001
0000
,
1000
1000
1000
0000
,
0001
0001
0001
0000
,
0100
0100
0100
0000
,
0010
0010
0010
0010
,
0020
0000
0000
0030
,
2000
0000
0000
3000
,
0002
0000
0000
0003
,
0200
0000
0000
0300
,
0020
0000
0000
0030
,
2000
0000
0000
3000
,
0200
0000
0000
0300
,
0020
0000
0000
0030
,
0002
0000
2000
3003
,
1001
0000
0000
0000
,
0000
0000
0000
0000
;

//---------------dance-single - D.U.S ----------------
#NOTES:
     dance-single:
     :
     Easy:
     6:
     :
0000
0000
0000
0000
,
0000
0000
0000
0000
,
0000
0000
0000
0000
,
0000
0000
0000
0000
,
0000
0000
0000
0000
,
0000
0000
0000
0000
,
0000
0000
0000
0000
,
2002
0000
0000
3003
,
1000
0100
1000
0000
,
0100
1000
0100
0000
,
1000
0001
1000
0000
,
0001
1000
0001
0000
,
0010
0100
0010
0000
,
0100
0010
0100
0000
,
1000
0010
1000
0000
,
0010
1000
0010
0000
,
1000
0100
0010
0100
,
1000
0010
0100
0010
,
1000
0001
0010
0001
,
1000
0010
0100
0010
,
1000
0100
0010
0001
,
0001
0010
0100
1000
,
0001
0100
0010
1000
,
0002
0100
0010
1003
,
0100
0010
1000
0001
,
0010
0100
1000
0001
,
0100
0010
1000
0100
,
0001
0100
1000
0100
,
0010
0001
0100
0010
,
1000
0100
0010
0001
,
1000
0010
0100
0001
,
2002
0000
0000
3003
,
1000
0100
0001
0100
,
1000
0010
0001
0010
,
1000
0100
0010
1000
,
0010
0001
0100
0010
,
1000
0010
0001
0010
,
1000
0100
0010
0100
,
1000
0001
0100
0010
,
0220
0000
0000
0330
,
1000
0010
0100
0001
,
0001
0010
0100
1000
,
1000
0100
0010
0001
,
0100
0010
1000
0001
,
0010
0100
1000
0001
,
0100
0010
1000
0001
,
0010
0100
0001
0100
,
1000
0010
0100
0001
,
1000
0001
1000
0001
,
1000
0100
1000
0100
,
0010
0001
0010
0001
,
0100
0001
0100
0001
,
0010
1000
0010
1000
,
0010
0001
0010
0001
,
0100
0010
1000
0001
,
0010
0100
0010
0001
,
2000
0000
0002
3003
,
1001
0000
0000
0000
,
0000
0000
0000
0000
;

//---------------dance-single - D.U.S ----------------
#NOTES:
     dance-single:
     :
     Medium:
     10:
     :
0000
0000
0000
0000
,
0000
0000
0000
0000
,
0000
0000
0000
0000
,
0000
0000
0000
0000
,
0000
0000
0000
0000
,
0000
0000
0000
0000
,
0000
0000
0000
0000
,
2002
0000
0000
3003
,
1000
0000
1000
0100
0010
0000
0100
0000
,
1000
0010
0100
0001
,
0001
0000
0001
0100
0010
0000
0100
0000
,
0001
0100
0010
1000
,
0001
0000
0001
1000
0100
0000
0100
0000
,
0010
0001
1000
0100
,
0001
0100
1000
0000
1000
0100
0001
0000
,
0001
0100
1000
0000
1000
0010
0001
0000
,
1000
0000
0001
0000
1000
0100
0010
0000
,
0001
0000
1000
0000
0001
0100
0010
0000
,
1000
0000
0010
0000
0100
0001
0010
0000
,
0001
0000
0100
0000
0010
1000
0100
0000
,
1000
0001
1000
0001
1000
0000
1001
0000
,
0100
0010
0100
0010
0100
0000
0110
0000
,
0001
0100
1000
0000
1000
0100
0001
0000
,
0002
0000
0023
0000
2030
0000
3200
0000
,
0301
0000
0100
0000
0010
0100
0001
0000
,
1000
0000
0100
0000
0010
0100
1000
0000
,
0010
0000
1000
0000
0100
0001
0100
0000
,
1000
0000
0010
0000
0001
0010
0001
0000
,
0010
1000
0010
1000
0010
0000
1010
0000
,
0001
0100
0001
0100
0001
0000
0101
0000
,
0001
1000
0100
0000
0001
0010
1000
0000
,
2002
0000
0000
0000
3003
1000
0010
0100
,
0220
0000
0330
1000
0200
0000
0300
0000
,
2000
0000
3010
0000
0002
0000
0013
0000
,
2000
0000
3000
0100
0002
0000
0003
0000
,
0200
0000
1300
0000
0020
0000
0130
0000
,
0002
0000
0003
1000
0200
0000
0300
0000
,
1000
0001
0100
0010
2000
0000
3100
0000
,
1001
1000
0100
0000
1001
0001
0100
0000
,
0220
0000
0000
0330
,
2020
0000
3030
0100
0002
0000
0003
0000
,
2001
0000
3100
0000
1002
0000
0103
0000
,
2002
0000
3003
0100
0020
0000
0030
0000
,
2000
0000
3010
0000
0002
0000
0103
0000
,
2000
0000
3000
0100
0020
0000
0030
0000
,
1000
0001
0100
0010
1000
0000
1001
0000
,
1010
1000
0010
0000
0101
0001
0100
0000
,
0001
0100
1000
0010
0001
0000
1001
0000
,
1000
0100
0010
0100
1000
0100
1000
0000
,
0001
0100
0010
0100
0001
0100
0001
0000
,
0010
0100
1000
0100
0010
0100
0010
0000
,
1000
0010
0100
0010
1000
0010
1000
0000
,
1000
0001
1000
0001
0010
0001
0010
0000
,
0100
0010
0100
0010
0001
0010
0001
0000
,
1000
0010
1000
0010
0001
0010
0001
0000
,
0001
0010
1000
0010
0001
0010
1000
0100
,
0002
0000
0003
0100
2000
0000
3000
0000
,
2002
0000
0000
0000
0000
0000
3003
0000
,
0000
0000
0000
0000
0000
0000
0000
0000
;

//---------------dance-single - D.U.S ----------------
#NOTES:
     dance-single:
     :
     Hard:
     14:
     :
0000
0000
0000
0000
,
0000
0000
0000
0000
,
0000
0000
0000
0000
,
0000
0000
0000
0000
,
0000
0000
0000
0000
,
0000
0000
0000
0000
,
0000
0000
0000
0000
,
2002
0000
0000
3003
,
1001
0000
1000
0100
0010
0000
0100
0000
1000
0000
0000
0000
1001
0000
0000
0000
,
1001
0000
0001
0100
0010
0000
0100
0000
0001
0000
0000
0000
1001
0000
0000
0000
,
0110
0000
1000
0100
0010
0000
0100
0000
1000
0000
0000
0000
0110
0000
0000
0000
,
0110
0000
0100
0010
0001
0000
0010
0000
0100
0000
0000
0000
0110
0000
0000
0000
,
1100
0000
0100
1000
0010
0000
0100
0000
0001
0000
0000
0000
0101
0000
0000
0000
,
0101
0000
0100
0001
0010
0000
0100
0000
1000
0000
0000
0000
1100
0000
0000
0000
,
1000
0000
0100
1000
0001
0000
0100
0000
0001
0000
0100
0001
1000
0000
0100
0000
,
1000
0000
0010
0100
0001
0000
0001
0100
0010
0000
0100
0000
0110
0000
0000
0000
,
1001
0000
1000
0001
0000
0001
0000
0001
0002
0000
0000
0000
0013
0000
0000
0000
,
0011
0000
0010
0100
0000
0100
0000
0100
0200
0000
0000
0000
0310
0000
0000
0000
,
1100
0000
0100
1000
0000
1000
0000
1000
2000
0000
0000
0000
3001
0000
0000
0000
,
0101
0000
0100
0001
0000
0001
0000
0001
0002
0000
0000
0000
0013
0000
0000
0000
,
0110
0000
0010
0100
0000
0100
0000
0100
0200
0000
0000
0000
0310
0000
0000
0000
,
0110
0000
0100
0010
0000
0010
0000
0010
0020
0000
0000
0000
0130
0000
0000
0000
,
1010
0000
0010
0100
0000
0100
0000
0100
0200
0000
0000
0000
0301
0000
0000
0000
,
0011
0000
0010
0001
0000
0001
0000
0001
0002
0000
0000
0000
1003
0000
0000
0000
,
1001
0000
1000
0010
0000
0010
0000
0010
0020
0000
0000
0000
0130
0000
0000
0000
,
0101
0000
0001
0010
0000
0010
0000
0010
0020
0000
0000
0000
0130
0000
0000
0000
,
0101
0000
0001
0010
0000
0010
0000
0010
0020
0000
0000
0000
0130
0000
0000
0000
,
0110
0000
0100
0010
0000
0010
0000
0010
0020
0000
0000
0000
0031
0000
0000
0000
,
0101
0000
0001
0100
0000
0100
0000
0100
0200
0000
0000
0000
0310
0000
0000
0000
,
1010
0000
0010
1000
0000
1000
0000
1000
2000
0000
0000
0000
3001
0000
0000
0000
,
0101
0000
0001
1000
0000
1000
0000
1000
2000
3000
0020
0030
0002
0003
0200
0300
,
2000
0000
0000
0000
3000
1000
0010
0100
,
0220
0000
0330
1000
0200
0000
0300
0000
,
0100
1000
0000
0001
0000
0000
0010
0000
0020
0000
0000
0000
2030
0000
0000
0000
,
3002
0000
0003
1000
0020
0000
0030
0000
,
0100
1000
0000
0010
0000
0000
0100
0000
0002
0000
0000
0000
2003
0000
0000
0000
,
3200
0000
0300
1000
0200
0000
0300
0000
,
1001
0000
0100
2000
0000
0000
3001
0000
0200
0000
0000
0000
0310
0000
0000
0000
,
0110
0000
0010
2000
0000
3000
1000
0000
1001
0000
1000
0002
0000
0003
0001
0000
,
0101
0000
0001
1000
0000
0020
0000
0200
0000
0000
0000
0000
0330
0000
0000
0000
,
0220
0000
0330
1000
0200
0000
0300
0000
,
0100
1000
0000
0001
0000
0000
0010
0000
0020
0000
0000
0000
0032
0000
0000
0000
,
2003
0000
3000
0001
0200
0000
0300
0000
,
0100
0010
0000
1000
0000
0000
0100
0000
0020
0000
0000
0000
2030
0000
0000
0000
,
3020
0000
0030
0100
2000
0000
3001
0000
,
0101
0000
0100
0020
0000
0000
1030
0000
0002
0000
0003
0000
0011
0000
0000
0000
,
0110
0000
0100
2000
0000
0000
3001
0000
0101
0000
0100
0020
0000
0000
1030
0000
,
1010
0000
1000
0010
0000
0010
0000
0200
0000
0000
0300
0000
1001
0000
0000
0000
,
0100
2000
0000
3002
0000
0000
0103
0000
0100
0020
0000
2030
0000
0000
3100
0000
,
0100
0000
2000
0000
3002
0000
0013
0000
0020
0000
0000
0000
0230
0000
0000
0000
,
1300
0002
0000
0203
0000
0000
0310
0000
0010
2000
0000
3200
0000
0000
0310
0000
,
0020
0000
0032
0000
0203
0000
0320
0000
2030
0000
3002
0000
2003
0000
3001
0000
,
0001
0200
0000
2300
0000
0000
3100
0000
0001
0020
0000
2030
0000
0000
3010
0000
,
0012
0000
0103
0000
0201
0000
0310
0000
0120
0000
1030
0000
2010
0000
3100
0000
,
1001
0000
1000
0010
0000
0100
0001
0000
1001
0000
0001
0010
0000
0100
1000
0000
,
1001
0000
0001
0200
0000
0320
0000
2030
0000
0000
3001
0000
0001
0000
0010
0000
,
0220
0000
0030
0001
2000
0000
3300
0000
,
0202
0000
0000
0303
;
