#VERSION:0.83;
#TITLE:What You Waiting For;
#SUBTITLE:;
#ARTIST:SOMI;
#TITLETRANSLIT:;
#SUBTITLETRANSLIT:;
#ARTISTTRANSLIT:;
#GENRE:;
#ORIGIN:;
#CREDIT:DubStepManiac;
#BANNER:What You Waiting For.png;
#BACKGROUND:What You Waiting For-bg.png;
#PREVIEWVID:;
#JACKET:jacket.png;
#CDIMAGE:;
#DISCIMAGE:;
#LYRICSPATH:;
#CDTITLE:cdtitle.png;
#MUSIC:What You Waiting For.mp3;
#OFFSET:-0.249841;
#SAMPLESTART:37.799999;
#SAMPLELENGTH:17.820000;
#SELECTABLE:YES;
#BPMS:0.000=243.871;
#STOPS:;
#DELAYS:;
#WARPS:;
#TIMESIGNATURES:0.000=4=4;
#TICKCOUNTS:0.000=4;
#COMBOS:0.000=1;
#SPEEDS:0.000=1.000=0.000=0;
#SCROLLS:0.000=1.000;
#FAKES:;
#LABELS:0.000=Song Start;
#BGCHANGES:0.000=What You Waiting For.mp4=1.000=0=0=0=StretchNoLoop====,
99999=-nosongbg-=1.000=0=0=0 // don't automatically add -songbackground-
;
#KEYSOUNDS:;
#ATTACKS:
;

//---------------dance-single - ----------------
#NOTEDATA:;
#CHARTNAME:;
#STEPSTYPE:dance-single;
#DESCRIPTION:;
#CHARTSTYLE:;
#DIFFICULTY:Easy;
#METER:3;
#RADARVALUES:0.180772,0.346561,0.011400,0.028500,0.000000,222.000000,220.000000,2.000000,5.000000,0.000000,0.000000,0.000000,0.000000,0.000000,0.180772,0.346561,0.011400,0.028500,0.000000,222.000000,220.000000,2.000000,5.000000,0.000000,0.000000,0.000000,0.000000,0.000000;
#CREDIT:DubStepManiac;
#NOTES:
0000
0000
0000
0000
,
0000
0000
0000
0000
,
0000
0000
0000
0000
,
0000
0000
0000
0000
,
0000
0000
0000
0000
,
0000
0000
0000
0000
,
0000
0000
0000
0000
,
0000
0000
0000
0000
,
1000
0000
0010
0000
,
0000
0000
0001
0000
,
0000
0001
0100
0000
,
0000
0000
0001
0000
,
0000
0000
0001
0000
,
0000
0000
0001
0000
,
0000
0001
0100
0000
,
0001
0000
0001
0000
,
1000
0000
0000
0000
,
0000
0000
0001
0000
,
0000
0001
0100
0000
,
0000
0000
0001
0000
,
0000
0000
1000
0000
,
0000
0000
1000
0000
,
1000
0000
0010
0000
,
1000
0000
0000
0000
,
0001
0000
0000
0000
,
1000
0000
0000
0000
,
1000
0000
0000
0000
,
0000
0000
0001
0000
,
0001
0000
0000
0000
,
1000
0000
0000
0000
,
0001
0000
0000
0000
,
0001
0000
0000
0000
,
1000
0000
0000
0000
,
0000
0000
0001
0000
,
0001
0000
0000
0010
,
1000
0000
0000
0001
,
0001
0000
0000
0100
,
0000
0001
0000
1000
,
0001
0000
0000
0010
,
1000
0000
0000
0001
,
0001
0000
0000
1000
,
1000
0000
0000
0001
,
0001
0000
0000
0010
,
0000
0000
1000
0100
,
0001
0000
0000
1000
,
0000
0001
0000
1000
,
0001
0000
0000
0010
,
0000
0000
1000
0100
,
0000
0000
0000
1000
,
0000
0001
0000
0000
,
1000
0000
0010
0000
,
1000
0000
0100
0000
,
1000
0000
0010
0000
,
1000
0000
0100
0000
,
1000
0000
0010
0000
,
0001
0000
0100
0000
,
0101
0001
0101
0000
,
1000
0000
0010
0000
,
1000
0000
0100
0000
,
1000
0000
0010
0000
,
1000
0000
0100
0000
,
1000
0000
0100
0000
,
1000
0000
0100
0000
,
0001
0000
0010
0000
,
0001
0000
0000
0000
,
1000
0000
0000
0000
,
1000
0000
0000
0000
,
0001
0000
0000
0000
,
0000
0000
0001
0000
,
0001
0000
0000
0000
,
1000
0000
0000
0000
,
0001
0000
0000
0000
,
0001
0000
0000
0000
,
1000
0000
0000
0000
,
1000
0000
0000
0000
,
0001
0000
0000
0010
,
0000
0000
1000
0100
,
0001
0000
0000
0100
,
0000
1000
0000
0100
,
0001
0000
0000
0010
,
1000
0000
0000
0001
,
0001
0000
0000
1000
,
0000
0000
1000
0100
,
0001
0000
0000
0010
,
0000
0000
1000
0100
,
0001
0000
0000
1000
,
0000
1000
0000
0100
,
0001
0000
0000
0010
,
0000
0000
1000
0100
,
0001
0000
0000
0010
,
0000
0000
0001
0000
,
0001
0000
0000
0010
,
0000
0000
1000
0100
,
0001
0000
0000
1000
,
0000
1000
0000
0100
,
0001
0000
0000
0010
,
0000
0000
1000
0100
,
0001
0000
0000
1000
,
0000
1000
0000
0100
,
0001
0000
0000
0010
,
0000
0000
1000
0100
,
0001
0000
0000
1000
,
0000
1000
0000
0100
,
0001
0000
0000
0010
,
0000
0000
1000
0100
,
1000
0000
0000
0000
,
1000
0000
0000
0000
,
1000
0000
0000
0000
,
0001
0000
0000
0000
,
1000
0000
0000
0000
,
0001
0000
0000
0000
,
1000
0020
0000
0000
,
0000
0000
0000
0000
,
0000
0000
0030
0000
,
0000
0000
0000
0001
,
0000
0200
0000
0000
,
0000
0300
1000
0200
,
0000
0000
0000
0000
,
0000
0000
0000
0300
,
2000
0000
0000
0000
,
0000
0000
0000
3000
,
1000
0000
0010
0000
,
0001
0000
0000
0000
,
0001
0000
0000
1000
,
0001
0000
0000
1000
,
0001
0000
0000
0000
,
1000
0000
0000
0000
,
1000
0000
0000
0000
,
0000
0000
0000
0001
,
1000
0000
0010
0000
,
0001
0000
0000
1000
,
1000
0000
0010
0000
,
1000
0000
0100
0000
,
1000
0000
0000
0000
,
1000
0000
0000
0000
,
0000
0000
0000
0001
,
2000
0000
0000
3000
,
1000
0000
0010
0000
,
0001
0000
0000
0000
,
0001
0000
0000
1000
,
1000
0000
0010
0000
,
1000
0000
0000
0000
,
1000
0000
0000
0000
,
0001
0000
0000
0000
,
0000
0000
0000
0001
,
1000
0000
0010
0000
,
0001
0000
0100
0000
,
1000
0000
0100
0000
,
1000
0000
0010
0000
,
1000
0000
0000
0000
,
1000
0000
0000
0000
,
1000
0000
0000
0000
,
0001
0000
0000
0000
;

//---------------dance-single - ----------------
#NOTEDATA:;
#CHARTNAME:;
#STEPSTYPE:dance-single;
#DESCRIPTION:;
#CHARTSTYLE:;
#DIFFICULTY:Medium;
#METER:4;
#RADARVALUES:0.254058,0.392446,0.039900,0.022800,0.000000,312.000000,305.000000,7.000000,4.000000,0.000000,0.000000,0.000000,0.000000,0.000000,0.254058,0.392446,0.039900,0.022800,0.000000,312.000000,305.000000,7.000000,4.000000,0.000000,0.000000,0.000000,0.000000,0.000000;
#CREDIT:DubStepManiac;
#NOTES:
0000
0000
0000
0000
,
0000
0000
0000
0000
,
0000
0000
0000
0000
,
0000
0000
0000
0000
,
0000
0000
0000
0000
,
0000
0000
0000
0000
,
0000
0000
0000
0000
,
0000
0000
0000
0000
,
0001
0000
0100
0000
,
1000
0000
0001
0000
,
1000
0100
1000
0000
,
1000
0000
0001
0000
,
1000
0000
0001
0000
,
1000
0000
0001
0000
,
1000
0100
1000
0000
,
0001
0000
0001
0001
,
0001
0000
1000
0000
,
1000
0000
0001
0000
,
1000
0100
1000
0000
,
1000
0000
0001
0000
,
1000
0000
0001
0000
,
0001
0000
1000
0000
,
0001
0000
0100
0000
,
0001
0000
0000
0000
,
0001
0000
0000
0000
,
0001
0000
0000
0000
,
0001
0000
0000
0000
,
0000
0000
0001
0000
,
0001
0000
0000
0000
,
0001
0000
0000
0000
,
0001
0000
0000
0000
,
0001
0000
0000
0000
,
0001
0000
0000
0000
,
0000
0000
0001
0000
,
0001
0000
0010
0100
,
1000
0000
0001
0010
,
1000
0010
0100
0001
,
0001
0001
0100
0010
,
0001
0000
0010
0100
,
1000
0000
0001
0010
,
0001
0000
1000
0100
,
1000
0000
0001
0010
,
0001
0000
0010
0100
,
0001
0000
0100
0010
,
0001
0010
0000
0001
,
0001
0001
0100
0010
,
0001
0000
0010
0100
,
0001
0000
0100
0010
,
0000
1000
0000
0100
,
0000
1000
0000
0000
,
1001
0001
0100
0000
,
1000
0000
0010
0000
,
1001
0001
0100
0000
,
1000
0000
0010
0000
,
0001
0000
0100
0000
,
0001
0000
0010
0000
,
0110
1000
0101
1000
,
0000
0000
0000
0000
,
1001
0001
0100
0000
,
1000
0000
0010
0000
,
1001
0001
0100
0000
,
1000
0000
0010
0000
,
1001
1000
0010
0000
,
1000
0000
0010
0000
,
1000
0100
0010
0001
,
0001
0000
0000
0000
,
1000
0000
0000
0000
,
0001
0000
0000
0000
,
0001
0000
0000
0000
,
0000
0000
0001
0000
,
0001
0000
0000
0000
,
0001
0000
0000
0000
,
0001
0000
0000
0000
,
0001
0000
0000
0000
,
1000
0000
0000
0000
,
1000
0000
0000
0000
,
0001
0000
0010
0100
,
0001
0000
0100
0010
,
1000
0010
0100
0001
,
0001
0100
0000
0010
,
0001
0000
0010
0100
,
1000
0000
0001
0010
,
0001
0000
1000
0100
,
0001
0000
0100
0010
,
0001
0000
0010
0100
,
0001
0000
0100
0010
,
0001
0010
0000
0001
,
0001
0100
0000
0010
,
0001
0000
0010
0100
,
0001
0000
0100
0010
,
0001
0000
0010
0100
,
0001
0000
1000
0000
,
1000
0001
0000
0010
,
0001
0000
0100
0010
,
0001
0010
0000
0001
,
0001
0100
0000
0010
,
1000
0001
0000
0010
,
0001
0000
0100
0010
,
0001
0010
0000
0001
,
0001
0100
0000
0010
,
0001
0000
0010
0100
,
0001
0000
0100
0010
,
0001
0010
0000
0001
,
0001
0100
0000
0010
,
1000
0001
0000
0010
,
0001
0000
0100
0010
,
0001
0000
0000
0000
,
0001
0000
0000
0000
,
1000
0000
0000
0000
,
1000
0000
0000
0000
,
0001
0000
0000
0000
,
0001
0000
0000
0000
,
0001
0002
0000
0000
,
0000
0000
0000
0000
,
0000
0000
0003
0000
,
0000
0001
0000
0100
,
0000
0002
0000
0000
,
0000
0003
0001
0002
,
0000
0000
0000
0000
,
0000
0000
0000
0003
,
0000
0010
0000
0000
,
0000
0000
0000
0000
,
0001
0000
0100
0000
,
1000
1000
0000
0000
,
0001
0000
0000
0100
,
1000
0000
0000
0100
,
0001
0000
0000
0000
,
0001
0000
0001
0000
,
1000
0000
0000
0000
,
0000
0000
0000
1000
,
0001
0000
0100
0000
,
0001
0000
0000
0100
,
0001
0000
0100
0000
,
1000
0000
0100
0000
,
0001
0000
0001
0000
,
1000
0000
1000
0000
,
0000
0001
0000
0100
,
0002
0000
0000
0003
,
0001
0000
0100
0000
,
1000
1000
0000
0000
,
0001
0000
1000
0001
,
0001
0000
0100
0000
,
0001
0000
0001
0000
,
1000
0000
1000
0000
,
0001
0000
0001
0000
,
0000
0001
0000
0100
,
0001
0000
0100
0000
,
0001
0000
0100
0000
,
0001
0000
0100
0000
,
0001
0000
0010
0000
,
0001
0000
0001
0000
,
1000
0000
1000
0000
,
1000
0000
1000
0000
,
0001
0000
0000
0000
;

//---------------dance-single - ----------------
#NOTEDATA:;
#CHARTNAME:;
#STEPSTYPE:dance-single;
#DESCRIPTION:;
#CHARTSTYLE:;
#DIFFICULTY:Hard;
#METER:7;
#RADARVALUES:0.511373,0.739578,0.456002,0.171001,0.000000,628.000000,548.000000,80.000000,30.000000,0.000000,0.000000,0.000000,0.000000,0.000000,0.511373,0.739578,0.456002,0.171001,0.000000,628.000000,548.000000,80.000000,30.000000,0.000000,0.000000,0.000000,0.000000,0.000000;
#CREDIT:DubStepManiac;
#NOTES:
0000
0000
0000
0000
,
0000
0000
0000
0000
,
0000
0000
0000
0000
,
0000
0000
0000
0000
,
0000
0000
0000
0000
,
0000
0000
0000
0000
,
0000
0000
0000
0000
,
0000
0000
1000
0100
0010
0000
1000
0000
,
0100
0000
0000
0000
,
0000
0000
0001
0010
0001
0000
0010
0000
,
0000
0100
1000
0000
0001
0000
0000
0100
,
1000
0000
0000
0001
0010
0000
0000
0000
,
1000
0000
0001
0000
,
1000
0000
0001
0000
,
1000
0200
0000
0000
0300
0001
0000
0000
,
0000
0001
0000
0000
0001
0000
0001
0010
,
0001
0000
0001
0000
,
1000
0000
0010
0001
0010
0000
0000
0000
,
1000
0100
1000
0000
0001
0010
0000
0000
,
1000
0100
0000
0000
0001
0010
0000
0000
,
0001
0000
1000
0000
,
1000
0000
0001
0000
,
1000
0100
0010
0000
,
1000
0000
0200
0020
0000
0000
0330
0000
,
1000
0000
1000
0000
,
0001
0000
0001
0000
,
0100
0000
0000
0000
,
0000
0000
0001
0000
,
0001
0000
0100
0000
,
1000
0000
0010
0000
,
0001
0000
0100
0000
,
0001
0000
0100
0000
,
0001
0000
0100
0000
,
0010
0000
0001
0000
,
0001
0100
0010
0000
,
0001
1000
0001
0010
,
0001
0000
0010
0100
0010
0000
1001
0000
,
0001
0001
0010
1001
,
0001
0100
0010
0100
,
0001
1000
0001
0010
,
1000
0000
0000
0001
0010
0000
0100
0000
,
0001
1000
0001
0010
,
0001
0100
0010
0100
,
1000
0010
1000
0001
,
1000
0000
0010
0001
0100
0000
1000
0000
,
0001
0001
0010
1001
,
0001
0100
0010
0100
,
1000
0010
1000
0001
,
0010
0000
0000
0000
0100
0000
0001
0010
,
0000
1000
0010
0010
,
0101
0000
1000
0000
1100
0000
0001
0010
,
0101
0100
1010
0010
,
0101
0000
1000
0000
1100
0010
0001
0000
,
0101
0001
1010
0010
,
0010
0100
1000
0000
0101
0000
0100
0010
,
0001
0000
0010
0100
1010
0000
0000
0000
,
1010
1000
1100
1000
,
0000
1010
1000
0000
,
0101
1000
1100
0000
,
0101
0010
1010
0000
,
0101
1000
1100
0000
,
0101
0001
1010
0000
,
0101
0000
0101
0000
,
0101
0000
1010
0000
,
0110
0000
1001
0010
,
0001
0100
0100
0000
,
1100
1000
1010
0000
,
1000
0100
0000
0000
1010
0000
0000
0000
,
0002
0000
0013
0000
,
1100
1000
0001
0000
,
0001
0000
0100
0000
,
2000
0000
3000
0000
,
0001
0000
0001
0000
,
0010
0000
0100
0000
,
0002
0000
0013
0000
,
1000
0000
0010
0000
,
0002
0100
0010
0103
,
1000
0010
1000
0001
,
0002
0000
0010
0100
0013
0000
1001
0000
,
1000
0000
0001
0000
1000
0000
0100
0010
,
0001
0000
0100
0001
0010
0000
0100
0000
,
0001
0010
1000
0000
0001
0000
0010
0100
,
1000
0000
0010
0001
0010
0000
0100
0000
,
1000
0010
1000
0001
,
0001
0100
0010
0100
,
1000
0010
1000
0001
,
1000
0000
0010
0001
0100
0000
1000
0000
,
1000
0001
1000
0100
,
0011
0100
1000
0100
,
1100
0010
1000
0001
,
0011
0100
0010
0100
,
0001
0010
0001
0011
,
0001
0010
0001
0100
,
1000
0110
1000
0001
,
1000
0000
0010
0001
0100
0000
1000
0000
,
1000
0001
1000
0100
,
1001
0010
0001
0100
,
1000
0010
1000
0001
,
1100
0000
0010
0001
0100
0000
1000
0000
,
1000
0001
1000
0100
,
0011
0100
0010
0100
,
1000
0010
1000
0001
,
1100
0000
0010
0001
0100
0000
1000
0000
,
1000
0001
1000
0100
,
0002
0010
0100
1000
,
0100
0013
1000
0001
,
2000
0100
0001
3010
,
1000
0100
0001
0010
,
0002
0010
0100
0013
,
2000
0100
0000
3100
,
1000
0000
1000
0000
,
2000
0000
0100
0000
0000
0001
3010
0000
,
1000
0200
0010
0001
,
0010
1000
0010
0001
,
1300
0020
0001
0100
,
0001
1030
0100
0010
,
2000
0100
0001
0010
,
0100
3010
0002
0020
,
0000
0000
0000
0033
,
0000
0000
1100
0000
,
0002
0000
0000
0000
,
0003
0000
0000
0000
,
0001
0000
0010
0001
,
1100
0000
1000
0100
0000
0000
0000
0000
,
0110
0000
0001
0010
,
0110
0000
0001
0100
,
0001
0000
0100
0000
,
1000
0000
1000
1000
,
1000
0000
0100
0000
,
0010
0000
0000
0000
0001
0000
0001
0100
,
0001
0000
0010
0001
,
0110
0000
0001
0010
,
0001
0000
0010
0001
,
1000
0000
0100
1000
,
2000
0000
3200
0000
,
0302
0000
0013
0001
,
0000
0000
0000
0000
,
0002
0000
0000
0003
,
0001
0000
0000
0100
0010
0000
0001
0000
,
1100
0000
1000
0100
0000
0000
0010
0000
,
0011
0000
0000
0100
0010
0000
0001
0000
,
0001
0000
0000
0001
0010
0000
0001
0000
,
1100
0000
0000
0010
0100
0000
1100
0000
,
1000
0000
0000
0010
0100
0000
1000
0000
,
1001
0011
1100
0220
,
0330
2000
3000
0200
,
0301
0000
0000
0100
0010
0000
0001
0010
,
0001
0000
0000
0010
0100
0000
0001
0010
,
1000
0000
0000
1000
0100
0000
1000
0100
,
1000
0000
0000
0001
0010
0000
1000
0100
,
1000
0000
0000
0100
1000
0000
0010
0100
,
1000
0000
0000
1000
0100
0010
0100
0010
,
0001
0001
0001
0000
0001
0000
0001
0010
,
1001
0100
0000
0000
0000
0000
0000
0000
,
0011
0001
0011
0000
,
0100
1100
0100
0000
,
0010
0011
0010
0000
,
1100
1000
1100
0000
,
0011
0001
0011
0000
,
0100
1100
0100
0000
,
0010
0011
0010
0110
,
2200
0000
3300
0000
,
0011
0010
0011
0000
,
1000
1100
1000
0000
,
0001
0011
0001
0000
,
0100
0010
0100
1000
0110
0000
0000
0000
,
0011
0010
0011
0000
,
1000
1100
1000
0000
,
0001
0011
0001
0000
,
1100
0100
0200
0000
,
0000
0000
0000
0000
,
0000
0000
0000
0000
,
0000
0000
0000
0000
,
0300
0000
0000
0000
;

//---------------dance-single - ----------------
#NOTEDATA:;
#CHARTNAME:;
#STEPSTYPE:dance-single;
#DESCRIPTION:;
#CHARTSTYLE:;
#DIFFICULTY:Challenge;
#METER:9;
#RADARVALUES:0.587916,0.739578,0.450302,0.193801,0.000000,722.000000,643.000000,79.000000,34.000000,0.000000,2.000000,0.000000,0.000000,0.000000,0.587916,0.739578,0.450302,0.193801,0.000000,722.000000,643.000000,79.000000,34.000000,0.000000,2.000000,0.000000,0.000000,0.000000;
#CREDIT:;
#NOTES:
0000
0000
0000
0000
,
0000
0000
0000
0000
,
0000
0000
0000
0000
,
0000
0000
0000
0000
,
0000
0000
0000
0000
,
0000
0000
0000
0000
,
0000
0000
0000
0000
,
0000
0000
0100
0010
0001
0000
1000
0000
,
0110
0000
0010
0000
,
0010
0000
0001
0010
0001
0000
0100
0000
,
0000
1000
0100
0000
0001
0000
0000
0100
,
1000
0000
0000
0001
0010
0000
0000
0000
,
1100
0000
0001
0000
,
1000
0000
0100
0010
0001
0000
0000
0000
,
1000
0200
0000
0000
0000
0301
0000
0000
,
0000
0001
0000
0000
1000
0000
0100
0010
,
0001
0000
0101
0000
,
1000
0000
0010
0001
0010
0000
0000
0000
,
1000
0100
1000
0000
0010
0001
0000
0000
,
0100
0010
0000
0000
0001
0100
0000
0000
,
0011
0000
1000
0000
,
0100
0000
0000
0000
0001
0010
0200
0000
,
1000
0000
0310
0000
,
1000
0200
0020
0330
,
1000
0000
1010
0010
,
0001
0010
0101
0000
,
0110
0000
0000
0000
,
0000
0000
0001
0000
,
0011
0000
0010
0000
,
0100
0000
1000
0000
,
0101
0000
0001
0010
,
0100
0000
0000
0000
0001
0000
0100
0010
,
0001
0000
0100
1000
0100
0010
0000
0000
,
0010
0001
0010
0000
0001
0000
0100
0010
,
0001
0100
0010
0000
,
0001
1000
0001
0010
,
0001
0000
0010
0100
0010
0000
1000
0010
,
0001
0011
0010
1001
,
0001
0010
0100
0010
,
0001
1000
0010
0001
,
1100
0000
0000
0001
0010
0000
0100
0000
,
0001
0000
1000
0000
0001
0000
0100
0010
,
0001
0010
0100
0010
,
1000
0000
0010
0000
1000
0000
0001
0100
,
1000
0000
0010
0001
0100
0000
1000
0000
,
0001
0001
0010
1001
,
0001
0010
0100
0000
0010
0000
0100
0000
,
1000
0010
1000
0001
,
0010
0000
0100
1000
0100
0000
0001
0010
,
0100
1000
0001
0010
,
0101
0000
1000
0100
1010
0000
0001
0010
,
0001
0100
0101
0010
,
1000
0000
1000
0000
0100
0010
0001
0000
,
0101
0001
0010
0100
,
1000
0100
0010
0000
0001
0000
0100
0010
,
1000
0000
0100
0010
1100
0000
0000
0000
,
0010
0000
0100
0000
0010
0000
1000
0100
,
0000
0000
1010
0000
1000
0100
0000
0000
,
0101
0000
1000
0000
0100
0010
0000
0000
,
0101
0010
1010
0000
,
0011
1000
1010
0000
,
0100
0010
0001
0000
1010
0000
0000
0000
,
0011
0000
0101
0000
,
1001
0000
1020
0000
,
0131
0000
0000
0000
1001
0000
0100
0010
,
0001
0100
0100
0000
,
1100
0000
1000
0100
1000
0000
0010
0000
,
1000
0100
0000
0000
1010
0000
0000
0000
,
0020
0000
0031
0000
,
1100
1000
0001
0000
,
0101
0000
1010
0000
,
2002
0000
3003
0000
,
0001
0000
0001
0010
,
0001
0000
0100
0000
,
0002
0010
0013
0000
,
1000
0000
0010
0000
,
0002
0100
0010
0003
,
1000
0010
1000
0002
,
0010
0000
0100
0010
0103
0000
1001
0000
,
1000
0000
0001
0000
0010
0000
1000
0010
,
0001
0000
0100
0001
0010
0000
0100
0000
,
0001
0010
1000
0000
0001
0000
0010
0100
,
1000
0000
0001
0010
0001
0000
1000
0000
,
0100
1000
0010
0001
,
0001
0000
0100
0001
0010
0000
0100
0000
,
1000
0000
0010
0000
1000
0000
0001
0100
,
1000
0000
0010
0001
0010
0000
0100
0000
,
0010
0001
1000
0100
,
0011
0000
0100
1000
0100
0000
0010
0000
,
1010
0001
1000
0001
,
0011
0000
0100
0010
0100
0000
1000
0000
,
0001
0010
0001
0011
,
0001
0000
0010
0001
0010
0000
0100
0000
,
1000
0110
1000
0001
,
1000
0000
0010
0001
1000
0000
0100
0000
,
0100
0001
0010
1000
,
0101
0000
0010
0001
0010
0000
0100
0000
,
1000
0010
1000
0001
,
1100
0000
0010
0001
0100
0000
1000
0000
,
1000
0001
1000
0100
,
0011
0000
0100
1000
0100
0000
0010
0000
,
1000
0010
1000
0001
,
1100
0000
0010
0001
0100
0000
1000
0000
,
1100
0001
1010
0100
,
0002
0000
0010
0100
0010
0000
1000
0000
,
0100
0013
1000
0001
,
2000
0000
0100
0010
0001
0000
3010
0000
,
1000
0100
0001
0010
,
0002
0000
0010
0100
0010
0000
0103
0000
,
2000
0100
0010
3100
,
1000
0001
0010
0100
,
2000
0000
0100
0000
0010
0001
3010
0000
,
1000
0000
0200
0010
0001
0000
0010
0000
,
0001
0010
1000
0010
,
0301
0000
0020
0100
1000
0000
0100
0000
,
0001
1030
0100
0010
,
2000
0000
0100
0010
0001
0000
0010
0000
,
0100
3010
0002
0020
,
0000
0000
0000
0033
,
0000
0000
1001
0000
,
0002
0000
0000
0000
,
0003
0000
0000
0000
,
0001
0000
0000
0000
0010
0000
0001
0010
,
1000
0000
0100
2000
0000
0000
0000
0000
,
3010
0000
0001
0010
,
0110
0000
0001
0010
,
0001
0000
0100
0000
,
1000
0000
0010
0010
,
0010
0000
0100
0000
,
0010
0001
0010
0000
0001
0000
0001
0100
,
0001
0000
0010
0001
,
0110
0000
0001
0010
,
0001
0000
0000
0000
0010
0001
0010
0000
,
1000
0000
0100
1000
,
2000
0000
3200
0000
,
0302
0000
0013
0001
,
0000
0000
0000
0000
,
0020
0000
0000
0030
,
0011
0000
1000
0100
0010
0000
0001
0000
,
1100
0000
1000
0100
0001
0000
0010
0000
,
0011
0000
1000
0100
0010
0000
0001
0000
,
0001
0000
0100
0010
0001
0000
0001
0000
,
1100
0010
0100
1100
,
1000
0000
0010
0100
0010
0000
1000
0000
,
1001
0101
1100
0220
,
0330
2000
3100
0200
,
0301
0000
0010
0100
0010
0000
0011
0100
,
0001
0000
0100
0010
0100
0000
0001
0010
,
1100
0000
0001
0010
0100
0000
1000
0100
,
1000
0000
0010
0001
0010
0000
1000
0100
,
1010
0000
0001
0010
0100
0000
0010
0100
,
1000
0000
0001
0010
0100
1000
0100
0010
,
0001
0001
0001
0000
0010
0000
0100
0010
,
1001
0010
0000
0000
0000
0000
0000
0000
,
0011
0000
0001
0010
0001
0000
0010
0000
,
0100
0000
0100
1000
0101
0000
0010
0000
,
0010
0000
0010
0100
0010
0000
0101
0000
,
1100
0000
1000
0100
1000
0000
0100
0000
,
0011
0000
0001
0010
0001
0000
0010
0000
,
0100
1100
0010
0001
,
0001
0010
0100
0010
0100
0000
0101
0000
,
2200
0000
3310
0000
,
0101
0000
0100
0010
0100
0000
0010
0000
,
0100
0000
1000
0100
1010
0000
0100
0000
,
0010
0000
0001
0010
0101
0000
0010
0000
,
0100
0010
0100
1000
0110
0000
0010
0000
,
0001
0010
0001
0000
0010
0000
1100
0000
,
0100
0000
0010
0001
1000
0100
0010
0001
,
0010
0000
0001
0010
0001
0000
0110
0000
,
1000
0010
0020
0000
,
0000
0000
0000
0000
,
0000
0000
0000
0000
,
0000
0000
0000
0000
,
0030
0000
0000
0000
;

//---------------dance-double - ----------------
#NOTEDATA:;
#CHARTNAME:;
#STEPSTYPE:dance-double;
#DESCRIPTION:;
#CHARTSTYLE:;
#DIFFICULTY:Challenge;
#METER:9;
#RADARVALUES:0.591173,0.739578,0.467402,0.205201,0.000000,726.000000,644.000000,82.000000,36.000000,0.000000,2.000000,0.000000,0.000000,0.000000,0.591173,0.739578,0.467402,0.205201,0.000000,726.000000,644.000000,82.000000,36.000000,0.000000,2.000000,0.000000,0.000000,0.000000;
#CREDIT:;
#NOTES:
// measure 0
00000000
00000000
00000000
00000000
,  // measure 1
00000000
00000000
00000000
00000000
,  // measure 2
00000000
00000000
00000000
00000000
,  // measure 3
00000000
00000000
00000000
00000000
,  // measure 4
00000000
00000000
00000000
00000000
,  // measure 5
00000000
00000000
00000000
00000000
,  // measure 6
00000000
00000000
00000000
00000000
,  // measure 7
00000000
00000000
01000000
00100000
00010000
00000000
10000000
00000000
,  // measure 8
01100000
00000000
00100000
00000000
,  // measure 9
00100000
00000000
00010000
00100000
00010000
00000000
01000000
00000000
,  // measure 10
00000000
10000000
01000000
00000000
00010000
00000000
00000000
01000000
,  // measure 11
10000000
00000000
00000000
00010000
00100000
00000000
00000000
00000000
,  // measure 12
00001100
00000000
00000001
00000000
,  // measure 13
00001000
00000000
00000100
00000010
00000001
00000000
00000000
00000000
,  // measure 14
00001000
00000200
00000000
00000000
00000000
00001300
00000000
00000000
,  // measure 15
00000000
00001000
00000000
00000000
10000000
00000000
01000000
00100000
,  // measure 16
00010000
00000000
01010000
00000000
,  // measure 17
10000000
00000000
00100000
00010000
00100000
00000000
00000000
00000000
,  // measure 18
10000000
01000000
10000000
00000000
00100000
00010000
00000000
00000000
,  // measure 19
01000000
00100000
00000000
00000000
00010000
01000000
00000000
00000000
,  // measure 20
00000011
00000000
00001000
00000000
,  // measure 21
00000100
00000000
00000000
00000000
00000001
00000010
00000200
00000000
,  // measure 22
00001000
00000000
00000310
00000000
,  // measure 23
00000001
00000020
00000200
00000330
,  // measure 24
10000000
00000000
10100000
00100000
,  // measure 25
00010000
00100000
01010000
00000000
,  // measure 26
01100000
00000000
00000000
00000000
,  // measure 27
00000000
00000000
00010000
00000000
,  // measure 28
00110000
00000000
00100000
00000000
,  // measure 29
01000000
00000000
10000000
00000000
,  // measure 30
01010000
00000000
00010000
00100000
,  // measure 31
01000000
00000000
00000000
00000000
00010000
00000000
00001000
00000100
,  // measure 32
00000010
00000000
00000010
00000001
00000010
00000000
00000100
00000000
,  // measure 33
00000100
00001000
00000100
00000000
00001000
00000000
00000010
00000100
,  // measure 34
00001000
00000001
00000010
00000000
,  // measure 35
00010000
10000000
00010000
00100000
,  // measure 36
00010000
00000000
00100000
01000000
00100000
00000000
10000000
00100000
,  // measure 37
00010000
00110000
00100000
10010000
,  // measure 38
00010000
00100000
01000000
00100000
,  // measure 39
00001000
00000001
00000010
00000100
,  // measure 40
10100000
00000000
00000000
00010000
00100000
00000000
01000000
00000000
,  // measure 41
00010000
00000000
10000000
00000000
00010000
00000000
01000000
00100000
,  // measure 42
00010000
00100000
01000000
00100000
,  // measure 43
10000000
00000000
00100000
00000000
10000000
00000000
00000001
00000100
,  // measure 44
00001000
00000000
00000010
00000001
00000100
00000000
00001000
00000000
,  // measure 45
00000001
00000001
00000010
00001001
,  // measure 46
00000001
00000010
00000100
00000000
00000010
00000000
00000100
00000000
,  // measure 47
00001000
00000010
00001000
00000001
,  // measure 48
00100000
00000000
01000000
10000000
01000000
00000000
00010000
00100000
,  // measure 49
01000000
10000000
00010000
00100000
,  // measure 50
01010000
00000000
10000000
01000000
10100000
00000000
00010000
00100000
,  // measure 51
00010000
01000000
01010000
00100000
,  // measure 52
00001000
00000000
00001000
00000000
00000100
00000010
00000001
00000000
,  // measure 53
00000101
00000001
00000010
00000100
,  // measure 54
00001000
00000100
00000010
00000000
00000001
00000000
00000010
00000100
,  // measure 55
00000001
00000000
00000010
00000100
00011000
00000000
00000000
00000000
,  // measure 56
00100000
00000000
01000000
00000000
00100000
00000000
10000000
01000000
,  // measure 57
00000000
00000000
10100000
00000000
10000000
01000000
00000000
00000000
,  // measure 58
01010000
00000000
10000000
00000000
01000000
00100000
00000000
00000000
,  // measure 59
01010000
00100000
10100000
00000000
,  // measure 60
00110000
10000000
10100000
00000000
,  // measure 61
01000000
00100000
00010000
00000000
10100000
00000000
00000000
00000000
,  // measure 62
00110000
00000000
01010000
00000000
,  // measure 63
10010000
00000000
10200000
00000000
,  // measure 64
00300101
00000000
00000000
00000000
00001001
00000000
00000100
00000010
,  // measure 65
00000001
00000100
00000100
00000000
,  // measure 66
00001100
00000000
00001000
00000100
00001000
00000000
00000010
00000000
,  // measure 67
00001000
00000100
00000000
00000000
00001010
00000000
00000000
00000000
,  // measure 68
00000020
00000000
00000031
00000000
,  // measure 69
00001100
00001000
00000001
00000000
,  // measure 70
00000101
00000000
00001010
00000000
,  // measure 71
00002002
00000000
00003003
00000000
,  // measure 72
00010000
00000000
00010000
00100000
,  // measure 73
00010000
00000000
01000000
00000000
,  // measure 74
00020000
00100000
00130000
00000000
,  // measure 75
10000000
00000000
00100000
00000000
,  // measure 76
00020000
01000000
00100000
00030000
,  // measure 77
10000000
00100000
10000000
00020000
,  // measure 78
00100000
00000000
01000000
00100000
01030000
00000000
10010000
00000000
,  // measure 79
10000000
00000000
00010000
00000000
00100000
00000000
00001000
00000010
,  // measure 80
00000001
00000000
00000100
00000001
00000010
00000000
00000100
00000000
,  // measure 81
00000001
00000010
00001000
00000000
00000001
00000000
00000010
00000100
,  // measure 82
00001000
00000000
00000001
00000010
00000001
00000000
00001000
00000000
,  // measure 83
00000100
00001000
00000010
00000001
,  // measure 84
00000001
00000000
00000100
00000001
00000010
00000000
00000100
00000000
,  // measure 85
00001000
00000000
00000010
00000000
00001000
00000000
00000001
00000100
,  // measure 86
00001000
00100000
10000000
00010000
00100000
00000000
01000000
00000000
,  // measure 87
00100000
00010000
10000000
01000000
,  // measure 88
00110000
00000000
01000000
10000000
01000000
00000000
00100000
00000000
,  // measure 89
10100000
00010000
10000000
00010000
,  // measure 90
00110000
00000000
01000000
00100000
01000000
00000000
10000000
00000000
,  // measure 91
00010000
00100000
00010000
00110000
,  // measure 92
00000001
00000000
00000010
00000001
00000010
00000000
00000100
00000000
,  // measure 93
00001000
00000110
00001000
00000001
,  // measure 94
00001000
00000000
00000010
00000001
00001000
00000000
00000100
00000000
,  // measure 95
00000100
00000001
00000010
00001000
,  // measure 96
01010000
00000000
00100000
00010000
00100000
00000000
01000000
00000000
,  // measure 97
10000000
00100000
10000000
00010000
,  // measure 98
11000000
00000000
00100000
00010000
01000000
00000000
10000000
00000000
,  // measure 99
10000000
00010000
10000000
01000000
,  // measure 100
00001100
00000000
00000010
00000001
00000010
00000000
00000100
00000000
,  // measure 101
00000001
00000100
00000001
00001000
,  // measure 102
00000011
00000000
00000100
00001000
00000010
00000000
00000001
00000000
,  // measure 103
00000011
00001000
00000101
00000010
,  // measure 104
00020000
00000000
00100000
01000000
00100000
00000000
10000000
00000000
,  // measure 105
01000000
00130000
10000000
00010000
,  // measure 106
20000000
00000000
01000000
00100000
00010000
00000000
30100000
00000000
,  // measure 107
10000000
01000000
00010000
00000100
,  // measure 108
00002000
00000000
00000100
00000010
00000100
00000000
00003010
00000000
,  // measure 109
00000002
00000010
00000100
00000013
,  // measure 110
00000001
00001000
00000100
00000010
,  // measure 111
00000002
00000000
00000010
00000000
00000100
00001000
00000103
00000000
,  // measure 112
10000000
00000000
02000000
00100000
00010000
00000000
00100000
00000000
,  // measure 113
00010000
00100000
10000000
00100000
,  // measure 114
03010000
00000000
00200000
01000000
10000000
00000000
01000000
00000000
,  // measure 115
00010000
10300000
01000000
00001000
,  // measure 116
00000002
00000000
00000010
00000100
00001000
00000000
00000100
00000000
,  // measure 117
00000010
00000103
00000020
00000200
,  // measure 118
00000000
00000000
00000000
00000330
,  // measure 119
00000000
00000000
10000001
00000000
,  // measure 120
00020000
00000000
00000000
00000000
,  // measure 121
00030000
00000000
00000000
00000000
,  // measure 122
00010000
00000000
00000000
00000000
00100000
00000000
00010000
00100000
,  // measure 123
10000000
00000000
01000000
20000000
00000000
00000000
00000000
00000000
,  // measure 124
30100000
00000000
00010000
00100000
,  // measure 125
01100000
00000000
00010000
00100000
,  // measure 126
00010000
00000000
01000000
00000000
,  // measure 127
10000000
00000000
00100000
00100000
,  // measure 128
00001000
00000000
00000100
00000000
,  // measure 129
00000010
00000001
00000010
00000000
00000001
00000000
00000001
00000100
,  // measure 130
00000001
00000000
00000010
00000001
,  // measure 131
00000110
00000000
00001001
00000010
,  // measure 132
00000001
00000000
00000000
00000000
00000010
00000001
00000010
00000000
,  // measure 133
00001000
00000000
00010000
01000000
,  // measure 134
20000000
00000000
32000000
00000000
,  // measure 135
03020000
00000000
00130000
00010000
,  // measure 136
00000000
00000000
00000000
00000000
,  // measure 137
00200200
00000000
00000000
00300300
,  // measure 138
00110000
00000000
10000000
01000000
00100000
00000000
00010000
00000000
,  // measure 139
11000000
00000000
10000000
01000000
00010000
00000000
00100000
00000000
,  // measure 140
00110000
00000000
10000000
01000000
00100000
00000000
00010000
00000000
,  // measure 141
00010000
00000000
01000000
00100000
00010000
00000000
00010000
00000000
,  // measure 142
00001100
00000010
00000100
00001100
,  // measure 143
00001000
00000000
00000010
00000100
00000010
00000000
00001000
00000000
,  // measure 144
00001001
00000101
00001100
00000220
,  // measure 145
00000330
00002000
00003100
00000200
,  // measure 146
00010300
00000000
00100000
01000000
00100000
00000000
00110000
01000000
,  // measure 147
00010000
00000000
01000000
00100000
01000000
00000000
00010000
00100000
,  // measure 148
11000000
00000000
00010000
00100000
01000000
00000000
10000000
01000000
,  // measure 149
10000000
00000000
00100000
00010000
00100000
00000000
00010000
00001000
,  // measure 150
00000100
00000000
00000001
00000010
00000100
00000000
00000010
00000100
,  // measure 151
00001000
00000000
00000001
00000010
00000100
00001000
00000100
00000010
,  // measure 152
00000001
00000001
00000001
00000000
00000010
00000000
00000100
00000010
,  // measure 153
00001001
00000010
00000000
00000000
00000000
00000000
00000000
00000000
,  // measure 154
00110000
00000000
00010000
00100000
00010000
00000000
00100000
00000000
,  // measure 155
01000000
00000000
01000000
10000000
01010000
00000000
00100000
00000000
,  // measure 156
00100000
00000000
00100000
01000000
00100000
00000000
01010000
00000000
,  // measure 157
11000000
00000000
10000000
01000000
10000000
00000000
01000000
00000000
,  // measure 158
00001100
00000000
00001000
00000100
00001000
00000000
00000100
00000000
,  // measure 159
00000010
00000011
00000100
00001000
,  // measure 160
00001000
00000100
00000010
00000100
00000010
00000000
00001010
00000000
,  // measure 161
00000022
00000000
00100033
00000000
,  // measure 162
01010000
00000000
01000000
00100000
01000000
00000000
00100000
00000000
,  // measure 163
01000000
00000000
10000000
01000000
10100000
00000000
01000000
00000000
,  // measure 164
00100000
00000000
00010000
00100000
01010000
00000000
00100000
00000000
,  // measure 165
01000000
00100000
01000000
10000000
01100000
00000000
00100000
00000000
,  // measure 166
00001000
00000100
00001000
00000000
00000100
00000000
00000011
00000000
,  // measure 167
00000010
00000000
00000100
00001000
00000001
00000010
00000100
00001000
,  // measure 168
00000100
00000000
00001000
00000100
00001000
00000000
00000110
00000000
,  // measure 169
00000001
00100100
00200200
00000000
,  // measure 170
00000000
00000000
00000000
00000000
,  // measure 171
00000000
00000000
00000000
00000000
,  // measure 172
00000000
00000000
00000000
00000000
,  // measure 173
00300300
00000000
00000000
00000000
;
