#TITLE:Sour Candy;
#SUBTITLE:(ft. Blackpink);
#ARTIST:Lady Gaga;
#TITLETRANSLIT:;
#SUBTITLETRANSLIT:;
#ARTISTTRANSLIT:;
#GENRE:;
#CREDIT:DubStepManiac;
#BANNER:Sour Candy.png;
#BACKGROUND:Sour Candy-bg.png;
#LYRICSPATH:;
#CDTITLE:cdtitle.png;
#MUSIC:Sour Candy.mp3;
#OFFSET:-1.124785;
#SAMPLESTART:79.000000;
#SAMPLELENGTH:20.000000;
#SELECTABLE:YES;
#BPMS:0.000000=240.000000
;
#STOPS:
;
#BGCHANGES:0.000=Sour Candy.mp4=1.000=0=0=0=StretchNoLoop====,
99999=-nosongbg-=1.000=0=0=0 // don't automatically add -songbackground-
;
#KEYSOUNDS:;
#ATTACKS:;

//---------------dance-single - ----------------
#NOTES:
     dance-single:
     :
     Easy:
     4:
     0.410928,0.533165,1.153132,0.031679,0.000000,454.000000,272.000000,182.000000,5.000000,0.000000,0.000000,0.410928,0.533165,1.153132,0.031679,0.000000,454.000000,272.000000,182.000000,5.000000,0.000000,0.000000:
0000
0000
0000
0000
,
0000
0000
0000
0000
,
0000
0000
0000
0000
,
0000
0000
0000
0000
,
0000
0000
0000
0000
,
0000
0000
0000
0000
,
0200
0000
0000
1000
,
0300
0000
0000
0000
,
0000
0000
1000
0000
,
0001
0000
0000
0000
,
0000
0000
1000
0000
,
0001
0000
0000
0000
,
0000
0000
1000
0000
,
0000
0000
0000
0001
,
0000
0000
1000
0000
,
1010
0000
1001
0000
,
0101
0000
0011
0000
,
1100
0000
1010
0000
,
1010
0000
1001
0000
,
1010
0000
1001
0000
,
0101
0000
0011
0000
,
1010
0000
1001
0000
,
0011
0000
1001
0000
,
1100
0000
1001
0000
,
0011
0000
1001
0000
,
0101
0000
1001
0000
,
1100
0000
1001
0000
,
0101
0000
1001
0000
,
0101
0000
0011
0000
,
1010
0000
1001
0000
,
0101
0000
1001
0000
,
0011
0000
1001
0000
,
1010
0000
1001
0000
,
1100
0000
1001
0000
,
0011
0000
1001
0000
,
1100
0000
1001
0000
,
1010
0000
1001
0000
,
0011
0000
1001
0000
,
0101
0000
1001
0000
,
0011
0000
1001
0000
,
0011
0000
1001
0000
,
1010
0000
1001
0000
,
1100
0000
1001
0000
,
0101
0000
1001
0000
,
1100
0000
1001
0000
,
1010
0000
1001
0000
,
0101
0000
0011
0000
,
1100
0000
0001
0000
,
1010
0000
1001
0000
,
0011
0000
1001
0000
,
1100
0000
1001
0000
,
1100
0000
0001
0000
,
1010
0000
1001
0000
,
1100
0000
1001
0000
,
0101
0000
1001
0000
,
0101
0000
1001
0000
,
0011
0000
1001
0000
,
0101
0000
1001
0000
,
1010
0000
1001
0000
,
0101
0000
1001
0000
,
0011
0000
1001
0000
,
1001
0000
0011
0000
,
1001
0000
0011
0000
,
0001
0000
1000
0000
,
1000
0000
0001
0000
,
0001
0000
0010
0000
,
1000
0000
0100
0000
,
1000
0000
0001
0000
,
1000
0000
0100
0000
,
0001
0000
0100
0000
,
1000
0000
0001
0000
,
0001
0000
0000
0000
,
1000
0000
0010
0000
,
1000
0000
0100
0000
,
0001
0000
0010
0000
,
1000
0000
0001
0000
,
1100
0000
0001
0000
,
0000
0001
0000
0000
,
0000
0000
0000
0001
,
1000
0000
0000
0100
,
0000
0000
1000
0000
,
1010
0000
1001
0000
,
1001
0000
1001
0000
,
1010
0000
1001
0000
,
0101
0000
0011
0000
,
1010
0000
1001
0000
,
1010
0000
1001
0000
,
1100
0000
0001
0000
,
1010
0000
0101
0001
,
1010
0000
0011
0000
,
1010
0000
0101
0001
,
1010
0000
1001
0000
,
0101
0000
1001
0000
,
1001
0000
1001
0000
,
0011
0000
1000
0000
,
1010
0000
1001
0000
,
0101
0000
1001
0000
,
1100
0000
0001
0000
,
1010
0000
1001
0000
,
1100
0000
0001
0000
,
1010
0000
0101
0001
,
1100
0000
0001
0000
,
1010
0000
0101
0001
,
1100
0000
0001
0000
,
1010
0000
1001
0000
,
1001
0000
0011
0000
,
1001
0000
0200
0000
,
0000
0000
0300
0000
,
0001
0000
0000
0000
,
0001
0000
0000
0000
,
0000
0000
1000
0000
,
0001
0000
0000
0000
,
0000
0000
1000
0000
,
0001
0000
0000
0000
,
0000
0000
0000
0000
,
0000
0000
0000
0200
,
0000
0000
0000
0300
,
0001
0002
0000
0000
,
0000
0000
0000
1000
,
0003
0002
0000
0000
,
0000
0003
0000
0000
,
0001
0000
0000
0000
,
0000
0000
0000
0001
,
1000
0000
0000
0100
,
0000
0000
1000
0000
,
1100
0000
0001
0000
,
1010
0000
1001
0000
,
0011
0000
1001
0000
,
0011
0000
1001
0000
,
1010
0000
1001
0000
,
1010
0000
0101
0001
,
1100
0000
0001
0000
,
1010
0000
0101
0001
,
1100
0000
0001
0000
,
1010
0000
0101
0001
,
1010
0000
1001
0000
,
1100
0000
1001
0000
,
1100
0000
0001
0000
,
1010
0000
1001
0000
,
1000
0000
0000
0100
,
0000
1000
0100
0000
,
1010
0000
1001
0000
,
1010
0000
0101
0001
,
1010
0000
1001
0000
,
1010
0000
1001
0000
,
1010
0000
1001
0000
,
1010
0000
0101
0001
,
1100
0000
0001
0000
,
1010
0000
0101
0001
,
1100
0000
0001
0000
,
1010
0000
0101
0001
,
0001
0000
1000
0000
,
0001
0000
0000
0000
,
0001
0000
0000
0000
;

//---------------dance-single - ----------------
#NOTES:
     dance-single:
     :
     Medium:
     6:
     0.557558,0.678574,1.260842,0.012672,0.000000,616.000000,417.000000,199.000000,2.000000,0.000000,0.000000,0.557558,0.678574,1.260842,0.012672,0.000000,616.000000,417.000000,199.000000,2.000000,0.000000,0.000000:
0000
0000
0000
0000
,
0000
0000
0000
0000
,
0000
0000
0000
0000
,
0000
0000
0000
0000
,
0000
0000
0000
0000
,
0000
0000
0000
0000
,
0000
0000
0000
0001
,
0000
1000
0000
0000
,
0001
0000
0010
0000
,
0001
1000
0000
0000
,
0001
0000
0100
0000
,
0001
1000
0000
0000
,
0001
0000
0010
0000
,
1000
0000
0000
0100
,
0001
0000
0100
0000
,
1100
0000
0110
1000
,
0110
0000
0101
0000
,
0110
0000
1010
0000
,
1100
0000
0110
1000
,
1010
0000
0110
1000
,
0110
0000
0101
0000
,
1100
0000
0110
1000
,
0011
0000
0110
0001
,
1010
0000
0110
1000
,
1010
0000
0110
1000
,
1010
0000
0110
1000
,
1010
0000
0110
1000
,
1100
0000
0110
1000
,
0110
0000
0101
0000
,
1100
0000
0110
1000
,
0101
0000
0110
0001
,
0011
0000
0110
0001
,
1010
0000
0110
1000
,
0011
0000
0110
0001
,
1100
0000
0110
1000
,
1100
0000
0110
1000
,
0011
0000
0110
0001
,
0011
0000
0110
0001
,
1100
0000
0110
1000
,
0101
0000
0110
0001
,
1100
0000
0110
1000
,
0101
0000
0110
0001
,
0101
0000
0110
0001
,
1010
0000
0110
1000
,
1100
0000
0110
1000
,
1010
0000
0110
1000
,
0110
0000
0101
0000
,
1100
1000
0110
0001
,
1100
0000
0110
1000
,
1010
0000
0110
1000
,
0101
0000
0110
0001
,
1100
1000
0110
0001
,
1100
0000
0110
1000
,
0011
0000
0110
0001
,
0101
0000
0110
0001
,
0101
0000
0110
0001
,
1100
0000
0110
1000
,
0011
0000
0110
0001
,
0011
0000
0110
0001
,
1010
0000
0110
1000
,
1100
0000
0110
1000
,
0011
0000
0011
0000
,
0011
0000
0011
0000
,
1100
0000
0001
0100
,
1010
0000
0001
0010
,
0001
0010
0001
0000
,
1000
0010
0100
0000
,
1000
0000
0001
0100
,
1000
0010
0100
0000
,
0001
0100
0010
0000
,
1000
0000
0001
0100
,
1000
0000
0001
0000
,
0001
0001
0010
0100
,
1000
0010
0100
0000
,
1000
0010
0100
0000
,
1000
0000
0001
0100
,
1100
1000
0110
0001
,
0000
0001
0001
0000
,
0000
0000
1000
0010
,
0001
0001
0000
0010
,
0001
0000
0100
0000
,
1100
0000
0110
1000
,
1001
0000
1001
0000
,
1100
0000
0110
1000
,
0110
0000
0101
0000
,
1100
0000
0110
1000
,
0101
0000
0110
0001
,
1100
1000
0110
0001
,
0011
0001
0101
1000
,
0101
0001
1001
0000
,
0011
0001
0101
1000
,
1100
0000
0110
1000
,
0011
0000
0110
0001
,
1001
0000
1001
0000
,
0101
1000
0010
0000
,
1100
0000
0110
1000
,
1100
0000
0110
1000
,
1100
1000
0110
0001
,
1100
0000
0110
1000
,
1100
1000
0110
0001
,
0011
0001
0101
1000
,
1100
1000
0110
0001
,
0011
0001
0101
1000
,
1010
0000
0101
1000
,
1100
0000
0110
1000
,
0011
0000
0011
0000
,
0101
0000
0020
0000
,
0001
0000
0030
0000
,
1000
0000
0001
0000
,
0001
1000
0000
0000
,
0001
0000
0010
0000
,
0001
1000
0000
0000
,
0001
0000
0010
0000
,
0001
1000
0000
0000
,
1000
0001
0000
0000
,
0001
0000
0100
0000
,
1000
0000
0010
0000
,
0001
0000
0000
0000
,
0000
0000
0000
0001
,
0000
0002
0000
0000
,
0000
0003
0001
0000
,
0001
1000
0000
0000
,
0000
0000
1000
0010
,
0001
0001
0000
0010
,
0001
0000
0100
0000
,
1100
1000
0110
0001
,
1100
0000
0110
1000
,
1010
0000
0110
1000
,
0011
0000
0110
0001
,
0101
0000
0110
0001
,
0011
0001
0101
1000
,
1100
1000
0110
0001
,
0011
0001
0101
1000
,
1100
1000
0110
0001
,
0011
0001
0101
1000
,
1100
0000
0110
1000
,
1100
0000
0110
1000
,
1100
1000
0110
0001
,
1100
0000
0110
1000
,
0001
0001
0000
0010
,
0001
0100
0010
0000
,
1100
0000
0110
1000
,
0011
0001
0101
1000
,
1100
0000
0110
1000
,
1100
0000
0110
1000
,
1100
0000
0110
1000
,
0011
0001
0101
1000
,
1100
1000
0110
0001
,
0011
0001
0101
1000
,
1100
1000
0110
0001
,
0011
0001
0101
1000
,
1100
0000
0001
0100
,
1000
0000
0001
0000
,
1000
0000
0000
0000
;

//---------------dance-single - ----------------
#NOTES:
     dance-single:
     :
     Hard:
     7:
     0.602815,0.678574,1.248171,0.069695,0.000000,666.000000,469.000000,197.000000,11.000000,0.000000,0.000000,0.602815,0.678574,1.248171,0.069695,0.000000,666.000000,469.000000,197.000000,11.000000,0.000000,0.000000:
0000
0000
0000
0000
,
0000
0000
0000
0000
,
0000
0000
0000
0000
,
0000
0000
0000
0000
,
0000
0000
0000
0000
,
0000
0000
0000
0000
,
0000
0000
1000
1000
,
0000
0000
0010
1000
0000
0000
0100
0000
,
1000
0000
0001
0000
,
1000
0000
0010
1000
0000
0000
0010
0000
,
0001
0010
0000
0000
0001
0000
0000
0000
,
1000
0000
0010
1000
0000
0000
0100
0000
,
1000
0000
0001
0000
,
0001
0000
0000
1000
0000
0000
0100
0000
,
0001
0010
0000
0000
0001
0000
0000
0000
,
0101
0000
0011
1000
,
0011
0000
1001
0000
,
0011
0000
1001
0000
,
0101
0000
0001
1000
,
0011
0000
0001
1000
,
0011
0000
1001
0000
,
0101
0000
0011
1000
,
1010
0000
1100
0001
,
1100
0000
1010
0001
,
0011
0000
0101
1000
,
0101
0000
0011
1000
,
1100
0000
1010
0001
,
1010
0000
1100
0001
,
0011
0000
1001
0000
,
0101
0000
0011
1000
,
1100
0000
1010
0001
,
1100
0000
1010
0001
,
0011
0000
0101
1000
,
1010
0000
1100
0001
,
1010
0000
1100
0001
,
1100
0000
1010
0001
,
0011
0000
0101
1000
,
0011
0000
0101
1000
,
1010
0000
1100
0001
,
1010
0000
1100
0001
,
1010
0000
1100
0001
,
0011
0000
0101
1000
,
0011
0000
0101
1000
,
1010
0000
1100
0001
,
0101
0000
0011
1000
,
1100
0000
1010
0001
,
0011
0000
1001
0000
,
0011
0001
1100
1000
,
0101
0000
0011
1000
,
1010
0000
1100
0001
,
0011
0000
0101
1000
,
0011
0001
1100
1000
,
0101
0000
0011
1000
,
0011
0000
0101
1000
,
1010
0000
1100
0001
,
1010
0000
1100
0001
,
0011
0000
0101
1000
,
0101
0000
0011
1000
,
0101
0000
0011
1000
,
1010
0000
1100
0001
,
1100
0000
1010
0001
,
1100
0000
1100
0010
,
1100
0000
1100
0010
,
0011
0000
0001
0100
,
0011
0000
0001
0100
,
0001
0000
0100
0010
0001
0000
0000
0000
,
0001
1000
0001
0010
,
0001
0000
0000
0010
0001
0000
0100
0000
,
0001
1000
0001
0010
,
1000
0001
1000
0100
,
0001
0000
0000
0010
0001
0000
0100
0000
,
1000
0000
0010
1000
,
1000
0000
1000
0000
0100
0000
1000
1000
,
0001
1000
0001
0010
,
0001
1000
0001
0100
,
0002
0000
0003
0010
0001
0000
0100
0000
,
0011
0001
1100
2000
,
3000
0000
1000
0100
0100
0000
0000
0000
,
0000
0000
0000
1000
0100
0000
0010
0000
,
0001
0000
0001
0010
0000
0000
0100
0000
,
0001
0010
0000
0000
0001
0000
0000
0000
,
0101
0000
0011
1000
,
0110
0000
0101
0000
,
0101
0000
0011
1000
,
0011
0000
1001
0000
,
0101
0000
0011
1000
,
1010
0000
1100
0001
,
0011
0001
1100
1000
,
1010
0100
1010
1000
,
0011
1000
1100
1000
,
1010
0100
1010
1000
,
0101
0000
0011
1000
,
1100
0000
1010
0001
,
0110
0000
0101
0000
,
0110
0010
0001
0000
,
0101
0000
0011
1000
,
1010
0000
1100
0001
,
0011
0001
1100
1000
,
0101
0000
0011
1000
,
0011
0001
1100
1000
,
1010
0100
1010
1000
,
0011
0001
1100
1000
,
1010
0100
1010
1000
,
1001
0000
1001
0001
,
0101
0000
0011
1000
,
1100
0000
1100
0010
,
2010
0000
0200
3300
,
1000
0000
0001
0000
,
1000
0000
0010
1000
,
1000
0020
1030
0000
,
1000
0000
0001
0000
,
1000
0020
1030
0000
,
1000
0000
0001
0000
,
1000
0020
1030
0000
,
1000
0020
0100
0000
,
0031
0000
0001
0200
,
0001
0000
0001
0300
,
1000
0100
0010
0100
,
0010
0010
1000
1000
,
0000
0001
0002
0000
0000
0000
0000
0000
,
1000
0000
0003
0100
0100
0000
0000
0000
,
1000
0000
0010
2000
0000
0000
0000
0000
,
3000
0000
0000
1000
0100
0000
0010
0000
,
0001
0000
0001
0010
0000
0000
0100
0000
,
0001
0010
0000
0000
0001
0000
0000
0000
,
0011
0001
1100
1000
,
0101
0000
0011
1000
,
0101
0000
0011
1000
,
1100
0000
1010
0001
,
1100
0000
1010
0001
,
1010
0100
1010
1000
,
0011
0001
1100
1000
,
1010
0100
1010
1000
,
0011
0001
1100
1000
,
1010
0100
1010
1000
,
0101
0000
0011
1000
,
0101
0000
0011
1000
,
0011
0001
1100
1000
,
0101
0000
0011
1000
,
0001
0000
0001
0010
0000
0000
0100
0000
,
0001
0100
0010
0000
1000
0000
0000
0000
,
0101
0000
0011
1000
,
1010
0100
1010
1000
,
0101
0000
0011
1000
,
1100
0000
1010
0001
,
1100
0000
1010
0001
,
1010
0100
1010
1000
,
0011
0001
1100
1000
,
1010
0100
1010
1000
,
0011
0001
1100
1000
,
1010
0100
1010
1000
,
0011
0000
0001
0100
,
1000
0000
0010
1000
,
1000
0000
0000
0000
;

//---------------dance-single - ----------------
#NOTES:
     dance-single:
     :
     Challenge:
     8:
     0.590143,0.734171,0.449848,0.120382,0.000000,652.000000,581.000000,71.000000,19.000000,77.000000,1.000000,0.590143,0.734171,0.449848,0.120382,0.000000,652.000000,581.000000,71.000000,19.000000,77.000000,1.000000:
0000
0000
0000
0000
,
0000
0000
0000
0000
,
0000
0000
0000
0000
,
0000
0000
0000
0000
,
0000
0000
0000
0000
,
0000
0000
0000
0000
,
0000
0000
1000
1000
,
0001
0000
0100
0010
0000
0000
1000
0000
,
0100
0000
M001
0000
,
1000
0000
0100
1000
0000
0000
0001
0000
,
0010
0001
0000
0000
0M10
0000
0000
0000
,
0100
0000
0010
1000
0000
0000
0100
0000
,
1000
0100
0000
0000
M001
0000
0000
0000
,
0001
0000
0000
1000
0000
0000
0100
0000
,
0001
0010
0000
0000
0M01
0000
0000
0000
,
0101
0001
0001
1000
,
0001
0010
0100
1000
,
0010
0000
0100
0000
0010
0000
0001
0010
,
0100
0010
0100
1000
0001
0000
1000
0000
,
0010
0001
0001
0010
,
1000
0100
0001
0010
,
0100
0010
010M
0000
0010
0001
0M10
0000
,
1000
1000
1100
0001
,
1100
1000
0100
0001
,
0010
0001
0100
1000
,
0100
0010
0001
0000
0100
0000
0010
0100
,
0010
1000
0100
0001
,
0010
0100
1000
0010
,
0001
0100
0001
0000
,
0100
0010
0001
0000
0M10
0000
1000
0100
,
0010
010M
1020
0000
,
1130
0100
1000
0001
,
0010
1000
0100
1000
,
0001
0010
0100
0010
,
1000
0100
0100
0001
,
0100
1000
0010
0001
,
1000
0100
0001
1000
,
0010
0100
0101
1000
,
1010
0100
0100
0001
,
001M
0100
1000
0001
,
0010
1000
0100
0001
,
0010
0001
0001
0100
,
1000
0100
0100
1000
,
M200
0010
1300
0001
,
0011
0000
0101
2M00
,
0100
3000
1010
0001
,
0101
0000
1001
0000
,
0011
0001
0010
1000
,
0100
0001
0001
1000
,
1000
0010
0100
0001
,
0010
0010
0101
1000
,
0100
0001
0100
0010
,
0001
1000
0010
0100
,
1000
0010
0100
0001
,
2010
0000
3100
0001
,
0M10
0010
1000
0100
,
0100
0010
0100
1000
,
01M0
0010
0010
0001
,
0100
1000
0100
02M0
,
0010
0301
0100
0001
,
0100
0001
0010
0M20
,
0100
0031
1100
0010
,
1010
0000
1000
0100
,
0011
0000
0001
0100
,
0010
0010
0001
0100
,
0001
0000
1000
0100
0010
0000
0010
0000
,
0001
1000
0001
0010
,
0001
0000
0100
0010
0001
0000
0100
0000
,
0001
1000
0001
0010
,
1000
0001
1000
0100
,
0001
0000
0100
0010
0001
0000
0100
0000
,
1000
0000
001M
1000
,
1000
0000
1000
0000
0100
0000
1000
1000
,
0M01
1000
0001
0010
,
0001
1000
0001
0100
,
00M2
0000
0003
0010
0001
0000
M200
0000
,
0310
0001
0100
20M0
,
3000
0000
1000
0100
0110
0000
0000
MMMM
,
0000
0000
0000
1000
0100
0000
0010
0000
,
1000
0000
1000
0010
0000
0000
0001
0000
,
0100
0010
0000
0000
0001
0000
0010
0000
,
1000
0000
0100
0010
0000
1000
0100
0000
,
0010
0001
0101
0000
,
0101
0000
0010
0100
0010
0000
1000
0000
,
0100
0010
1001
0100
,
0001
0000
0010
0000
0001
0000
1000
0100
,
0010
0100
1010
0001
,
01M1
0001
1M10
1000
,
110M
0010
110M
1000
,
01M1
1000
1M10
1000
,
110M
0100
1M10
1000
,
0001
0000
0100
0010
0001
0000
1000
0000
,
0100
0010
1010
0001
,
0100
0000
0001
0010
0001
0000
0010
0000
,
0100
0010
1000
0000
,
0100
0000
0010
0001
0010
0000
1000
0000
,
1000
0100
0010
0001
,
0001
0010
0100
0000
1000
0000
0100
0000
,
0100
1000
0001
1000
,
01M1
0001
1M10
1000
,
110M
0100
110M
1000
,
01M1
0001
1M10
1000
,
110M
0100
110M
1000
,
1M01
0010
0100
0010
,
0100
1000
0010
0100
,
1100
0000
1100
0010
,
2010
0M00
0200
3300
,
100M
0000
M001
0000
,
100M
0000
M010
1000
,
1000
0020
1030
00M0
,
1000
0000
0001
0000
,
1000
0020
1030
00M0
,
1000
0000
0001
0000
,
1000
0020
1030
00M0
,
1000
0020
0100
0000
,
0031
00M0
0001
0200
,
0001
0000
0001
0300
,
1M00
0100
0010
0100
,
0010
0010
1000
1000
,
0001
0012
0010
0000
,
1000
0203
0010
0300
,
1000
0000
0010
2000
0000
0000
0000
0000
,
3000
0000
0000
1000
0100
0000
0010
0000
,
0001
0000
0010
0001
0000
0000
0100
0000
,
0001
0010
0100
0000
10M0
0000
0000
0000
,
0010
0000
0001
0000
0010
0000
1000
0100
,
0010
0001
0100
0010
0001
0000
1000
0000
,
1000
0100
00M1
0100
,
0010
1000
1000
0001
,
1100
0100
1M10
0001
,
1010
0100
101M
1000
,
0001
0001
11M0
1000
,
0010
0100
1M10
1000
,
0010
0001
1100
1000
,
0100
001M
1100
1000
,
0101
0010
00M1
1000
,
0100
0001
0010
1M00
,
0010
0001
0010
0000
0100
0000
1000
0100
,
00M1
0010
0011
1000
,
M101
0000
0010
0001
0000
0000
0100
0000
,
0001
0100
0010
0000
1M00
0000
0010
0000
,
0001
0000
0010
0100
0001
0000
1000
0000
,
110M
0010
1001
1000
,
01M1
0000
0010
0001
0010
0000
1000
0000
,
0100
0010
0100
0000
1M10
0000
0001
0000
,
1100
0001
1010
M001
,
1010
0000
0100
0000
101M
0000
1000
0100
,
0011
0000
0001
0000
1M10
0000
1000
0100
,
1000
0100
101M
1000
,
0011
0000
0001
0010
0100
0000
1000
0000
,
1M10
0100
1010
1000
,
M011
0000
0100
0010
0001
0000
0100
0000
,
100M
0100
0010
1000
,
1000
0100
0100
000M
,
00M0
0M00
M000
0000
;

//---------------dance-solo - ----------------
#NOTES:
     dance-solo:
     :
     Challenge:
     9:
     0.591953,0.783116,0.462520,0.120382,0.000000,654.000000,581.000000,73.000000,19.000000,77.000000,1.000000,0.591953,0.783116,0.462520,0.120382,0.000000,654.000000,581.000000,73.000000,19.000000,77.000000,1.000000:
000000
000000
000000
000000
,
000000
000000
000000
000000
,
000000
000000
000000
000000
,
000000
000000
000000
000000
,
000000
000000
000000
000000
,
000000
000000
000000
000000
,
000000
000000
100000
100000
,
000010
000000
001000
000100
000000
000000
100000
000000
,
001000
000000
M00001
000000
,
100000
000000
001000
010000
000000
000000
000010
000000
,
001000
000100
000000
000000
0M1000
000000
000000
000000
,
000010
000000
000100
001000
000000
000000
000001
000000
,
000100
000010
000000
000000
M01000
000000
000000
000000
,
001000
000000
000000
100000
000000
000000
010000
000000
,
000010
001000
000000
000000
0M0100
000000
000000
000000
,
001001
000010
000100
100000
,
000010
000100
100000
010000
,
000010
000000
010000
000000
001000
000000
000001
000010
,
000100
000010
100000
010000
000100
000000
100000
000000
,
001000
000100
000100
000001
,
100000
010000
000010
000100
,
010000
001000
010M00
000000
001000
000100
0M1000
000000
,
000001
000001
110000
000010
,
101000
100000
010000
000100
,
001000
000100
010000
100000
,
000100
000010
000001
000000
010000
000000
001000
010000
,
001000
100000
010000
000010
,
000100
001000
010000
000100
,
000010
010000
000010
000000
,
010000
001000
000100
000000
0M0010
000000
100000
010000
,
001000
010M00
100020
000000
,
101030
001000
100000
000100
,
001000
100000
010000
100000
,
000010
001000
100000
000100
,
100000
010000
010000
000010
,
010000
100000
000100
000001
,
100000
001000
000001
100000
,
000010
001000
010100
100000
,
101000
000100
010000
000010
,
001M00
100000
010000
000001
,
000100
100000
010000
000010
,
001000
000100
000010
010000
,
100000
001000
000010
100000
,
M20000
001000
130000
000010
,
000110
000000
010100
2M0000
,
010000
300000
101000
000001
,
001001
000000
100100
000000
,
001010
000010
001000
100000
,
010000
000100
000100
100000
,
100000
000001
010000
000010
,
000100
000100
011000
100000
,
010000
000100
001000
000100
,
000010
100000
001000
010000
,
000001
000100
010000
000010
,
201000
000000
310000
000100
,
0M1000
001000
100000
010000
,
010000
000100
001000
100000
,
01M000
001000
001000
000010
,
010000
000001
010000
02M000
,
001000
030010
010000
000100
,
010000
000010
001000
0M2000
,
000100
003001
110000
001000
,
100100
000000
100000
010000
,
001010
000000
000101
010000
,
001000
001000
000100
010000
,
000100
000000
100000
010000
000100
000000
000100
000000
,
000010
100000
000100
001000
,
000100
000000
010000
001000
000010
000000
010000
000000
,
000100
100000
000001
000100
,
100000
001000
100000
010000
,
000100
000000
010000
001000
000010
000000
010000
000000
,
100000
000000
001M00
000001
,
000001
000000
000001
000000
001000
000000
100000
100000
,
0M0100
100000
000010
010000
,
000100
100000
000100
010000
,
00M020
000000
000030
000100
001000
000000
M20000
000000
,
030100
001000
010000
20M000
,
300000
000000
100000
000001
000110
000000
000000
MMMM00
,
000000
000000
000000
100000
000100
000000
000001
000000
,
100000
000000
100000
000100
000000
000000
000010
000000
,
010000
001000
000000
000000
000001
000000
000010
000000
,
100000
000000
010000
001000
000000
100000
010000
000000
,
001000
000100
010001
000000
,
010100
000000
001000
100000
001000
000000
010000
000000
,
000100
000010
100001
010000
,
000010
000000
001000
000000
000100
000000
100000
010000
,
001000
010000
101000
000010
,
01M010
000010
1M1000
010000
,
011M00
000001
001M01
000001
,
01M100
100000
1M0100
100000
,
101M00
010000
1M0010
100000
,
000001
000000
001000
000100
000010
000000
100000
000000
,
010000
000100
100100
000010
,
010000
000000
000001
000010
000001
000000
000100
000000
,
010000
001000
100000
000000
,
010000
000000
001000
000100
001000
000000
100000
000000
,
100000
000010
000100
001000
,
001000
000010
010000
000000
100000
000000
010000
000000
,
010000
100000
000010
100000
,
01M100
000100
1M0001
100000
,
101M00
000100
100M10
100000
,
01M100
000010
1M0100
100000
,
101M00
000010
100M01
100000
,
1M0010
000100
010000
001000
,
100000
001000
000010
010000
,
011000
000000
110000
000100
,
200100
0M0000
000020
300030
,
100M00
000000
M00001
000000
,
100M00
000000
M00010
100000
,
100000
000200
100300
00M000
,
100000
000000
000010
000000
,
100000
002000
013000
00M000
,
100000
000000
000100
000000
,
100000
000020
010030
00M000
,
100000
000002
010000
000000
,
000103
00M000
000100
020000
,
000100
000000
000100
030000
,
1M0000
001000
000010
010000
,
001000
001000
100000
100000
,
000100
001200
001000
000000
,
100000
020300
000010
030000
,
100000
000000
000100
200000
000000
000000
000000
000000
,
300000
000000
000000
100000
010000
000000
000100
000000
,
000010
000000
000001
000010
000000
000000
001000
000000
,
000100
001000
000010
000000
00M001
000000
000000
000000
,
001000
000000
000100
000000
001000
000000
100000
010000
,
001000
000100
000001
000010
000100
000000
010000
000000
,
010000
100000
00M100
000010
,
001000
000001
000001
000100
,
110000
010000
1M1000
000100
,
100010
010000
101M00
100000
,
000010
000010
10M100
100000
,
001000
010000
1M0010
100000
,
000100
000010
110000
100000
,
000001
000M10
101000
100000
,
010100
001000
00M100
100000
,
001000
000001
000010
1M0000
,
000100
000010
000100
000000
010000
000000
100000
010000
,
00M100
000010
001010
100000
,
M10001
000000
001000
000100
000000
000000
010000
000000
,
000010
001000
000100
000000
1M0000
000000
001000
000000
,
000100
000000
001000
000001
000100
000000
100000
000000
,
110M00
001000
100010
100000
,
01M100
000000
001000
000001
001000
000000
100000
000000
,
010000
001000
010000
000000
1M1000
000000
000010
000000
,
110000
000100
100010
M00100
,
100001
000000
000010
000000
101M00
000000
100000
010000
,
001010
000000
000110
000000
1M0001
000000
100000
000100
,
100000
010000
101M00
100000
,
001100
000000
000100
001000
010000
000000
100000
000000
,
0M1001
010000
001001
000001
,
M01100
000000
100000
001000
000010
000000
010000
000000
,
100M00
010000
001000
100000
,
100000
010000
010000
0000M0
,
000M00
00M000
0M0000
000000
;

//---------------dance-double - ----------------
#NOTES:
     dance-double:
     :
     Challenge:
     9:
     0.600099,0.783116,0.456184,0.120382,0.000000,663.000000,590.000000,72.000000,19.000000,105.000000,2.000000,0.600099,0.783116,0.456184,0.120382,0.000000,663.000000,590.000000,72.000000,19.000000,105.000000,2.000000:
// measure 0
00000000
00000000
00000000
00000000
,  // measure 1
00000000
00000000
00000000
00000000
,  // measure 2
00000000
00000000
00000000
00000000
,  // measure 3
00000000
00000000
00000000
00000000
,  // measure 4
00000000
00000000
00000000
00000000
,  // measure 5
00000000
00000000
00000000
01000000
,  // measure 6
01000000
00100000
00000000
00000000
10000000
00000000
10000000
00000000
,  // measure 7
00010000
00000000
01000000
00100000
00000000
00000000
10000000
00000000
,  // measure 8
00100000
00000000
M0001000
00000000
,  // measure 9
10000000
00000000
00100000
01000000
00000000
00000000
00001000
00000000
,  // measure 10
00100000
00010000
00000000
00000000
0M100000
00000000
00000000
00000000
,  // measure 11
00001000
00000000
00000100
00000010
00000000
00000000
00000001
00000000
,  // measure 12
00000100
00000010
00000000
00000000
M0001000
00000000
00000000
00000000
,  // measure 13
00001000
00000000
00000000
00010000
00000000
00000000
00100000
00000000
,  // measure 14
00010000
01000000
00000000
00000000
1M000000
00000000
00000000
00000000
,  // measure 15
00100100
00001000
00010000
10000000
,  // measure 16
00010000
00100000
10000000
01000000
,  // measure 17
00001000
00000000
01000000
00000000
00100000
00000000
00000100
00001000
,  // measure 18
00010000
00001000
10000000
01000000
00010000
00000000
00001000
00000000
,  // measure 19
00000000
00000100
00000100
00000001
,  // measure 20
00001000
00000100
00001000
00010001
,  // measure 21
00000100
00000010
000001M0
00000000
00001000
00000100
000M1000
00000000
,  // measure 22
00000100
00000100
00110000
00001000
,  // measure 23
10100000
10000000
01000000
00010000
,  // measure 24
00100000
00010000
01000000
10000000
,  // measure 25
00010000
00001000
00000100
00000000
00000010
00000000
00000001
00000010
,  // measure 26
00000001
00001000
00000100
00001000
,  // measure 27
00100000
01000000
10000000
00010000
,  // measure 28
00001000
01000000
00001000
00100000
,  // measure 29
01000000
00100000
00010000
00000000
0M001000
00000000
00000001
00000010
,  // measure 30
00000100
000M1000
10020000
00000000
,  // measure 31
10130000
00000000
00100000
00000000
10000000
00000000
00010000
M0000000
,  // measure 32
00100000
10000000
01000000
10000000
,  // measure 33
00001000
00000000
00000010
00000000
00000100
00000000
00000001
00000100
,  // measure 34
00001000
00000100
00000100
00000010
,  // measure 35
00001000
00010000
00010000
00000100
,  // measure 36
1000M000
00000000
00100000
00010000
00000100
00000000
10000000
00000000
,  // measure 37
00001000
00000000
00100000
00000000
01010000
00000000
10M00000
01000000
,  // measure 38
10000000
00100000
00110000
00001000
,  // measure 39
000001M0
00001000
00000100
00000010
,  // measure 40
00000001
00001000
0000010M
00001000
,  // measure 41
00100000
00010000
00001000
01000000
,  // measure 42
10000000
00100000
00010000
10000000
,  // measure 43
M2000000
00100000
130000M0
00001000
,  // measure 44
00011000
00100000
01010000
2M000000
,  // measure 45
01000000
30100000
10100000
00000100
,  // measure 46
00100100
0000M000
00001100
00000000
,  // measure 47
00001010
00000000
00001000
00000000
00101000
00000000
00000000
000M0000
,  // measure 48
00000000
00010000
00010000
00001000
,  // measure 49
00001000
00000100
00000010
00000001
,  // measure 50
00000100
0000001M
00000100
00000000
00000110
00000000
00001000
00000000
,  // measure 51
00000100
00010000
00100000
00010000
,  // measure 52
00100000
10000000
00100000
01000000
,  // measure 53
00000100
00000000
00010000
00100000
01000000
00000000
000010M0
00000000
,  // measure 54
20100000
01000000
00100000
00000000
31000000
00000000
00010000
00000000
,  // measure 55
0M100000
00100000
10000000
01000000
,  // measure 56
01000000
00010000
00100000
10000000
,  // measure 57
01M00000
00100000
00100000
00001000
,  // measure 58
00000010
00000100
00001000
00002M00
,  // measure 59
00000100
00013000
01000000
00M10000
,  // measure 60
01000000
00001000
00100000
0M200000
,  // measure 61
00010000
00300100
11000000
00100000
,  // measure 62
10010000
00000000
10000000
01000000
,  // measure 63
00FM1000
00000000
00010100
00001000
,  // measure 64
00000010
00000010
00000001
00000100
,  // measure 65
00000001
00000000
00001000
00000100
00000001
00000000
00000001
00000000
,  // measure 66
000M1000
00010000
10000000
00100000
,  // measure 67
00010000
00000000
01000000
00100000
00001000
00000000
01000000
00000000
,  // measure 68
00010000
10000000
000001M0
00010000
,  // measure 69
10000000
00100000
10000000
01000000
,  // measure 70
00010000
00000000
01000000
00100000
00001000
0M000000
00000001
00000000
,  // measure 71
00000010
00000000
001M0000
00000100
,  // measure 72
00000100
00000000
00000100
00000000
00000010
00000000
00001000
00001000
,  // measure 73
00000M01
00001000
00000100
01000000
,  // measure 74
00010000
10000000
00010000
01000000
,  // measure 75
00M02000
00000000
00003000
00010000
00100000
00000000
M2000000
00000000
,  // measure 76
03010000
00100000
01000000
20M00000
,  // measure 77
30000000
00000000
10000000
00000100
00011000
00000000
00000000
MMMMMMMM
,  // measure 78
00000000
00000000
00000000
10000000
00010000
00000000
00000100
00000000
,  // measure 79
00001000
00000000
00001000
00010000
00000000
00000000
00001000
00000000
,  // measure 80
01000000
00100000
00000000
00000000
00000100
00000000
00001000
00000000
,  // measure 81
10000000
00000000
01000000
00100000
00000000
10000000
01000000
00000000
,  // measure 82
00100000
00010000
01000100
00000000
,  // measure 83
00001100
00000010
00000010
00100000
,  // measure 84
00010000
00001000
00000100
00000001
,  // measure 85
00001000
00000000
00100000
00000000
00010000
00000000
10000000
01000000
,  // measure 86
00100000
01000000
10100000
00001000
,  // measure 87
01M01000
00001000
00001M10
00000100
,  // measure 88
0000011M
00000001
000001M1
00000001
,  // measure 89
01M10000
10000000
1M010000
10000000
,  // measure 90
101M0000
01000000
1M001000
10000000
,  // measure 91
00000100
00000000
00100000
00010000
00001000
00000000
00000001
00000000
,  // measure 92
00000010
00010000
10010000
00001000
,  // measure 93
01000000
00000000
00000100
00001000
00000100
00000000
00010000
00000000
,  // measure 94
01000000
00100000
10000000
00000000
,  // measure 95
00000100
00000000
00000010
00000001
00000010
00000000
10000000
00000000
,  // measure 96
10000000
01000000
00100000
00010000
,  // measure 97
00010000
00001000
01000000
00000000
10000000
00000000
01000000
00000000
,  // measure 98
01000000
10000000
00010000
00001000
,  // measure 99
0000101M
00000010
000001M1
00000001
,  // measure 100
00001M10
00001000
000011M0
00010000
,  // measure 101
01M10000
00001000
1M010000
10000000
,  // measure 102
101M0000
00001000
100M0100
10000000
,  // measure 103
1M001000
00010000
01000000
00100000
,  // measure 104
10000000
00100000
00010000
01000000
,  // measure 105
01100000
01000000
10100000
00010000
,  // measure 106
20010000
0M000000
00002000
30003000
,  // measure 107
100M0000
00000000
M0000100
00000000
,  // measure 108
100M0000
00000000
M0001000
10000000
,  // measure 109
10000000
00020000
10030000
00M00000
,  // measure 110
10000000
00000000
00001000
00000000
,  // measure 111
00000001
00000200
00000310
00000M00
,  // measure 112
00001000
00000000
00010000
00000000
,  // measure 113
10000000
02000000
03010000
0M000000
,  // measure 114
10000000
00000200
01000000
00000000
,  // measure 115
00010300
00000M00
00000010
02000000
,  // measure 116
00000010
00000000
00000010
03000000
,  // measure 117
1M000000
00100000
00001000
01000000
,  // measure 118
00100000
00100000
10000000
10000000
,  // measure 119
00000001
00000012
00000010
00000000
,  // measure 120
00001003
0000020M
00000010
00000300
,  // measure 121
00010M00
00000000
10000000
00020000
00000000
00000000
00000000
00000000
,  // measure 122
00030000
00000000
000M0000
10000000
01000000
00000000
00010000
00000000
,  // measure 123
00001000
00000000
00000100
00001000
000M0000
00000000
00100000
00000000
,  // measure 124
00010000
00100000
00001000
00000000
00M00100
00000000
00000000
00000000
,  // measure 125
00000100
00000000
00000010
00000000
00000100
0000M000
00010000
00100000
,  // measure 126
01000000
10000000
00001000
00010000
00000000
00000000
00000100
00000000
,  // measure 127
00000100
00010000
00M10000
00001000
,  // measure 128
00100000
00000100
00000100
0001M000
,  // measure 129
00001100
00000100
00001M10
00000001
,  // measure 130
10010010
01000000
101M0000
10000000
,  // measure 131
00001000
00001000
10M10000
10000000
,  // measure 132
00100000
01000000
1M001000
10000000
,  // measure 133
00010000
00001000
11000000
10000000
,  // measure 134
00000100
000M1000
10100000
10000000
,  // measure 135
01010000
00100000
00M10000
00001000
,  // measure 136
00000010
00000100
00001000
000000M1
,  // measure 137
00010000
00001000
00010000
00000000
00000100
00000000
00000001
00000010
,  // measure 138
00001M00
00000001
00000011
00001000
,  // measure 139
0000M100
00000000
00000001
00000010
00000000
00000000
01000000
00000000
,  // measure 140
00001000
00100000
00010000
00000000
1M000000
00000000
00100000
00000000
,  // measure 141
00010000
00000000
00100000
00010000
00100000
00000000
10000000
00000000
,  // measure 142
110M0000
00100000
10001000
10000000
,  // measure 143
01M10000
00000000
00100000
00000100
00100000
00000000
10000000
00000000
,  // measure 144
01000000
00100000
01000000
00000000
1M100000
00000000
00001000
00000000
,  // measure 145
11000000
00010000
10001000
M0010000
,  // measure 146
10000100
00000000
00001000
00000000
101M0000
00000000
10000000
01000000
,  // measure 147
00101000
00000000
00011000
00000000
0001M100
00000000
00001000
00000010
,  // measure 148
00001000
00000100
000001M1
00000001
,  // measure 149
00000011
00000000
00000001
00000100
00001000
00000000
00010000
00000000
,  // measure 150
0000M110
00001000
00001100
00000100
,  // measure 151
M0110000
00000000
10000000
00100000
00001000
00000000
01000000
00000000
,  // measure 152
100M0000
01000000
00100000
10000000
,  // measure 153
10000000
01000000
01000000
000000MM
,  // measure 154
0000MM00
00MM0000
MM000000
00000000
;
