#VERSION:0.83;
#TITLE:Secret Story of the Swan;
#SUBTITLE:;
#ARTIST:IZ*ONE;
#TITLETRANSLIT:;
#SUBTITLETRANSLIT:;
#ARTISTTRANSLIT:;
#GENRE:;
#ORIGIN:;
#CREDIT:DubStepManiac;
#BANNER:Secret Story of the Swan.png;
#BACKGROUND:Secret Story of the Swan-bg.png;
#PREVIEWVID:;
#JACKET:jacket.png;
#CDIMAGE:;
#DISCIMAGE:;
#LYRICSPATH:;
#CDTITLE:cdtitle.png;
#MUSIC:Secret Story of the Swan.mp3;
#OFFSET:-0.482245;
#SAMPLESTART:54.873501;
#SAMPLELENGTH:19.526501;
#SELECTABLE:YES;
#BPMS:0.000=205.995;
#STOPS:;
#DELAYS:;
#WARPS:;
#TIMESIGNATURES:0.000=4=4;
#TICKCOUNTS:0.000=4;
#COMBOS:0.000=1;
#SPEEDS:0.000=1.000=0.000=0;
#SCROLLS:0.000=1.000;
#FAKES:;
#LABELS:0.000=Song Start;
#BGCHANGES:0.000=Secret Story of the Swan.mp4=1.000=0=0=1===CrossFade_Faster==,
99999=-nosongbg-=1.000=0=0=0 // don't automatically add -songbackground-
;
#KEYSOUNDS:;
#ATTACKS:
;

//---------------dance-single - ----------------
#NOTEDATA:;
#CHARTNAME:;
#STEPSTYPE:dance-single;
#DESCRIPTION:;
#CHARTSTYLE:;
#DIFFICULTY:Easy;
#METER:4;
#RADARVALUES:0.272340,0.378278,0.105260,0.023391,0.000000,326.000000,308.000000,18.000000,4.000000,0.000000,0.000000,0.000000,0.000000,0.000000,0.272340,0.378278,0.105260,0.023391,0.000000,326.000000,308.000000,18.000000,4.000000,0.000000,0.000000,0.000000,0.000000,0.000000;
#CREDIT:DubStepManiac;
#NOTES:
1000
0100
0000
0000
,
1000
0000
0000
0100
,
0001
0000
0000
0000
,
0000
0000
0001
0000
,
0001
0000
0010
0100
,
1000
0000
0000
0100
,
0000
0000
1000
0010
,
0000
1000
0000
0100
,
1000
0000
0000
0001
,
1000
0000
0000
0010
,
0001
0000
0000
1010
,
1000
0000
0000
0100
,
1000
0000
0000
0001
,
1000
0000
0000
0010
,
0001
0000
0000
1010
,
0001
0000
0000
0000
,
1000
0000
0000
0001
,
0001
0000
0000
0000
,
0011
0000
0000
1010
,
0000
0001
0000
1000
,
1000
0000
0000
0010
,
0000
0000
0001
0000
,
0011
0000
0000
1010
,
0000
0000
0000
1000
,
1000
0000
0000
0001
,
1000
0000
0000
0100
,
1000
0000
0000
0010
,
1000
0000
0000
0001
,
0001
0000
0000
1000
,
0001
0000
0000
1000
,
0001
1000
0000
0000
,
0001
0000
0000
0000
,
1100
0000
0001
0000
,
1000
0000
0010
0000
,
1100
0000
0001
0000
,
0001
0010
0100
0000
,
1000
0000
0010
0100
,
1000
0000
0100
0100
,
0001
0000
0010
0010
,
0001
0000
0010
0010
,
1000
0000
0100
0100
,
1000
0000
0010
0010
,
1000
0000
0010
0010
,
1000
0000
0010
0000
,
0001
1000
0000
0001
,
1000
0000
0100
1000
,
1001
1000
0000
0001
,
0000
0000
0001
0000
,
1000
0000
0000
0001
,
1000
0000
0000
0010
,
1000
0000
0000
0001
,
1000
0000
0000
0010
,
1000
0000
0000
0001
,
1000
0000
0000
0010
,
0001
0010
0000
1001
,
1000
0000
0000
0010
,
0001
0000
0000
0000
,
0001
0000
0010
0100
,
1000
0000
0100
0010
,
0001
1000
0000
0001
,
1000
0000
0100
0100
,
1000
0000
0000
0010
,
1000
0000
0100
1000
,
0001
0000
0000
0010
,
1000
0000
0010
1000
,
1000
0000
0010
0101
,
1000
0000
0000
0101
,
0001
0010
0000
1001
,
0001
0000
0010
0100
,
1000
0000
0010
0101
,
1000
0000
0000
0010
,
0000
0000
0001
0000
,
0001
0000
0010
0100
,
1000
0000
0001
0000
,
1000
0000
0001
0000
,
1000
0000
0001
0000
,
0001
0000
0010
0100
,
1000
0000
0010
0100
,
1000
0001
1000
0000
,
0001
0000
0000
0010
,
0001
0000
0000
0010
,
0000
0001
0000
1000
,
0000
0000
0000
1000
,
0000
0001
0000
1000
,
1000
0000
0000
0010
,
0000
0001
0000
1000
,
0000
0001
0000
1000
,
0000
0000
1000
0010
,
1000
0000
0100
0100
,
0001
0000
0100
0100
,
1000
0000
0010
0010
,
1000
0000
0001
0000
,
1000
0000
0100
1000
,
0001
1000
0000
0001
,
1001
1000
0000
0001
,
0000
0000
0001
0000
,
1000
0000
0000
0001
,
1000
0000
0000
0010
,
0001
0000
0000
1010
,
1000
0000
0000
0010
,
1000
0000
0000
0001
,
1000
0000
0000
0010
,
0001
0010
0000
1001
,
1000
0000
0000
0010
,
0001
0000
0000
0000
,
0001
0000
0010
0100
,
0001
0000
0010
0100
,
0001
0000
0100
0010
,
1000
0000
0100
0100
,
1000
0000
0000
0010
,
1000
0000
0100
1000
,
1000
0000
0000
0001
,
1000
0000
0000
0000
,
0001
0000
0000
0000
,
0000
0000
0001
0000
,
0001
0000
0200
0000
,
0000
0000
0300
1000
,
0001
0000
0000
0000
,
0000
0000
0001
0000
,
0001
0000
0000
0000
,
0001
0000
0002
0000
,
0000
0000
0000
0000
,
0023
0000
0000
0000
,
0000
0030
0000
0000
,
0002
0000
0000
0003
,
0001
0000
0000
0000
,
0001
0000
1000
0000
,
1000
0000
0000
0010
,
0001
1000
0000
0000
,
1000
0100
0000
0000
,
1000
0000
0000
0001
,
1000
0000
0000
0001
,
1000
0000
0000
0001
,
1000
0000
0000
0100
,
0001
0000
0000
0010
,
1000
0000
0000
0001
,
0001
0010
0100
0000
,
0001
0010
0100
0000
,
1000
0000
0100
0100
,
0001
0000
0010
0100
,
0001
1000
0000
0001
,
1000
0001
0000
1000
,
1001
1000
0000
0001
,
1000
0000
0100
1000
;

//---------------dance-single - ----------------
#NOTEDATA:;
#CHARTNAME:;
#STEPSTYPE:dance-single;
#DESCRIPTION:;
#CHARTSTYLE:;
#DIFFICULTY:Medium;
#METER:6;
#RADARVALUES:0.366739,0.462340,0.163738,0.023391,0.000000,439.000000,411.000000,28.000000,4.000000,0.000000,0.000000,0.000000,0.000000,0.000000,0.366739,0.462340,0.163738,0.023391,0.000000,439.000000,411.000000,28.000000,4.000000,0.000000,0.000000,0.000000,0.000000,0.000000;
#CREDIT:DubStepManiac;
#NOTES:
1000
0100
0000
0010
,
0001
0000
0000
0010
,
1000
0001
0000
0000
,
0000
0000
1000
0000
,
1000
1000
0010
0100
,
0001
0000
0000
0010
,
0000
1000
0001
0100
,
1000
0001
0000
1000
,
0001
0001
0000
0100
,
0001
0000
0100
0010
,
1000
0100
0000
1010
,
0001
0000
0000
0010
,
0001
0001
0000
0100
,
0001
0000
0100
0010
,
1000
0100
0000
1010
,
0001
0000
0000
0010
,
0001
0001
0000
0100
,
0001
0000
0000
0000
,
0110
0000
0000
0001
0000
0000
0110
0000
,
0000
0001
0000
0100
,
0001
0000
0000
1000
0000
0000
0000
0000
,
0000
0000
0001
0000
,
0110
0000
0000
0001
0000
0000
0110
0000
,
1000
0000
0000
0010
,
0001
0001
0000
0100
,
1000
0000
0000
0001
0000
0000
0100
0000
,
0001
0000
0000
1000
0000
0000
0010
0000
,
0001
0001
0000
0100
,
0001
0001
0000
0100
,
0001
0001
0000
0010
,
0110
0001
1000
0000
,
0001
0000
0000
0010
,
0101
0000
0000
0000
1000
0001
0000
0000
,
0001
0000
0010
0100
,
0101
0000
0000
0000
1000
0001
0000
0000
,
0101
1000
0010
0100
,
0110
0000
1000
0010
,
0001
0000
0100
0100
,
0001
0000
0010
0010
,
0001
0000
0010
0010
,
0001
0000
0010
0010
,
0001
0000
0100
0100
,
0001
0000
0010
0010
,
0001
0000
0010
0100
,
1001
1000
0001
1000
,
0001
0010
0001
0100
,
0101
0001
0100
0010
,
0000
0000
0001
0000
,
0001
0001
0000
0100
,
0001
0000
0100
0010
,
0001
0001
0000
0100
,
0001
0000
0100
0010
,
0001
0001
0000
0100
,
0001
0000
0100
0010
,
1000
0010
1000
0011
,
0001
0000
0100
0010
,
1000
0000
0000
0001
,
1000
1000
0010
0100
,
1000
1000
0010
0100
,
1000
0100
0010
0001
,
0001
0000
0100
0100
,
0001
0000
0100
0010
,
0001
0010
0001
0100
,
0001
0010
0000
0100
,
0001
0001
0100
0001
,
0001
0100
0001
1010
,
1000
0000
0000
1010
,
1000
0010
1000
0011
,
1000
1000
0010
0100
,
0001
0100
0001
1010
,
1000
0010
0000
0100
,
0000
1000
0100
0000
,
1000
1000
0010
0100
,
1000
0000
0001
0010
,
1000
0000
0001
0100
,
0001
0000
1000
0100
,
1000
1000
0010
0100
,
0110
0000
1000
0010
,
0110
0001
0101
0000
,
1000
0000
0000
0001
0000
0000
1000
0000
,
0001
0010
0000
0100
,
0000
0001
0000
0100
,
1000
0000
0000
0010
,
0000
1000
0000
0010
,
0001
0000
0100
0010
,
0000
1000
0000
0010
,
0000
0001
0000
0100
,
0000
1000
0001
0100
,
0001
0000
0100
0100
,
0001
0000
0100
0100
,
0001
0000
0100
0100
,
1000
0000
0001
0010
,
0001
0010
0001
0100
,
1001
1000
0001
1000
,
0101
0001
0100
0010
,
0000
1000
0100
0000
,
0001
0001
0000
0100
,
0001
0000
0100
0010
,
1000
0100
0000
1010
,
0001
0000
0100
0010
,
0001
0001
0000
0100
,
0001
0000
0100
0010
,
1000
0010
1000
0011
,
0001
0000
0100
0010
,
1000
0000
0000
0001
,
1000
1000
0010
0100
,
0001
0001
0010
0100
,
1000
1000
0100
0010
,
0001
0000
0100
0100
,
0001
0000
0100
0010
,
0001
0010
0001
0100
,
1000
0001
0000
0100
,
1000
0000
0000
0010
,
0001
0000
0000
0000
,
0000
0000
0001
0000
,
0001
0000
0020
0000
,
0000
0000
0030
0001
,
0001
0000
0000
0000
,
0000
0000
0001
0000
,
0001
0000
0000
0000
,
1000
0000
2000
0000
,
0000
0000
0000
0010
,
3200
0000
0000
0000
,
0000
0300
0000
0000
,
2000
0001
0000
3000
,
0001
0000
0000
0010
,
1000
0000
0100
0000
,
0001
0000
0100
0010
,
1000
0010
0000
0100
,
1000
0100
0000
0010
,
0001
0001
0000
0100
,
1000
1000
0000
0010
,
1000
1000
0000
0100
,
0001
0000
0000
0010
,
1000
0000
0000
0010
0000
0000
1000
0000
,
1000
0001
0000
0100
,
0101
1000
0010
0100
,
0011
1000
0100
0010
,
0001
0000
0100
0100
,
1000
1000
0010
0100
,
1000
0100
0010
0001
,
1000
0010
0100
0001
,
0101
0001
0100
0010
,
0001
0010
0001
0100
;

//---------------dance-single - ----------------
#NOTEDATA:;
#CHARTNAME:;
#STEPSTYPE:dance-single;
#DESCRIPTION:;
#CHARTSTYLE:;
#DIFFICULTY:Hard;
#METER:8;
#RADARVALUES:0.523794,0.588945,0.695886,0.017543,0.000000,627.000000,508.000000,119.000000,3.000000,0.000000,0.000000,0.000000,0.000000,0.000000,0.523794,0.588945,0.695886,0.017543,0.000000,627.000000,508.000000,119.000000,3.000000,0.000000,0.000000,0.000000,0.000000,0.000000;
#CREDIT:DubStepManiac;
#NOTES:
0001
0000
0100
0100
0000
0000
0001
0000
,
1000
0000
0000
0001
0000
0000
0010
0000
,
1000
0010
0000
0000
,
0000
0000
0001
0000
,
1001
0000
0001
0010
0100
0000
1000
0000
,
1000
0000
0000
0001
0000
0000
0010
0000
,
0001
0010
0001
0010
,
0001
0000
0010
0000
0000
0001
0100
0000
,
0011
0000
1000
0010
0000
0000
0100
0000
,
1010
0000
0000
0001
0010
0000
0001
0000
,
1100
0000
0001
0010
0000
0000
1001
0000
,
1000
0000
0000
0001
0000
0000
0010
0000
,
0011
0000
1000
0010
0000
0000
0100
0000
,
1010
0000
0000
0001
0010
0000
0001
0000
,
1100
0000
0001
0010
0000
0000
1001
0000
,
1000
0000
0000
0001
,
0011
0000
1000
0010
0000
0000
0100
0000
,
1000
0000
0000
0010
,
0101
0000
0000
1000
0000
0000
0011
0000
,
0000
1000
0001
1000
,
0101
0000
0000
1000
0000
0000
0100
0000
,
0000
0000
0001
0010
,
0101
0000
0000
1000
0000
0000
0011
0000
,
0000
0000
0000
1000
0000
0000
0001
0000
,
0011
0000
1000
0010
0000
0000
0100
0000
,
0110
0000
0001
0010
0000
0000
0100
0000
,
0110
0000
1000
0100
0000
0000
0010
0000
,
0011
0000
1000
0010
0000
0000
0100
0000
,
0101
0000
1000
0100
0000
0000
0010
0000
,
0101
0000
1000
0100
0000
0000
0010
0000
,
0101
0000
0010
0001
0000
0000
0000
0000
,
0001
0000
0000
1000
,
0110
0000
0000
0001
0100
0001
0000
0000
,
1001
1000
0011
1000
,
0110
0000
0000
0001
0100
0001
0000
0000
,
1010
0100
1000
0000
,
1010
0000
0000
0010
0001
0000
1000
0000
,
0011
0000
1010
1000
,
0011
0000
1010
1000
,
1100
0000
0101
0001
,
1010
0000
0011
0001
,
1010
0000
0011
0001
,
1100
0000
0101
0001
,
1001
1000
0011
1000
,
0101
0000
0001
0100
0001
0000
0010
0000
,
1001
0000
0001
0000
0100
0010
1000
0000
,
1001
0000
0010
1000
0001
0000
1000
0000
,
0000
0000
0001
0010
,
0011
0000
1000
0010
0000
0000
0100
0000
,
1010
0000
0000
0001
0010
0000
0001
0000
,
0011
0000
1000
0010
0000
0000
0100
0000
,
1010
0000
0000
0001
0010
0000
0001
0000
,
0011
0000
1000
0010
0000
0000
0100
0000
,
1010
0000
0000
0001
0010
0000
0001
0000
,
0110
0000
1000
0001
0000
0000
1100
0000
,
1010
0000
0000
0001
0010
0000
0001
0000
,
0001
0000
0000
0000
0000
0100
0001
0000
,
1001
0000
0001
0010
0100
0000
1000
0000
,
1001
0000
0001
0100
0010
0000
1000
0000
,
1000
0001
0010
0100
,
0011
0000
1010
1000
,
1010
0000
0000
0001
0010
0000
0001
0000
,
1001
0000
0001
0000
0100
0010
1000
0000
,
1010
0000
0001
0000
0000
0010
0001
0000
,
1000
0000
1000
0100
1000
0000
0010
0000
,
1000
0001
1000
0101
,
1000
0000
0100
0101
,
0110
0000
1000
0001
0000
0000
1100
0000
,
1001
0000
0001
0010
0100
0000
1000
0000
,
1000
0001
1000
0101
,
1000
0100
0000
0011
,
0000
0001
0010
0000
,
1001
0000
0001
0010
0100
0000
1000
0000
,
1001
0000
0001
0100
,
1001
0000
1000
0010
,
1001
0000
0001
0010
,
1001
0000
0001
0010
0100
0000
1000
0000
,
1010
0000
0000
0010
0001
0000
1000
0000
,
0101
0001
0011
0000
,
1000
0010
0000
0100
0000
0000
0010
0000
,
1010
0000
0001
0000
0000
0010
0001
0000
,
0000
1000
0001
1000
,
0000
0000
0000
1000
0000
0000
0001
1000
,
0000
0001
0001
0010
,
1010
0000
0000
0001
0010
0000
0001
0000
,
0000
0001
0001
0010
,
0000
1000
0001
1000
,
0001
0010
0001
0010
,
0011
0000
1010
1000
,
0011
0000
1010
1000
,
1100
0000
0101
0001
,
1001
0000
0001
0100
,
1001
0000
0001
0000
0100
0010
1000
0000
,
0101
0000
0001
0100
0001
0000
0010
0000
,
1001
0000
0010
1000
0001
0000
1000
0000
,
0000
0001
0010
0000
,
0011
0000
1000
0010
0000
0000
0100
0000
,
1010
0000
0000
0001
0010
0000
0001
0000
,
1100
0000
0001
0010
0000
0000
1001
0000
,
1010
0000
0000
0001
0010
0000
0001
0000
,
0011
0000
1000
0010
0000
0000
0100
0000
,
1010
0000
0000
0001
0010
0000
0001
0000
,
0110
0000
1000
0001
0000
0000
1100
0000
,
1010
0000
0000
0001
0010
0000
0001
0000
,
0001
0000
0000
0000
0000
0100
0001
0000
,
1001
0000
0001
0010
0100
0000
1000
0000
,
1001
0000
1000
0100
0010
0000
0001
0000
,
1001
0000
0001
0100
0010
0000
1000
0000
,
0011
0000
1010
1000
,
1010
0000
0000
0001
0010
0000
0001
0000
,
1001
0000
0001
0000
0100
0010
1000
0000
,
1010
0000
0000
0001
0000
0000
1000
0100
,
1000
0000
0000
0001
,
1000
0000
0000
0010
,
0000
0000
0001
0010
,
1000
0000
0000
0010
,
0000
0000
0000
1000
,
1000
0000
0000
0010
,
0000
0000
0001
0010
,
1000
0000
0000
0010
,
0001
0010
0000
0000
0020
0000
0000
0000
,
0001
0000
0000
1000
,
0230
0000
0001
0000
,
1000
0300
0000
0010
,
0002
0000
0000
0003
,
0001
0000
0000
1000
,
0001
0010
0000
0000
0001
0000
0000
0000
,
1010
0000
0000
0001
0010
0000
0001
0000
,
1010
0000
0010
0100
0000
0000
0001
0000
,
0001
0000
0100
0100
0000
0000
0001
0000
,
0011
0000
1000
0010
0000
0000
0100
0000
,
1010
0000
0001
0010
0000
0000
0100
0000
,
1010
0000
0001
0010
0000
0000
0100
0000
,
1000
0000
0000
0001
0000
0000
0010
0000
,
0001
0000
0000
0010
0000
0000
0001
0000
,
1010
0000
0000
0001
0000
0000
1000
0000
,
1010
0100
1000
0000
,
0011
0100
0001
0000
,
0011
0000
1010
1000
,
1001
0000
0001
0010
0100
0000
1000
0000
,
1000
0000
0001
0000
0010
0000
0100
1000
,
1000
0001
0100
0010
,
1001
0000
0010
1000
0001
0000
1000
0000
,
1001
0000
0001
0000
0100
0010
1000
0100
;

//---------------dance-single - ----------------
#NOTEDATA:;
#CHARTNAME:;
#STEPSTYPE:dance-single;
#DESCRIPTION:;
#CHARTSTYLE:;
#DIFFICULTY:Challenge;
#METER:9;
#RADARVALUES:0.654952,0.757215,0.649104,0.116956,0.000000,784.000000,673.000000,111.000000,20.000000,3.000000,1.000000,0.000000,0.000000,0.000000,0.654952,0.757215,0.649104,0.116956,0.000000,784.000000,673.000000,111.000000,20.000000,3.000000,1.000000,0.000000,0.000000,0.000000;
#CREDIT:;
#NOTES:
// measure 0
0001
0100
0100
0001
,  // measure 1
1000
0000
0000
0001
0000
0000
0010
0000
,  // measure 2
1000
0010
0001
0100
,  // measure 3
0100
0000
0000
0100
0001
0000
0010
0000
,  // measure 4
1001
0000
0001
0010
0100
1000
0100
1000
,  // measure 5
0100
0010
0001
0010
0001
0010
0100
0010
,  // measure 6
0001
0010
0100
1000
0001
0010
0100
0000
,  // measure 7
0001
0000
0010
0000
0100
0010
0001
0000
,  // measure 8
0011
0000
1000
0010
0100
0000
0100
0000
,  // measure 9
1010
0000
0010
0001
0010
0000
0001
0000
,  // measure 10
1100
0000
0001
0010
0001
0000
1001
0000
,  // measure 11
1000
0000
0100
0001
0010
0000
0010
0000
,  // measure 12
0011
0000
1000
0010
0100
0000
0100
0000
,  // measure 13
1010
0000
0010
0001
0010
0000
0001
0000
,  // measure 14
1100
0000
0001
0010
0100
0000
1001
0000
,  // measure 15
1000
1000
0000
0100
0000
0010
0001
0001
,  // measure 16
0011
0000
1000
0010
0000
0000
0100
0000
,  // measure 17
1000
0000
0100
0010
0000
0000
0010
0000
,  // measure 18
0101
0000
0100
1000
0000
0000
0011
0000
,  // measure 19
0100
1000
0001
1000
,  // measure 20
0001
0010
0000
1000
0100
0000
0100
0010
,  // measure 21
0000
0011
0001
0010
,  // measure 22
1000
0100
0000
0001
0010
0000
1000
0100
,  // measure 23
0001
0010
0001
1000
0100
0010
0001
0000
,  // measure 24
0011
0000
1000
0010
0100
0000
0100
0000
,  // measure 25
0110
0000
0001
0010
0100
0000
0100
0000
,  // measure 26
0110
0000
1000
0100
0010
0000
0010
0000
,  // measure 27
0011
0000
1000
0010
0100
0000
0100
0000
,  // measure 28
0101
0000
1000
0100
0010
0000
0010
0000
,  // measure 29
0101
0000
1000
0100
0001
0000
0010
0000
,  // measure 30
0101
0000
0010
0001
0000
0000
0010
0000
,  // measure 31
0002
0000
0000
0020
0000
0000
1033
0000
,  // measure 32
0110
0000
0010
0001
0100
0001
0010
0000
,  // measure 33
1001
1000
0011
1000
,  // measure 34
0110
0000
0010
0001
0100
0001
0010
0000
,  // measure 35
1010
0100
1000
0100
,  // measure 36
1010
0000
0001
0010
0001
0000
1000
0000
,  // measure 37
0011
0100
1010
1000
,  // measure 38
0011
0000
0100
0010
1000
0100
1000
0000
,  // measure 39
1100
0000
0100
0010
0001
0000
0001
0000
,  // measure 40
1010
0010
0011
0001
,  // measure 41
1010
0100
0011
0001
,  // measure 42
1100
0100
0101
0001
,  // measure 43
1001
1000
0011
1000
,  // measure 44
0101
0000
0001
0100
0001
0000
0010
0000
,  // measure 45
1001
0000
0001
0000
0100
0010
1000
0000
,  // measure 46
1001
0000
0010
1000
0001
0000
1000
0100
,  // measure 47
0002
0010
1003
0010
,  // measure 48
0011
0000
1000
0010
0100
0000
0100
0000
,  // measure 49
1010
0000
0010
0001
0010
0000
0001
0000
,  // measure 50
0011
0000
1000
0010
0100
0000
0100
0000
,  // measure 51
1010
0000
0010
0001
0010
0000
0001
0000
,  // measure 52
0011
0000
1000
0010
0100
0000
0100
0000
,  // measure 53
1010
0000
0010
0001
0010
0000
0001
0000
,  // measure 54
0110
0000
1000
0001
0010
0000
1100
0000
,  // measure 55
1010
0000
0010
0001
0010
0000
0001
0000
,  // measure 56
0002
0000
0000
0100
0003
0100
0001
0010
,  // measure 57
1001
0000
0001
0010
0100
0000
1000
0000
,  // measure 58
1001
0000
0001
0100
0010
0000
1000
0000
,  // measure 59
1000
0000
0001
0010
0001
0000
0100
0000
,  // measure 60
0002
0013
1010
1000
,  // measure 61
1010
0000
0010
0001
0010
0000
0001
0000
,  // measure 62
1001
0000
0001
0010
0100
0010
1000
0000
,  // measure 63
1010
0000
0001
0000
0010
0001
0010
0000
,  // measure 64
1000
0000
1000
0100
1000
0000
0010
0000
,  // measure 65
1100
0001
1000
0101
,  // measure 66
1000
0100
0100
0110
,  // measure 67
0101
0000
1000
0001
0000
0000
1100
0000
,  // measure 68
1001
0000
0001
0010
0100
0000
1000
0000
,  // measure 69
1100
0000
0001
0100
1000
0000
0101
0000
,  // measure 70
1000
0000
0100
0010
0100
0000
0010
0000
,  // measure 71
0001
0100
0010
0001
,  // measure 72
1001
0000
0001
0010
0100
0000
1000
0000
,  // measure 73
1001
0000
0010
0001
0010
0000
0100
0000
,  // measure 74
1001
0000
1000
0100
1000
0000
0010
0000
,  // measure 75
1001
0000
0100
0010
0001
0000
0010
0000
,  // measure 76
1001
0000
0001
0010
0100
0000
1000
0000
,  // measure 77
1010
0000
0100
0010
0001
0000
1000
0000
,  // measure 78
0101
0000
0001
0010
0001
0000
0100
0000
,  // measure 79
1000
0010
0000
0100
0000
0000
0010
0000
,  // measure 80
1010
0000
0001
0010
0000
0010
0001
0000
,  // measure 81
0100
1000
0001
1000
,  // measure 82
1000
0000
0100
1000
0000
0010
0001
2000
,  // measure 83
0000
3001
0001
0010
,  // measure 84
1010
0000
0010
0001
0010
0000
0001
0000
,  // measure 85
0100
0000
0001
0010
0001
0000
0010
0000
,  // measure 86
0100
0000
1000
0100
0001
0000
1000
0000
,  // measure 87
0001
0010
0001
0010
,  // measure 88
0011
0100
1010
1000
,  // measure 89
0011
0100
1010
1000
,  // measure 90
1100
0010
0101
0001
,  // measure 91
1001
0010
0001
0100
,  // measure 92
1001
0010
0001
1000
0100
0010
1000
0100
,  // measure 93
0011
1000
0010
0100
0001
0000
0010
0000
,  // measure 94
1001
0000
0010
1000
0001
0000
1000
0000
,  // measure 95
0100
0000
0001
0000
0010
0001
0010
0000
,  // measure 96
0011
0000
1000
0010
0100
0000
0100
0000
,  // measure 97
1010
0000
0010
0001
0010
0000
0001
0000
,  // measure 98
1100
0000
0001
0010
0100
0000
1001
0000
,  // measure 99
1010
0000
0010
0001
0010
0000
0001
0000
,  // measure 100
0011
0000
1000
0010
0001
0000
0100
0000
,  // measure 101
1010
0000
0010
0001
0010
0000
0001
0000
,  // measure 102
0110
0000
1000
0001
0010
0000
1100
0000
,  // measure 103
1010
0000
0010
0001
0010
0100
0001
0000
,  // measure 104
0002
0010
0000
0100
0003
0100
0001
0000
,  // measure 105
1001
0000
0001
0010
0100
0000
1000
0000
,  // measure 106
1001
0000
1000
0100
0010
0000
0001
0000
,  // measure 107
1001
0000
0001
0100
0010
0000
1000
0000
,  // measure 108
0011
0000
0010
0100
1000
0000
1000
0000
,  // measure 109
1010
0000
0010
0001
0010
0000
0001
0000
,  // measure 110
1001
0000
0001
0010
0100
0010
1000
0000
,  // measure 111
1000
0000
0010
0001
0010
0100
1000
0000
,  // measure 112
2000
0000
3000
M001
,  // measure 113
2000
0010
3001
M010
,  // measure 114
0200
0000
0301
0M10
,  // measure 115
1000
0100
0002
0010
,  // measure 116
0000
0000
0003
1000
,  // measure 117
1000
0100
0010
0010
,  // measure 118
0002
0000
0023
0230
,  // measure 119
2300
0000
3200
0000
0010
0300
0000
0000
,  // measure 120
0001
0010
0000
0000
0020
0000
0000
0000
,  // measure 121
0001
0000
0000
1000
,  // measure 122
0230
0000
0001
0000
,  // measure 123
1000
0000
0310
0001
0010
0000
0100
0000
,  // measure 124
0002
0000
0000
0003
,  // measure 125
0002
0000
0000
0103
0000
0000
1000
0000
,  // measure 126
0001
0010
0000
0000
0001
0000
0010
0000
,  // measure 127
1010
0000
0010
0001
0010
0000
0001
0000
,  // measure 128
1010
0000
0010
0100
0000
0000
0001
0000
,  // measure 129
0001
0000
0100
0100
0010
0000
0001
0000
,  // measure 130
0011
0000
1000
0010
0000
0000
0100
0000
,  // measure 131
1010
0000
0001
0010
0000
0000
0100
0000
,  // measure 132
1010
0000
0001
0010
0000
0000
0100
0000
,  // measure 133
1000
0000
0100
0001
0010
0000
0010
0000
,  // measure 134
0001
0000
0100
0010
0001
0000
0001
0000
,  // measure 135
1010
0000
0000
0001
0000
0000
1000
0000
,  // measure 136
1010
0000
0100
1000
0100
0000
0010
0000
,  // measure 137
0011
0000
0100
0010
0001
0000
0010
0000
,  // measure 138
0011
0000
0010
0100
1000
0000
1000
0000
,  // measure 139
1001
0000
0001
0010
0100
0000
1000
0000
,  // measure 140
1000
0000
0001
0010
0001
0000
0100
1000
,  // measure 141
1000
0001
0100
0010
,  // measure 142
1001
0000
0010
1000
0001
0000
1000
0000
,  // measure 143
1001
0000
0001
0000
0100
0010
1000
0100
;

//---------------dance-double - ----------------
#NOTEDATA:;
#CHARTNAME:;
#STEPSTYPE:dance-double;
#DESCRIPTION:;
#CHARTSTYLE:;
#DIFFICULTY:Challenge;
#METER:9;
#RADARVALUES:0.654952,0.757215,0.649104,0.116956,0.000000,784.000000,673.000000,111.000000,20.000000,3.000000,1.000000,0.000000,0.000000,0.000000,0.654952,0.757215,0.649104,0.116956,0.000000,784.000000,673.000000,111.000000,20.000000,3.000000,1.000000,0.000000,0.000000,0.000000;
#CREDIT:;
#NOTES:
10000000
00100000
00100000
10000000
,
00010000
00000000
00000000
10000000
00000000
00000000
01000000
00000000
,
00000001
00000100
00001000
00000010
,
00000010
00000000
00000000
00000100
00000001
00000000
00000010
00000000
,
10010000
00000000
00010000
00100000
01000000
10000000
01000000
10000000
,
01000000
00100000
00010000
00100000
00010000
00001000
00000100
00001000
,
00000100
00000010
00000001
00000010
00000100
00001000
00010000
00000000
,
00010000
00000000
00100000
00000000
01000000
00100000
00010000
00000000
,
00110000
00000000
10000000
00100000
01000000
00000000
01000000
00000000
,
10100000
00000000
00100000
00010000
00100000
00000000
00010000
00000000
,
00001100
00000000
00000001
00000010
00000001
00000000
00001001
00000000
,
00001000
00000000
00000100
00000001
00000010
00000000
00000010
00000000
,
00110000
00000000
10000000
00100000
01000000
00000000
01000000
00000000
,
10100000
00000000
00100000
00010000
00100000
00000000
00010000
00000000
,
00001100
00000000
00000001
00000010
00000100
00000000
00001001
00000000
,
00001000
00001000
00000000
00010000
00000000
00100000
00010000
00010000
,
00110000
00000000
10000000
00100000
00000000
00000000
01000000
00000000
,
10000000
00000000
01000000
00100000
00000000
00000000
00100000
00000000
,
01010000
00000000
01000000
10000000
00000000
00000000
00110000
00000000
,
01000000
10000000
00010000
10000000
,
00000001
00000010
00000000
00001000
00000100
00000000
00000100
00000010
,
00000000
00000011
00000001
00000010
,
00001000
00000100
00000000
00000001
00000010
00000000
00001000
00000100
,
00000001
00000010
00000001
00001000
00000100
00000010
00000001
00000000
,
00110000
00000000
10000000
00100000
01000000
00000000
01000000
00000000
,
01100000
00000000
00010000
00100000
01000000
00000000
01000000
00000000
,
01100000
00000000
10000000
01000000
00100000
00000000
00100000
00000000
,
00110000
00000000
10000000
00100000
01000000
00000000
01000000
00000000
,
00000101
00000000
00001000
00000100
00000010
00000000
00000010
00000000
,
00000101
00000000
00001000
00000100
00000001
00000000
00000010
00000000
,
00000101
00000000
00000010
00000001
00000000
00000000
00000010
00000000
,
00000002
00000000
00000000
00000020
00000000
00000000
00001033
00000000
,
01100000
00000000
00100000
00010000
01000000
00010000
00100000
00000000
,
10010000
10000000
00110000
10000000
,
01100000
00000000
00100000
00010000
01000000
00010000
00100000
00000000
,
10100000
01000000
10000000
01000000
,
00001010
00000000
00000001
00000010
00000001
00000000
00001000
00000000
,
00000011
00000100
00001010
00001000
,
00000011
00000000
00000100
00000010
00001000
00000100
00001000
00000000
,
00001100
00000000
00000100
00000010
00000001
00000000
00000001
00000000
,
10100000
00100000
00110000
00010000
,
10100000
01000000
00110000
00010000
,
11000000
01000000
01010000
00010000
,
10010000
10000000
00110000
10000000
,
00000101
00000000
00000001
00000100
00000001
00000000
00000010
00000000
,
00001001
00000000
00000001
00000000
00000100
00000010
00001000
00000000
,
00001001
00000000
00000010
00001000
00000001
00000000
00001000
00000100
,
00000002
00000010
00001003
00100000
,
00110000
00000000
10000000
00100000
01000000
00000000
01000000
00000000
,
10100000
00000000
00100000
00010000
00100000
00000000
00010000
00000000
,
00110000
00000000
10000000
00100000
01000000
00000000
01000000
00000000
,
10100000
00000000
00100000
00010000
00100000
00000000
00010000
00000000
,
00000011
00000000
00001000
00000010
00000100
00000000
00000100
00000000
,
00001010
00000000
00000010
00000001
00000010
00000000
00000001
00000000
,
00000110
00000000
00001000
00000001
00000010
00000000
00001100
00000000
,
00001010
00000000
00000010
00000001
00000010
00000000
00000001
00000000
,
00020000
00000000
00000000
01000000
00030000
01000000
00010000
00100000
,
10010000
00000000
00010000
00100000
01000000
00000000
10000000
00000000
,
10010000
00000000
00010000
01000000
00100000
00000000
10000000
00000000
,
10000000
00000000
00010000
00100000
00010000
00000000
01000000
00000000
,
00000002
00000013
00001010
00001000
,
00001010
00000000
00000010
00000001
00000010
00000000
00000001
00000000
,
00001001
00000000
00000001
00000010
00000100
00000010
00001000
00000000
,
00001010
00000000
00000001
00000000
00000010
00000001
00000010
00000000
,
10000000
00000000
10000000
01000000
10000000
00000000
00100000
00000000
,
11000000
00010000
10000000
01010000
,
10000000
01000000
01000000
01100000
,
01010000
00000000
10000000
00010000
00000000
00000000
11000000
00000000
,
00001001
00000000
00000001
00000010
00000100
00000000
00001000
00000000
,
00001100
00000000
00000001
00000100
00001000
00000000
00000101
00000000
,
00001000
00000000
00000100
00000010
00000100
00000000
00000010
00000000
,
00000001
01000000
00100000
00010000
,
10010000
00000000
00010000
00100000
01000000
00000000
10000000
00000000
,
10010000
00000000
00100000
00010000
00100000
00000000
01000000
00000000
,
10010000
00000000
10000000
01000000
10000000
00000000
00100000
00000000
,
10010000
00000000
01000000
00100000
00010000
00000000
00100000
00000000
,
00001001
00000000
00000001
00000010
00000100
00000000
00001000
00000000
,
00001010
00000000
00000100
00000010
00000001
00000000
00001000
00000000
,
00000101
00000000
00000001
00000010
00000001
00000000
00000100
00000000
,
00001000
00000010
00000000
00000100
00000000
00000000
00001000
00000000
,
10100000
00000000
00010000
00100000
00000000
00100000
00010000
00000000
,
01000000
10000000
00010000
10000000
,
10000000
00000000
01000000
10000000
00000000
00100000
00010000
20000000
,
00000000
30010000
00010000
00100000
,
00001010
00000000
00000010
00000001
00000010
00000000
00000001
00000000
,
00000100
00000000
00000001
00000010
00000001
00000000
00000010
00000000
,
00000100
00000000
00001000
00000100
00000001
00000000
00001000
00000000
,
00000001
00000010
00000001
00000010
,
00110000
01000000
10100000
10000000
,
00110000
01000000
10100000
10000000
,
11000000
00100000
01010000
00010000
,
10010000
00100000
00010000
01000000
,
00001001
00000010
00000001
00001000
00000100
00000010
00001000
00000010
,
00000101
00001000
00000010
00000100
00000001
00000000
00000010
00000000
,
00001001
00000000
00000010
00001000
00000001
00000000
10000000
00000000
,
01000000
00000000
00010000
00000000
00100000
00010000
00100000
00000000
,
00110000
00000000
10000000
00100000
01000000
00000000
01000000
00000000
,
10100000
00000000
00100000
00010000
00100000
00000000
00010000
00000000
,
11000000
00000000
00010000
00100000
01000000
00000000
10010000
00000000
,
10100000
00000000
00100000
00010000
00100000
00000000
00010000
00000000
,
00000011
00000000
00001000
00000010
00000001
00000000
00000100
00000000
,
00001010
00000000
00000010
00000001
00000010
00000000
00000001
00000000
,
00000110
00000000
00001000
00000001
00000010
00000000
00001100
00000000
,
00001010
00000000
00000010
00000001
00000010
00000100
00000001
00000000
,
00020000
00100000
00000000
01000000
00030000
01000000
00010000
00000000
,
10010000
00000000
00010000
00100000
01000000
00000000
10000000
00000000
,
10010000
00000000
10000000
01000000
00100000
00000000
00010000
00000000
,
10010000
00000000
00010000
01000000
00100000
00000000
10000000
00000000
,
00000011
00000000
00000010
00000100
00001000
00000000
00001000
00000000
,
00001010
00000000
00000010
00000001
00000010
00000000
00000001
00000000
,
00001001
00000000
00000001
00000010
00000100
00000010
00001000
00000000
,
00001000
00000000
00000010
00000001
00000010
00000100
00001000
00000000
,
00020000
00000000
00030000
010M0000
,
20000000
00100000
30010000
M0100000
,
02000000
00000000
03010000
0M100000
,
10000000
01000000
00020000
00100000
,
00000000
00000000
00030000
10000000
,
10000000
01000000
00100000
00100000
,
00020000
00000000
00230000
02300000
,
23000000
00000000
32000000
00000000
00100000
03000000
00000000
00000000
,
00010000
00100000
00000000
00000000
00200000
00000000
00000000
00000000
,
00010000
00000000
00000000
10000000
,
02300000
00000000
00010000
00000000
,
10000000
00000000
03100000
00010000
00100000
00000000
01000000
00000000
,
00020000
00000000
00000000
00030000
,
00020000
00000000
00000000
01030000
00000000
00000000
10000000
00000000
,
00010000
00100000
00000000
00000000
00010000
00000000
00100000
00000000
,
10100000
00000000
00100000
00010000
00100000
00000000
00010000
00000000
,
10100000
00000000
00100000
01000000
00000000
00000000
00010000
00000000
,
00010000
00000000
01000000
01000000
00100000
00000000
00010000
00000000
,
00110000
00000000
10000000
00100000
00000000
00000000
01000000
00000000
,
10100000
00000000
00010000
00100000
00000000
00000000
01000000
00000000
,
10100000
00000000
00010000
00100000
00000000
00000000
01000000
00000000
,
10000000
00000000
01000000
00010000
00100000
00000000
00100000
00000000
,
00010000
00000000
01000000
00100000
00010000
00000000
00010000
00000000
,
10100000
00000000
00000000
00010000
00000000
00000000
10000000
00000000
,
10100000
00000000
01000000
10000000
01000000
00000000
00100000
00000000
,
00110000
00000000
01000000
00100000
00010000
00000000
00100000
00000000
,
00110000
00000000
00100000
01000000
10000000
00000000
10000000
00000000
,
10010000
00000000
00010000
00100000
01000000
00000000
10000000
00000000
,
10000000
00000000
00010000
00100000
00010000
00000000
01000000
10000000
,
10000000
00010000
01000000
00100000
,
10010000
00000000
00100000
10000000
00010000
00000000
10000000
00000000
,
10010000
00000000
00010000
00000000
01000000
00100000
10000000
01000000
;
