#TITLE:Punch;
#SUBTITLE:;
#ARTIST:NCT 127;
#TITLETRANSLIT:;
#SUBTITLETRANSLIT:;
#ARTISTTRANSLIT:;
#GENRE:;
#CREDIT:DubStepManiac;
#BANNER:Punch.png;
#BACKGROUND:Punch-bg.png;
#LYRICSPATH:;
#CDTITLE:cdtitle.png;
#MUSIC:Punch.mp3;
#OFFSET:-0.405215;
#SAMPLESTART:73.573502;
#SAMPLELENGTH:21.753500;
#SELECTABLE:YES;
#BPMS:0.000000=181.993256
;
#STOPS:
;
#BGCHANGES:0.000=Punch.mp4=1.000=0=0=0=StretchNoLoop====,
99999=-nosongbg-=1.000=0=0=0 // don't automatically add -songbackground-
;
#KEYSOUNDS:;
#ATTACKS:;

//---------------dance-single - ----------------
#NOTES:
     dance-single:
     :
     Easy:
     3:
     0.198152,0.369561,0.011052,0.071840,0.000000,251.000000,249.000000,2.000000,13.000000,0.000000,0.000000,0.198152,0.369561,0.011052,0.071840,0.000000,251.000000,249.000000,2.000000,13.000000,0.000000,0.000000:
// measure 0
0000
0000
0000
0000
,  // measure 1
0000
0000
0000
0000
,  // measure 2
0000
0000
0000
0000
,  // measure 3
0000
0000
0000
0000
,  // measure 4
0000
0000
0000
0000
,  // measure 5
0000
0000
0000
0000
,  // measure 6
0000
0000
0000
0000
,  // measure 7
0000
0000
0000
0000
,  // measure 8
0011
1000
0100
1000
,  // measure 9
1000
1000
0100
0100
,  // measure 10
1000
0000
0010
0000
,  // measure 11
0001
0001
0000
0000
,  // measure 12
1000
0000
0200
0300
,  // measure 13
0001
0000
0000
0000
,  // measure 14
0000
0000
0000
0001
,  // measure 15
0000
0000
0001
0000
,  // measure 16
1000
0000
0200
0300
,  // measure 17
0000
0000
0001
0000
,  // measure 18
0000
0000
0000
0001
,  // measure 19
0000
0000
0000
0001
,  // measure 20
1000
0000
0000
0000
,  // measure 21
0000
0000
1000
0000
,  // measure 22
0000
1000
1000
0010
,  // measure 23
1000
0000
0010
0000
,  // measure 24
1000
0010
0000
0000
,  // measure 25
0000
1000
0000
0001
,  // measure 26
0001
0000
0100
0000
,  // measure 27
0000
1000
0010
0000
,  // measure 28
1000
0010
0000
0000
,  // measure 29
0000
1000
0010
0000
,  // measure 30
1000
0000
0000
0010
,  // measure 31
0000
1000
1000
0010
,  // measure 32
1000
0010
0010
0000
,  // measure 33
1000
0000
0000
0010
,  // measure 34
0000
1000
0010
0000
,  // measure 35
1000
0000
0000
0010
,  // measure 36
0000
0001
0100
0000
,  // measure 37
1000
0000
0000
0010
,  // measure 38
0001
1000
0010
0000
,  // measure 39
1000
0001
0010
0000
,  // measure 40
1000
1000
0000
0000
,  // measure 41
0000
0000
0000
0001
,  // measure 42
0000
1000
0001
0000
,  // measure 43
0000
0000
1000
0000
,  // measure 44
0000
0000
0200
0000
,  // measure 45
0000
0000
0300
0000
,  // measure 46
1000
0000
0000
0000
,  // measure 47
0001
0000
0010
0000
,  // measure 48
0000
0001
0000
0010
,  // measure 49
0001
0000
0100
0000
,  // measure 50
0000
0001
0100
0000
,  // measure 51
1000
0000
0000
0000
,  // measure 52
0000
0001
0100
0000
,  // measure 53
0001
0000
0010
0000
,  // measure 54
1000
0001
0000
0000
,  // measure 55
1000
1000
0100
0100
,  // measure 56
0001
0010
0000
0001
,  // measure 57
1000
0000
0000
0010
,  // measure 58
0000
1000
0000
0100
,  // measure 59
1000
0010
1000
0000
,  // measure 60
0000
0001
0100
0010
,  // measure 61
1000
1000
1000
0000
,  // measure 62
0000
1000
0010
0000
,  // measure 63
1000
0010
0000
0000
,  // measure 64
0000
1000
0000
0100
,  // measure 65
1000
0000
0000
0010
,  // measure 66
0000
1000
0010
0000
,  // measure 67
1000
0010
1000
0000
,  // measure 68
0000
0001
0100
0010
,  // measure 69
1000
1000
2000
0000
,  // measure 70
0000
0000
3000
0001
,  // measure 71
1000
0010
0000
0000
,  // measure 72
1000
0000
0010
0000
,  // measure 73
0000
0001
0100
0010
,  // measure 74
1000
1000
0000
0000
,  // measure 75
1000
0000
0000
0010
,  // measure 76
0000
1000
0000
0100
,  // measure 77
0011
1000
0000
0200
,  // measure 78
0000
0000
0000
0000
,  // measure 79
0300
1000
0000
0000
,  // measure 80
0000
1000
0000
0001
,  // measure 81
0001
0000
0100
0000
,  // measure 82
0000
1000
0100
0000
,  // measure 83
0001
0000
0100
0000
,  // measure 84
0000
1000
0010
0000
,  // measure 85
1000
0000
0000
0020
,  // measure 86
0000
0000
0000
0030
,  // measure 87
0001
0000
0010
0000
,  // measure 88
0000
0001
0000
0010
,  // measure 89
0001
0000
0010
0000
,  // measure 90
0000
1000
0001
0000
,  // measure 91
0001
0000
0010
0000
,  // measure 92
0000
0001
0100
0000
,  // measure 93
1000
0000
0000
0010
,  // measure 94
0001
0010
0000
0001
,  // measure 95
1000
1000
0100
0100
,  // measure 96
1000
0010
0000
0010
,  // measure 97
1000
0010
0000
0000
,  // measure 98
0000
1000
0000
0100
,  // measure 99
0001
0010
0000
0200
,  // measure 100
0000
0000
0000
0300
,  // measure 101
1000
0000
0000
0100
,  // measure 102
0000
0000
0000
0001
,  // measure 103
0001
0000
0000
1000
,  // measure 104
0020
0000
0000
0000
,  // measure 105
0030
0000
0000
0100
,  // measure 106
0002
0000
0000
0000
,  // measure 107
0003
0000
0000
1000
,  // measure 108
0000
0000
0000
0001
,  // measure 109
1000
0000
0000
0100
,  // measure 110
0200
0000
0000
0000
,  // measure 111
0300
0000
0000
1000
,  // measure 112
0002
0000
0000
0000
,  // measure 113
0003
0000
0000
0100
,  // measure 114
1000
1000
1000
0000
,  // measure 115
0001
0000
1000
0100
,  // measure 116
1000
0001
0000
1000
,  // measure 117
1000
1000
0000
0000
,  // measure 118
1000
1000
0000
0000
,  // measure 119
0001
0000
0000
0000
,  // measure 120
1000
1000
1000
0000
,  // measure 121
2000
0000
0000
0000
,  // measure 122
3000
0001
0000
0000
,  // measure 123
2000
0000
0000
0000
,  // measure 124
3000
1000
0010
0000
,  // measure 125
1000
1000
0000
0000
,  // measure 126
0001
0001
0000
0000
,  // measure 127
0001
0000
1000
0100
,  // measure 128
0001
1000
0010
0000
,  // measure 129
1000
1000
0000
0000
,  // measure 130
0001
0001
0000
0000
,  // measure 131
1000
1000
1000
0000
,  // measure 132
0000
0000
0001
0010
,  // measure 133
1000
1000
0100
0100
;

//---------------dance-single - ----------------
#NOTES:
     dance-single:
     :
     Medium:
     6:
     0.328411,0.517385,0.038683,0.049735,0.000000,416.000000,409.000000,7.000000,9.000000,0.000000,0.000000,0.328411,0.517385,0.038683,0.049735,0.000000,416.000000,409.000000,7.000000,9.000000,0.000000,0.000000:
0000
0000
1000
0000
,
0000
0000
0001
0000
,
0000
0000
1000
0000
,
0000
0000
1000
0000
,
0000
0000
1000
0000
,
0000
0000
1000
0000
,
0000
0000
1000
0000
,
0000
0000
1000
0000
,
1010
0000
1000
0000
0001
0100
0010
0100
,
1000
0010
0010
0100
0001
0000
0001
0000
,
1000
0010
0100
0001
,
1000
1000
0000
0000
,
1010
0001
0200
0300
,
0001
0000
0010
0000
,
0000
0000
0001
0001
,
0001
0000
0100
0000
,
1010
0001
0200
0300
,
0001
0000
0100
0000
,
0000
0000
0001
0001
,
0000
0000
0001
0001
,
0001
0000
0000
0000
,
0000
0000
0001
0000
,
1000
0000
0001
0000
0001
1000
0100
0000
,
1000
0010
0100
0001
,
0001
0000
0100
0001
0100
0000
0000
0000
,
0000
0000
1000
0000
0100
0000
0010
0001
,
1000
0000
0000
0010
1000
0000
0000
0000
,
1000
0010
0100
0000
,
0001
0000
0100
0001
0100
0000
0000
0000
,
1000
0010
0100
0000
,
0001
0000
0000
1000
0100
0000
0010
0000
,
1000
0000
0001
0000
0001
1000
0100
0000
,
0001
0010
0100
0000
0100
0000
0010
0000
,
0001
0000
0000
1000
0100
0000
0010
0000
,
1000
0010
0100
0000
,
0001
0000
0000
1000
0100
0000
0010
0000
,
1000
0000
1000
0000
0001
0000
0000
1000
,
0001
0000
0000
1000
0100
0000
0010
0000
,
1000
0000
0010
0000
1000
0100
0000
0000
,
0001
0000
0100
0000
0001
0010
0000
0000
,
1000
1000
0100
0000
,
0000
0000
0001
0001
,
0000
0001
0010
0010
,
0000
0000
0001
0000
,
0000
0000
2000
0000
,
0000
0000
3000
0000
,
0001
0000
0100
0000
,
1000
0000
0100
1000
0010
0000
0000
0000
,
0001
0010
0000
1000
,
1000
0000
0000
0010
1000
0000
0000
0000
,
1000
0001
0010
0000
,
0001
0000
0000
1000
0000
0000
0000
0000
,
1000
0001
0010
0000
,
1000
0000
0000
0100
0010
0000
0000
0000
,
0001
0100
0010
0000
0000
0000
0000
0000
,
1000
0010
0010
0100
0001
0000
0001
0000
,
0001
0100
0001
0000
0001
0000
0100
0000
,
0001
0000
0000
1000
0100
0000
0010
0000
,
0001
0100
0001
0100
,
1000
0100
1001
0010
,
1000
0100
0010
0001
,
1000
1000
1000
1000
,
1000
0010
0100
0000
,
0001
0000
0100
0001
0100
0000
0000
0000
,
0001
0100
0001
0100
,
0001
0000
0000
1000
0100
0000
0010
0000
,
1000
0010
0100
0000
,
1000
0100
1001
0010
,
1000
0100
0010
0001
,
1000
1000
0020
1000
,
0000
0000
0030
0001
,
0001
0000
0100
0001
0100
0000
0000
0000
,
1000
0010
0100
0001
,
1000
0100
0010
0001
,
1000
1000
0100
0000
,
0001
0000
1000
0001
0000
0000
0010
0000
,
0001
0100
0001
0100
,
1001
0000
1000
0001
0000
0000
0000
0000
,
0000
1000
0000
1000
,
0000
0000
0100
0001
1000
0000
0000
0000
,
0000
0000
1000
0000
0100
0000
0010
0001
,
1000
0000
0000
0010
1000
0000
0000
0000
,
0000
0000
1000
0000
0100
0000
0000
1000
,
1000
0000
0000
0010
1000
0000
0000
0000
,
1000
0010
0100
0000
,
0001
0000
0000
1000
0100
0000
0000
0000
,
0000
0100
0000
0001
,
1000
0000
0100
1000
0010
0000
0000
0000
,
0001
0010
0000
1000
,
1000
0000
0100
1000
0010
0000
0000
0000
,
0000
0001
0010
0010
,
1000
0000
0000
0100
0010
0000
0000
0000
,
1000
0001
0010
0000
,
0001
0000
0000
1000
0100
0000
0010
0000
,
0001
0100
0001
0000
0001
0000
0100
0000
,
1000
0010
0010
0100
0001
0000
0001
0000
,
0001
0010
0001
0000
0000
0000
0001
0000
,
0001
0000
0100
0001
0100
0000
0000
0000
,
0001
0100
0001
0100
,
0001
0100
0001
0000
0001
0000
2000
0000
,
0000
0000
0000
3000
,
0001
0000
0010
0100
,
0000
0000
0001
0001
,
0001
0000
0000
0010
0000
0000
0001
0000
,
0000
0000
0000
0001
,
0000
0000
0010
0100
,
0200
0000
0000
0001
,
0300
0000
0000
0010
0000
0000
0001
0000
,
0000
0000
0001
0001
,
0001
0000
0010
0100
,
0200
1000
0000
0000
,
0300
0000
0000
0010
0000
0000
0001
0000
,
0002
0000
0000
0000
,
0003
0000
0010
0100
,
1000
1000
1000
1000
,
0001
0000
0000
0100
0001
0000
1000
0000
,
1001
0100
0100
0001
,
1000
1000
0100
0000
,
1000
1000
0100
0000
,
0001
0000
0010
0000
,
1000
1000
1000
1000
,
0000
1000
0000
0000
,
0000
0001
0010
0000
,
0002
0000
0000
0000
,
0003
0000
0010
0000
1000
0100
0000
0000
,
1000
1000
0100
0000
,
1000
1000
0000
0000
,
0001
0000
0000
0100
0001
0000
1000
0000
,
1000
0100
1000
0001
,
1000
1000
0100
0000
,
1000
1000
0010
0000
,
1000
1000
1000
1000
,
1000
0000
0010
1000
,
1000
0010
0010
0100
0001
0000
0001
0000
;

//---------------dance-single - ----------------
#NOTES:
     dance-single:
     :
     Hard:
     8:
     0.530510,0.628841,0.121575,0.044209,0.000000,672.000000,650.000000,22.000000,8.000000,0.000000,0.000000,0.530510,0.628841,0.121575,0.044209,0.000000,672.000000,650.000000,22.000000,8.000000,0.000000,0.000000:
0000
0000
0000
0000
0000
0000
0000
1000
,
0000
0000
0000
0000
0000
0000
0000
1000
,
0000
0000
0000
0000
0000
0000
0000
1000
,
0000
0000
0000
0000
0000
0000
0000
1000
,
0000
0000
0000
0000
0000
0000
0000
1000
,
0000
0000
0000
0000
0000
0000
0000
1000
,
0000
0000
0000
0000
0000
0000
0000
0001
,
0000
0000
0000
0000
,
1001
0000
0001
0010
0001
0100
0001
0000
,
1010
0000
0001
0010
0100
0100
0100
0010
,
0001
0100
0001
0000
0010
0000
0001
0010
,
0001
1000
1000
0100
0000
0000
0000
0000
,
0101
0000
0000
1000
0020
0000
0030
0000
,
1000
0010
0000
0000
1000
0000
0010
0000
,
1000
0000
0000
0000
0100
0010
0010
0000
,
0001
0000
0000
0000
1000
0100
0000
0000
,
0101
0000
0000
1000
0020
0000
0030
0000
,
0001
0000
0000
0000
1000
0100
0000
0000
,
1000
0000
0000
0000
0100
0010
0010
0000
,
0001
0000
0000
0000
0010
0100
0100
0000
,
1000
0100
0000
0000
,
0001
0000
0010
0000
,
0001
0010
0001
1000
1000
0001
0010
0001
,
0001
0100
0001
0000
0010
0000
0001
0010
,
0001
0000
1000
0001
0010
0001
0000
0100
,
0000
1000
0100
0000
1000
0010
0100
0001
,
0001
0000
0010
0100
1000
0000
0000
0100
,
1000
1000
0010
0000
0001
0100
0000
1000
,
0001
0000
1000
0001
0010
0001
0000
0100
,
1000
1000
0010
0000
0001
0100
0000
1000
,
1000
0000
0001
1000
0100
0000
1000
0100
,
0001
0010
0001
1000
1000
0001
0010
0001
,
1000
0001
0010
0010
0010
0001
1000
0100
,
1000
0000
0001
1000
0100
0000
1000
0100
,
1000
1000
0010
0000
0001
0100
0000
1000
,
1000
0000
0001
1000
0100
0000
1000
0100
,
1000
0010
0010
1000
0100
1000
0000
0100
,
1000
0000
0001
1000
0100
0000
1000
0100
,
0001
1000
0001
1000
0001
1000
0000
0010
,
1000
0001
1000
0001
1000
0001
0000
0010
,
1000
0001
0001
0001
0100
0000
0000
0000
,
1000
0000
0000
0000
0100
0010
0010
0000
,
0001
0000
1000
0000
0100
0010
0010
0000
,
0001
0000
0010
0000
,
0001
0000
0200
0000
,
1000
0000
1300
0010
,
1000
0100
0000
0000
1000
0000
0100
0000
,
1001
0000
0100
1000
0100
0000
1000
0000
,
1000
0010
0100
0000
0000
0000
0001
0010
,
0001
0000
0010
0100
1000
0000
0000
0100
,
1000
1100
1000
0000
,
1000
0100
0000
0010
0100
0000
0000
0000
,
1000
1100
1000
0000
,
1001
0000
0000
0001
0010
0000
0000
0001
,
1000
0001
0100
0000
0100
0000
0000
0000
,
1010
0000
0001
0010
0100
0100
0100
0010
,
0001
0010
0100
0010
0010
0100
0010
0001
,
1000
0000
0001
1000
0100
0000
1000
0100
,
0001
0010
0100
0000
0000
1000
0100
0000
,
0110
0000
0100
0000
1100
0000
0010
0001
,
1000
0001
0010
0000
0100
1000
0001
0010
,
0001
1000
1000
0100
0100
0010
0010
0000
,
1000
1000
0010
0000
0001
0100
0000
1000
,
0001
0000
1000
0001
0010
0001
0000
0100
,
0001
0010
0100
0000
0000
1000
0100
1000
,
1000
0000
0001
1000
0100
0000
1000
0100
,
1000
1000
0010
0000
0001
0100
0000
0000
,
0110
0000
0100
0000
1100
0000
0010
0001
,
1000
0001
0010
0000
0100
1000
0001
0010
,
0001
1000
1000
0100
0000
0000
0010
0000
,
1000
0000
0000
0000
0100
0010
0010
0000
,
0001
0000
1000
0001
0010
0001
0000
0100
,
0001
0100
0001
0000
0010
0000
0001
0010
,
1000
0001
0010
0000
0100
1000
0001
0010
,
1000
0001
0001
0001
0100
0000
0000
0000
,
1010
0000
0010
0100
0010
0000
0001
1000
,
0001
0010
0100
0000
0000
1000
0100
0000
,
0110
0000
0001
0010
0100
0100
0000
0000
,
0001
1000
0100
0010
,
0001
0000
0010
0001
0100
0010
0000
1000
,
0000
1000
0100
0000
1000
0010
0100
0001
,
0001
0000
0010
0100
1000
0000
0000
0100
,
0001
0000
1000
0000
0100
1000
0000
0100
,
0001
0000
0010
0100
1000
0000
0000
0100
,
1000
1000
0010
0000
0001
0100
0000
1000
,
1000
0000
0001
1000
0100
0000
0000
0000
,
1000
0010
0001
0001
,
1001
0000
0100
1000
0100
0000
1000
0000
,
1000
0010
0100
0000
0000
0000
0001
0000
,
1001
0000
0100
1000
0100
0000
1000
0000
,
0001
0000
1000
0000
0100
0010
0010
0000
,
1001
0000
0000
0001
0010
0000
0000
0001
,
1000
1100
1000
0000
,
1000
0000
0001
1000
0100
0000
1000
0100
,
0001
0010
0100
0010
0010
0100
0010
0000
,
1010
0000
0001
0010
0100
0100
0100
0010
,
1000
0100
0010
0100
0000
0010
0010
0001
,
0001
0000
1000
0001
0010
0001
0000
0100
,
0001
0010
0100
0000
0000
1000
0100
1000
,
0001
0010
0100
0010
0010
0100
0200
0000
,
1000
0000
1000
0310
,
0001
0000
0000
0000
1000
1000
0100
0010
,
1000
0000
0000
0000
0100
0010
0010
0000
,
0001
0010
0100
0010
0000
0000
0001
0000
,
0002
0000
0100
0010
,
0003
0000
0000
0000
1000
1000
0100
0010
,
0000
0000
0100
0010
,
0001
0010
0100
0010
0000
0000
0001
0000
,
1000
0000
0000
0000
0100
0010
0010
0000
,
0001
0000
0000
0000
1000
1000
0100
0010
,
0200
1000
0000
0000
,
0301
0010
0100
0010
0000
0000
0001
0000
,
0020
0000
1000
0000
,
0031
0000
0000
0000
1000
1000
0100
0010
,
0001
1000
1000
0100
0100
0010
0010
0000
,
0001
1000
0001
1000
0010
0000
1000
0000
,
0101
0000
0001
0100
0100
0001
0100
0100
,
1000
0001
0001
0001
0100
0000
0000
0000
,
1000
0001
0001
0001
0010
0000
0000
0000
,
1000
0010
0000
0000
1000
0000
0010
0000
,
0001
1000
1000
0100
0100
0010
0010
0000
,
0000
0001
0100
0000
,
0001
1000
1000
1000
0100
0000
0000
0000
,
0200
0000
1000
0010
,
0301
1000
0001
1000
0001
1000
0000
0010
,
1000
0001
0001
0001
0100
0000
0000
0000
,
0001
1000
1000
0100
0000
0000
0000
0000
,
0001
1000
0001
1000
0010
0000
1000
1000
,
1000
0001
0010
0010
0001
0010
0001
0000
,
1000
0001
0001
0001
0100
0000
0000
0000
,
0001
1000
1000
1000
0010
0000
0000
0000
,
0001
1000
1000
0100
0100
0010
0010
0000
,
0000
0000
0000
0000
1000
0010
0100
0000
,
1010
0000
0001
0010
0100
0100
0100
0010
;
