#VERSION:0.83;
#TITLE:PLAY;
#SUBTITLE:(feat. CHANGMO);
#ARTIST:CHUNGHA;
#TITLETRANSLIT:;
#SUBTITLETRANSLIT:;
#ARTISTTRANSLIT:;
#GENRE:;
#ORIGIN:;
#CREDIT:DubStepManiac;
#BANNER:PLAY (Feat. CHANGMO).png;
#BACKGROUND:PLAY (Feat. CHANGMO)-bg.png;
#PREVIEWVID:;
#JACKET:jacket.png;
#CDIMAGE:;
#DISCIMAGE:;
#LYRICSPATH:;
#CDTITLE:cdtitle.png;
#MUSIC:PLAY (Feat. CHANGMO).mp3;
#OFFSET:-0.172404;
#SAMPLESTART:44.018200;
#SAMPLELENGTH:19.981800;
#SELECTABLE:YES;
#BPMS:0.000=208.003;
#STOPS:;
#DELAYS:;
#WARPS:;
#TIMESIGNATURES:0.000=4=4;
#TICKCOUNTS:0.000=4;
#COMBOS:0.000=1;
#SPEEDS:0.000=1.000=0.000=0;
#SCROLLS:0.000=1.000;
#FAKES:;
#LABELS:0.000=Song Start;
#BGCHANGES:0.000=PLAY (Feat. CHANGMO).mp4=1.000=0=0=0=StretchNoLoop====,
99999=-nosongbg-=1.000=0=0=0 // don't automatically add -songbackground-
;
#KEYSOUNDS:;
#ATTACKS:
;

//---------------dance-single - ----------------
#NOTEDATA:;
#CHARTNAME:;
#STEPSTYPE:dance-single;
#DESCRIPTION:;
#CHARTSTYLE:;
#DIFFICULTY:Easy;
#METER:3;
#RADARVALUES:0.224963,0.378817,0.150773,0.039089,0.000000,282.000000,255.000000,27.000000,7.000000,0.000000,0.000000,0.000000,0.000000,0.000000,0.224963,0.378817,0.150773,0.039089,0.000000,282.000000,255.000000,27.000000,7.000000,0.000000,0.000000,0.000000,0.000000,0.000000;
#CREDIT:DubStepManiac;
#NOTES:
0000
0000
0000
0000
,
0000
0000
0000
0000
,
0000
0000
0000
0000
,
0000
0000
0000
0000
,
0000
0000
0000
0000
,
0001
0000
0000
0000
,
1000
0000
0000
0001
,
1000
0000
0000
0001
,
0001
0000
0000
1000
,
0001
0000
0000
0100
,
1000
0000
0000
0100
,
1000
0000
0000
0001
,
0001
0000
0000
1000
,
0001
0000
1000
0000
,
1000
0000
0000
0001
,
0001
0000
0000
1000
,
1000
0000
0000
0001
,
0001
0000
0000
0100
,
1000
0000
0000
0001
,
1000
0000
0000
0001
,
0001
0000
0000
0100
,
0000
0000
1000
0001
,
0001
0000
0000
0000
,
0000
1000
0000
0000
,
0000
1000
0000
0000
,
0001
0000
0000
0000
,
0000
0200
0000
0000
,
0000
0300
0000
0000
,
0000
0002
0000
0000
,
0000
0003
0000
0000
,
0001
0001
0000
0000
,
0000
1000
0000
0010
,
0000
1000
0000
0010
,
1000
0010
0000
0000
,
0001
1000
0000
0000
,
0101
0000
1000
0000
,
0001
0000
0000
0200
,
0000
0000
0000
0300
,
0000
0110
0000
1000
,
0000
0110
0000
0001
,
0000
1000
0000
0010
,
0000
0101
0000
1000
,
0000
0001
0000
0100
,
0000
0101
0000
0001
,
0001
0000
1000
0000
,
0001
0000
1000
0000
,
0000
1000
0000
0001
,
0000
0110
0000
1000
,
1000
0010
0000
0100
,
0000
0101
0000
1000
,
0000
0001
0000
0100
,
0000
0101
0000
0001
,
0001
0000
1000
0000
,
0000
0000
0001
1000
,
0000
1010
0000
1000
,
0000
1000
0000
1000
,
0000
0001
0000
0010
,
0000
1000
0000
1000
,
0000
1000
0000
0001
,
0000
1000
0000
1000
,
0001
0000
1000
0000
,
0001
0000
0000
0000
,
0000
0001
0000
0000
,
0000
1000
0000
0000
,
0000
0001
0000
0000
,
0000
1000
0000
0000
,
0000
0001
0000
0000
,
1000
0000
0000
0001
,
1000
0000
0000
0001
,
0001
0000
1000
0000
,
1000
0000
0000
0001
,
0001
0000
0000
1000
,
1000
0000
0000
0001
,
1000
0000
0000
0100
,
1000
0000
0000
0001
,
0001
0000
0000
1000
,
1000
0010
0000
0000
,
0000
0001
0000
0010
,
0000
1000
0010
0000
,
0000
1000
0000
0000
,
0000
2000
0000
0000
,
0000
3000
0000
0000
,
0000
1000
0000
0000
,
0000
1000
0000
0000
,
0000
0001
0000
0000
,
0000
1000
0000
0010
,
1000
0100
0000
0000
,
0000
1000
0000
0010
,
0000
1000
0000
0010
,
1000
0010
0000
0000
,
1000
0100
0000
0000
,
0101
0000
1000
0000
,
0001
0000
0000
0100
,
0001
0001
0000
0000
,
0000
0110
0000
1000
,
0000
0110
0000
0001
,
0000
1010
0001
0100
,
0000
0110
0000
0001
,
0000
0001
0000
0100
,
0000
0101
0000
0001
,
0001
0000
1000
0000
,
0001
0000
1000
0000
,
1000
0010
0000
0100
,
0000
1000
0000
0100
,
0000
1010
0001
0100
,
0000
0101
0000
1000
,
0000
0001
0000
0100
,
0000
0101
0000
0001
,
0001
0000
1000
0000
,
0000
0000
0001
1000
,
0000
0110
0000
0001
,
0000
1000
0000
1000
,
0000
0001
0000
0010
,
0000
1000
0000
1000
,
0000
1000
0000
0001
,
0000
1000
0000
1000
,
0001
0000
1000
0000
,
0000
1000
0000
0010
,
0001
0000
0000
0020
,
0000
0000
0000
0000
,
0000
0000
0000
0000
,
2030
0000
0000
0000
,
3000
0002
0000
0000
,
0000
0000
0000
0003
,
1000
0000
0000
0000
,
0001
0000
0000
0000
,
0000
0001
0000
1000
,
0001
0000
1000
0000
,
0000
1000
0000
0000
,
0000
0000
0000
1000
,
0001
0000
0000
0000
,
0000
0000
0000
1000
,
0000
0000
0000
0001
,
0000
0000
0000
0001
,
0000
0000
0000
1000
,
0000
0101
0000
1000
,
0000
1100
0000
0001
,
0000
1010
0001
0100
,
0000
1010
0001
0100
,
0000
0001
0000
0100
,
0000
0101
0000
0001
,
0001
0000
1000
0000
,
1000
0000
0001
0000
,
0000
1000
0000
0001
,
0000
0101
0000
0001
,
1000
0010
0000
0100
,
0000
0101
0000
1000
,
0000
0001
0000
0100
,
0000
0101
0000
0001
,
0001
0000
1000
0000
,
0000
0000
0000
1000
;

//---------------dance-single - ----------------
#NOTEDATA:;
#CHARTNAME:;
#STEPSTYPE:dance-single;
#DESCRIPTION:;
#CHARTSTYLE:;
#DIFFICULTY:Medium;
#METER:6;
#RADARVALUES:0.336647,0.547181,0.346220,0.039089,0.000000,422.000000,360.000000,62.000000,7.000000,0.000000,0.000000,0.000000,0.000000,0.000000,0.336647,0.547181,0.346220,0.039089,0.000000,422.000000,360.000000,62.000000,7.000000,0.000000,0.000000,0.000000,0.000000,0.000000;
#CREDIT:DubStepManiac;
#NOTES:
0001
0000
0000
0000
,
0001
0000
0000
0000
,
1000
0000
0000
0000
,
0001
0000
0000
0000
,
0001
0000
0000
0000
,
1000
0000
0000
0000
,
0001
0000
0000
0100
,
0001
0000
0000
0100
,
1000
0000
0000
0100
,
0001
0000
0000
0100
,
1000
0000
0000
0100
,
0001
0000
0000
0100
,
0001
0000
0000
0010
,
0001
0000
1000
0000
,
0001
0000
0000
0100
,
0001
0000
0000
0010
,
0001
0000
0000
0100
,
0001
0000
0000
0100
,
0001
0000
0000
0100
,
1000
0000
0000
0100
,
0001
0000
0000
0100
,
0000
0000
1000
0001
,
0001
1000
0000
0000
,
0001
0010
0000
0000
,
0000
0001
0010
0000
,
0001
1000
0000
0000
,
0001
0200
0000
0000
,
0000
0310
0000
0000
,
1000
0002
0000
0000
,
0000
0013
0000
0000
,
1000
1000
0001
0000
,
0000
1000
0100
0010
,
0000
0011
0001
1000
,
0001
1000
0000
0100
,
1010
1000
0001
0000
,
0011
0001
1000
0000
,
1000
0001
0000
0000
0000
0000
0200
0000
,
0000
0000
0000
0300
,
0000
0011
0001
0110
,
0001
0101
0000
0101
,
0000
0011
0001
1000
,
0001
0011
0000
1000
,
0001
0010
0000
0011
,
0001
1100
0000
1100
,
1000
0000
0001
0100
,
1000
0000
0001
0010
,
1000
0010
0000
1000
,
0000
0011
0001
0110
,
0001
1000
0010
0110
,
0001
0011
0000
1000
,
0001
0010
0000
0011
,
0001
1100
0000
1100
,
0001
0100
0001
0000
,
0000
1000
1000
0100
,
0001
0110
0000
1100
,
1000
0010
0000
0010
,
1000
0100
0000
1000
,
1000
0010
0000
0010
,
1000
0010
0000
1000
,
1000
0010
0000
0010
,
0001
0100
0001
0000
,
1000
0001
0000
0000
0000
0000
0000
0000
,
0000
0001
0000
0000
,
0000
1000
0000
0000
,
0000
0001
0000
0000
,
0000
1000
0000
0000
,
0000
1000
0000
0000
,
0001
0000
0000
0100
,
1000
0000
0000
0100
,
0001
0000
1000
0000
,
0001
0000
0000
0100
,
0001
0000
0000
0100
,
1000
0000
0000
0100
,
0001
0000
0000
0100
,
0001
0000
0000
0100
,
0001
0000
0000
0100
,
0001
1000
0000
0100
,
1000
0100
0000
1000
,
0001
1000
0010
0000
,
0001
0010
0000
0000
,
1000
0200
0000
0000
,
0000
0300
0000
0000
,
1000
0010
0000
0000
,
0001
0100
0000
0000
,
1000
0100
0000
0000
,
0000
1000
0100
0010
,
1000
0001
1000
0000
,
0000
1000
0100
0010
,
0000
0001
0010
0100
,
0001
1000
0000
0100
,
1000
0001
1000
0000
,
0011
0001
1000
0000
,
1000
0001
0000
0100
,
1000
1000
0001
0000
,
0000
0011
0001
0110
,
0001
0101
0000
0101
,
0000
1001
1000
0101
,
0001
0101
0000
0101
,
0001
0010
0000
0011
,
0001
1100
0000
1100
,
1000
0000
0001
0100
,
0001
0000
1000
0100
,
1100
0001
0100
0101
,
0000
1010
0000
1010
,
0000
1001
1000
0101
,
0001
0011
0000
1000
,
0001
0010
0000
0011
,
0001
1100
0000
1100
,
0001
0100
0001
0000
,
0000
1000
1000
0100
,
0001
0101
0000
0101
,
1000
0010
0000
0010
,
1000
0100
0000
1000
,
1000
0010
0000
0010
,
1000
0010
0000
1000
,
1000
0010
0000
0010
,
0001
0100
0001
0000
,
0000
1000
0100
0010
,
1000
0000
0000
0002
,
0000
0000
0000
0000
,
0000
0000
0000
0000
,
0203
0000
0000
0000
,
0300
0020
0000
0000
,
0000
0000
0000
0030
,
0001
0000
0000
0000
,
0001
0000
0100
0000
,
0000
0001
0000
0010
,
1000
0000
0001
0100
,
0001
0010
0000
0000
,
1000
0000
0000
0001
,
0001
0000
0100
0000
,
1000
0000
0000
0001
,
1000
0000
0000
0001
,
0001
0000
0000
1000
,
0000
0001
0000
1000
,
0001
0011
0000
1000
,
1000
1100
0000
0001
,
0000
1001
1000
0101
,
0000
1001
1000
0101
,
0001
0010
0000
0011
,
0001
1100
0000
1100
,
1000
0000
0001
0100
,
1000
0000
0001
0010
,
1000
0010
0000
1000
,
0001
1100
0000
1100
,
1100
0001
0100
0101
,
0001
0011
0000
1000
,
0001
0010
0000
0011
,
0001
1100
0000
1100
,
0001
0100
0001
0000
,
1000
0000
0000
0001
;

//---------------dance-single - ----------------
#NOTEDATA:;
#CHARTNAME:;
#STEPSTYPE:dance-single;
#DESCRIPTION:;
#CHARTSTYLE:;
#DIFFICULTY:Hard;
#METER:7;
#RADARVALUES:0.552835,0.689089,0.614261,0.044674,0.000000,693.000000,583.000000,110.000000,8.000000,0.000000,0.000000,0.000000,0.000000,0.000000,0.552835,0.689089,0.614261,0.044674,0.000000,693.000000,583.000000,110.000000,8.000000,0.000000,0.000000,0.000000,0.000000,0.000000;
#CREDIT:DubStepManiac;
#NOTES:
0001
0000
0000
0000
,
0001
0000
0000
0000
,
1000
0000
0000
0000
,
1000
0000
0000
0000
,
1000
0000
0000
0000
,
0001
0000
0000
0000
,
1000
0000
0000
1000
,
0000
0001
0000
0001
,
0001
0010
0000
0001
,
1000
0010
0000
1000
,
0001
0100
0000
0001
,
1000
0100
0000
1000
,
0001
0100
0000
0001
,
0001
1000
0010
0100
,
1000
0100
0000
1000
,
1000
0100
0000
1000
,
1000
0100
0000
1000
,
1000
0010
0000
1000
,
1000
0100
0000
1000
,
1000
0010
0000
1000
,
1000
0100
0000
1000
,
0001
0000
0010
0100
,
0001
0100
0001
0000
,
0001
0000
1000
0000
1000
0100
0000
0000
,
0000
0000
1000
0000
0001
1000
0000
0000
,
0001
0100
0001
0000
,
0001
0000
1000
0000
,
0001
0000
0000
0000
1000
0010
0000
0000
,
0001
0200
1000
0000
,
0001
0000
1300
0000
1000
0100
0000
0000
,
0001
0010
0010
0000
0000
0001
0000
0000
,
0100
0000
0001
0000
0010
0100
0010
0000
,
1000
0000
1010
0000
0001
0001
0100
0000
,
1000
0000
0001
0000
0000
0010
0001
0000
,
0101
0000
0010
0000
0100
0010
0000
0001
,
0110
0000
0001
0010
0001
0100
0001
0000
,
0001
1000
0100
0000
0100
0000
0200
0000
,
1000
0000
0001
0000
1000
0000
0310
0001
,
0000
0101
0000
0110
,
1000
0110
1000
1001
,
1000
0000
1010
0000
0001
0100
0000
0000
,
0001
1100
1000
1100
,
0011
0000
1000
0100
0000
0000
0110
0000
,
1000
0011
0010
1100
,
0001
0000
0100
0000
0100
0010
0001
0100
,
1000
0000
0000
0000
0010
0100
1000
0000
,
1010
0010
0001
0110
,
0000
0101
0000
0110
,
0001
0010
0001
0110
,
0001
1100
1000
1100
,
0011
0000
1000
0100
0000
0000
0110
0000
,
1000
0011
0100
1100
,
1010
0000
0001
0000
0010
0000
0100
0010
,
0000
0001
1000
0000
1000
0001
1000
0000
,
0001
0101
1000
1100
,
0001
0000
1001
0000
0000
0001
0001
0000
,
0001
1000
0100
1000
,
0001
0000
1001
0000
0000
0001
0001
0000
,
1010
0010
0001
0110
,
0001
0000
1001
0000
0000
0001
0001
0000
,
1010
0000
0001
0000
0010
0000
0100
0010
,
0001
1000
0100
0010
0100
0000
1000
0000
,
0100
1000
1100
0100
,
0101
2000
3000
0100
,
0000
0011
0000
0100
,
0000
0101
0000
1100
,
0000
1000
0000
1010
,
1000
0100
0000
1000
,
1000
0110
0000
1000
,
0001
1100
0010
0100
,
1000
0101
0000
1000
,
0001
0110
0000
0001
,
1000
0110
0000
1000
,
1001
0000
0001
0000
0000
0010
0001
0000
,
1000
0100
0000
1000
,
0001
1010
0000
0001
,
1000
0000
0101
0000
0000
0010
0001
0000
,
0011
1000
0100
1000
,
0001
0001
0100
0001
1000
0000
0010
0000
,
0001
0000
1000
0000
1000
0100
0000
0000
,
1000
0200
0001
0000
,
0001
0000
1300
0000
1000
0100
0000
0000
,
1000
0000
0001
0000
0001
0010
0000
0000
,
1000
0000
0001
0000
0001
0100
0000
0000
,
1000
0000
0001
0000
0001
0010
0000
0000
,
0100
0000
0001
0000
0010
0100
0010
0000
,
0011
0010
0001
0011
,
0100
0000
0001
0000
0010
0100
0010
0000
,
1000
0000
0001
0000
0100
0010
0100
0000
,
1000
0000
0001
0000
0100
0010
0001
0000
,
0011
0010
0001
0001
,
0110
0000
0001
0010
0001
0100
0001
0000
,
1010
0000
0000
1000
0000
0100
0010
0000
,
0001
0010
0010
0000
0000
0001
0100
0000
,
0100
0000
0101
0000
0000
0110
0000
0000
,
1000
0110
1000
1001
,
0001
0101
0001
1001
,
1000
0110
1000
1001
,
0011
0000
1000
0100
0000
0000
0110
0000
,
1000
0011
0100
1100
,
0001
0000
0100
0000
0100
0010
0001
0100
,
1000
0000
0100
0000
0100
0010
1000
0000
,
1010
0001
1000
0110
,
0010
1001
0100
1100
,
0001
0101
0001
1001
,
0001
1100
1000
1100
,
0011
0000
1000
0100
0000
0000
0110
0000
,
1000
0011
0100
1100
,
1010
0000
0001
0000
0010
0100
0010
0100
,
0000
0001
1000
0000
1000
0001
1000
0000
,
1000
0110
1000
1001
,
0001
0000
1001
0000
0000
0001
0001
0000
,
0001
1000
0100
1000
,
0001
0000
1001
0000
0000
0001
0001
0000
,
1010
0010
0001
0110
,
0001
0000
1001
0000
0000
0001
0001
0000
,
1010
0000
0001
0000
0010
0000
0100
0010
,
0000
0000
0001
0000
0010
0100
0010
0000
,
1000
0000
0100
0000
0010
0001
0010
0000
,
1000
0100
1000
0000
0010
0000
1000
0000
,
0001
0010
0001
0000
0100
0000
0100
0000
,
2000
0001
0000
0001
,
3000
0020
0000
0000
,
1000
1000
0000
0030
,
1000
1000
0000
0000
,
1000
0000
0001
0000
,
0000
0000
1000
0000
0100
0000
1000
0100
,
0001
0000
0000
0000
0100
0010
0001
0100
,
0001
0000
1000
0000
1000
0100
0000
0000
,
0001
0010
0000
0100
,
1000
0001
1000
0000
,
0001
0010
0000
0100
,
0001
0100
0000
0010
,
1000
0100
0000
0010
,
0000
0000
1000
0000
0000
0000
0100
0100
,
0001
1100
1000
1100
,
0001
0000
0000
0000
,
0000
0101
0001
1001
,
0001
0000
0100
0010
0001
0010
0001
0000
,
0011
0000
1000
0100
0000
0000
0110
0000
,
1000
0000
0010
0001
0010
0100
1000
0000
,
0001
0000
0100
0000
0100
0010
0001
0100
,
1000
0000
0100
0000
0100
0010
1000
0000
,
1010
0000
0010
0000
0001
0010
0100
0000
,
1000
0000
0011
0000
0000
1100
0000
0000
,
1010
0000
0001
0000
1000
0100
0010
0000
,
0001
1100
1000
1100
,
0010
0100
1000
0100
0001
0000
0110
0000
,
1000
0011
0100
1100
,
1010
0000
0001
0000
0010
0000
0100
0010
,
0001
0000
0010
0100
0000
0010
0100
0000
,
0011
0000
0100
0000
1000
0100
1000
0000
,
1000
0100
0010
0000
0001
0000
0110
0000
,
1001
1100
0011
1001
,
2002
3003
0000
0000
;

//---------------dance-single - ----------------
#NOTEDATA:;
#CHARTNAME:;
#STEPSTYPE:dance-single;
#DESCRIPTION:;
#CHARTSTYLE:;
#DIFFICULTY:Challenge;
#METER:8;
#RADARVALUES:0.596711,0.732157,0.603093,0.094931,0.000000,748.000000,640.000000,108.000000,17.000000,0.000000,3.000000,0.000000,0.000000,0.000000,0.596711,0.732157,0.603093,0.094931,0.000000,748.000000,640.000000,108.000000,17.000000,0.000000,3.000000,0.000000,0.000000,0.000000;
#CREDIT:;
#NOTES:
0001
0010
0000
0000
,
0001
0100
0000
0000
,
1000
0010
0000
0000
,
1000
0100
0000
0000
,
1000
0010
0000
0000
,
0001
0100
0000
0100
,
1000
0100
0001
0000
,
0001
0100
0000
1000
,
0100
0001
0000
1000
,
0001
0100
0000
0001
,
1000
0010
0000
1000
,
0001
0010
0000
0001
,
1000
0010
0000
1000
,
1000
0001
0100
0010
,
0001
0010
0000
0001
,
0001
0010
0000
1000
,
1000
0100
1000
1000
,
1000
0010
0100
1000
,
1000
0100
0001
2000
,
0000
3100
0010
1000
,
1000
0100
1000
0001
,
1000
0100
0100
0010
,
1000
0010
0002
0000
,
0013
0000
1000
0100
1000
0100
0010
0100
,
0010
0000
1000
0000
0001
1000
0000
0000
,
0001
0000
0100
0000
0001
0010
0000
0000
,
0001
0000
1000
0000
0001
0010
0000
0000
,
0100
0000
0010
0000
1000
0010
0000
0000
,
0001
0000
0200
0000
1000
0010
0000
0000
,
0002
0000
1303
0000
1000
0100
0000
0000
,
0100
0001
0001
0000
0000
0001
0000
0000
,
0000
0000
0001
0000
0010
0100
0010
0000
,
1000
0000
0110
0000
0001
0001
0100
0000
,
1000
0000
0001
0010
0000
0100
0001
0000
,
0011
0000
0100
0010
0001
0000
0010
0000
,
1001
0000
0001
0100
0001
1000
0001
0000
,
0001
0100
0000
0010
0100
0000
0200
0000
,
1000
0000
0001
0010
1000
0000
0310
0000
,
0001
0101
0000
0110
,
2000
3000
1100
1001
,
1000
0000
1010
0000
0001
0001
0100
0000
,
0001
1010
1000
1100
,
0011
0000
1000
0100
0001
0000
0110
0000
,
1000
0101
0100
1100
,
0001
0000
0010
0000
0100
0010
0001
0100
,
1000
0000
0100
0000
0010
0100
1000
0000
,
1010
0010
0001
0110
,
0100
0000
0100
0010
0100
1000
0100
0000
,
0001
0010
0001
0110
,
0001
1010
1000
1100
,
0011
0000
1000
0100
0010
0000
0110
0000
,
0100
0101
0100
1100
,
1010
0000
0001
0000
0010
0000
0100
0010
,
0000
0001
1000
0000
1000
0001
1000
0000
,
0001
0201
1000
0310
,
0001
0000
1001
0000
0000
0001
0001
0000
,
0011
1000
0100
1000
,
0001
0000
1001
0000
0000
0001
0001
0000
,
1010
0010
0001
0110
,
0001
0000
1001
0000
0000
0001
0001
0000
,
1010
0000
0001
0000
0010
0000
0100
0010
,
0001
1000
0000
0100
0010
0000
0001
0000
,
0010
1100
0001
0010
,
0001
2000
3000
0100
,
0000
0011
0000
0100
,
0000
0101
0000
0110
,
0000
1000
0000
0011
,
1000
0100
0000
1000
,
1000
0110
0000
1000
,
0001
1100
0010
0100
,
1000
0101
0000
1000
,
0001
0110
0000
0101
,
1000
1100
0000
1000
,
0010
0000
0011
0000
0000
0010
0001
0000
,
1000
0110
0000
1000
,
0001
1010
0000
0001
,
1000
0000
0101
0000
0000
0010
0001
0000
,
0011
1000
0100
1100
,
0001
0001
0100
0001
1000
0000
0010
0000
,
0001
0000
1000
0000
1000
0100
0010
0000
,
1000
0200
0001
0010
,
0001
0000
1300
0000
1000
0100
0000
0000
,
1000
0000
0001
0000
0001
0010
0000
0000
,
1000
0000
0001
0000
0001
0100
0000
0000
,
1000
0000
0001
0000
0001
0010
0000
0000
,
0100
0000
0001
0000
0010
0100
0010
0000
,
0011
0000
0010
0000
0001
0010
0001
0000
,
0100
0000
0001
0000
0010
0100
0010
0000
,
1000
0000
0001
0000
0100
0010
0100
0000
,
1000
0000
0001
0000
0100
0010
0001
0000
,
0011
0000
0010
0000
0001
0010
0001
0000
,
0110
0000
0001
0010
0001
0100
0001
0000
,
1010
0000
0100
1000
0000
0100
0010
0000
,
0001
0010
0010
0000
0001
0010
0100
0000
,
0010
0101
0000
0110
,
1000
0110
1000
1001
,
0001
0101
0001
1001
,
1000
0000
0010
0100
1000
0100
1000
0000
,
0011
0000
1000
0100
0010
0000
0110
0000
,
1000
0100
0010
0000
0001
0000
1100
0000
,
0001
0000
0010
0001
0100
0010
0001
0000
,
1000
0000
0100
0010
0100
0010
1000
0000
,
1010
0001
1000
0110
,
1001
0000
1001
0000
0100
0010
0100
0000
,
0001
0101
0001
1001
,
0001
0000
0010
0100
1000
0000
1100
0000
,
0011
0000
1000
0100
0010
0000
0110
0000
,
1000
0011
0100
1100
,
1010
0000
0001
0000
0010
0001
0100
0010
,
0000
0001
1000
0000
1000
0001
1000
0000
,
1000
0000
0110
0000
1000
0100
1000
0010
,
0001
0000
1001
0000
0000
0001
0001
0000
,
0001
0011
1000
0100
,
0001
0000
1001
0000
0000
0001
0001
0000
,
1010
0010
0001
0110
,
0001
0000
1001
0000
0000
0001
0001
0000
,
1010
0000
0011
0000
0010
0000
1100
0010
,
0000
0000
0101
0000
0010
0100
0010
0000
,
1000
0100
0010
0100
,
1000
0100
2000
0000
3100
0000
0010
0000
,
0001
0010
0002
0000
0103
0000
0100
0000
,
2000
0001
0000
0000
,
3000
0020
0000
0000
,
1000
1000
0000
0030
,
1000
2000
0000
0000
,
0000
0000
3000
0000
,
0100
0000
1000
0000
0100
0000
1000
0100
,
0001
0000
0010
0000
0100
0010
0001
0100
,
0001
0000
1000
0000
1000
0100
0000
0000
,
0001
0010
1000
0100
,
1000
0001
1000
0000
,
0002
0020
0000
1000
,
0133
1000
0000
0010
,
1000
0000
0100
0010
,
0000
0000
1000
0100
0010
1000
0100
0010
,
0001
0000
1000
0100
1000
0100
1000
0010
,
0001
0010
1000
0000
0000
0000
0000
0000
,
0001
0100
0001
1000
,
0001
0101
0001
1001
,
0011
0000
1000
0100
0010
0100
0011
0000
,
1000
0011
0010
1010
,
0001
0010
1100
0000
0100
0010
0011
0100
,
1000
0000
0100
0010
0100
0010
1000
0000
,
1010
0000
0010
0001
0010
0000
1000
0010
,
1000
0011
0010
1100
,
1010
0001
1000
0110
,
0001
1100
1000
1100
,
0010
0100
1000
0100
0001
0000
0110
0000
,
1000
0000
0011
0000
0100
1000
0100
1000
,
0110
0000
0001
0000
0010
0000
0100
0010
,
0001
0000
0010
0000
1000
0100
0010
0000
,
0011
0000
0100
0000
1000
0000
0100
0010
,
0100
0010
0011
0000
0001
0000
0101
0000
,
0100
1100
1000
1010
,
0200
0300
0000
0000
;

//---------------dance-double - ----------------
#NOTEDATA:;
#CHARTNAME:;
#STEPSTYPE:dance-double;
#DESCRIPTION:;
#CHARTSTYLE:;
#DIFFICULTY:Challenge;
#METER:8;
#RADARVALUES:0.598306,0.732157,0.608677,0.106100,0.000000,750.000000,640.000000,109.000000,19.000000,0.000000,10.000000,0.000000,0.000000,0.000000,0.598306,0.732157,0.608677,0.106100,0.000000,750.000000,640.000000,109.000000,19.000000,0.000000,10.000000,0.000000,0.000000,0.000000;
#CREDIT:;
#NOTES:
// measure 0
00010000
00100000
00000000
00000000
,  // measure 1
00010000
00000100
00000000
00000000
,  // measure 2
00001000
00100000
00000000
00000000
,  // measure 3
10000000
01000000
00000000
00000000
,  // measure 4
00001000
00000010
00000000
00000000
,  // measure 5
00001000
01000000
00000000
01000000
,  // measure 6
10000000
01000000
00001000
00000000
,  // measure 7
00001000
00000100
00000000
10000000
,  // measure 8
01000000
00010000
00000000
10000000
,  // measure 9
00010000
01000000
00000000
00010000
,  // measure 10
10000000
00100000
00000000
10000000
,  // measure 11
00010000
00100000
00000000
00010000
,  // measure 12
00001000
00000010
00000000
00001000
,  // measure 13
00001000
00000001
00000100
00000010
,  // measure 14
00000001
00000010
00000000
00000001
,  // measure 15
00000001
00000010
00000000
10000000
,  // measure 16
10000000
01000000
10000000
10000000
,  // measure 17
10000000
00100000
01000000
10000000
,  // measure 18
10000000
01000000
00010000
20000000
,  // measure 19
00000000
31000000
00100000
00001000
,  // measure 20
00001000
00000100
00001000
00000001
,  // measure 21
00001000
00000100
00000100
00000010
,  // measure 22
00001000
00000010
00000002
00000000
,  // measure 23
00000013
00000000
10000000
01000000
10000000
01000000
00100000
01000000
,  // measure 24
00100000
00000000
10000000
00000000
00010000
10000000
00000000
00000000
,  // measure 25
00010000
00000000
01000000
00000000
00010000
00100000
00000000
00000000
,  // measure 26
00010000
00000000
10000000
00000000
00010000
00100000
00000000
00000000
,  // measure 27
01000000
00000000
00100000
00000000
10000000
00100000
00000000
00000000
,  // measure 28
00001000
00000000
00000020
00000000
00000001
00000100
00000000
00000000
,  // measure 29
00002000
00000000
00003031
00000000
00000001
00000100
00000000
00000000
,  // measure 30
00000010
00001000
00001000
00000000
00000000
00001000
00000000
00000000
,  // measure 31
00000000
00000000
00010000
00000000
00100000
01000000
00100000
00000000
,  // measure 32
10000000
00000000
01100000
00000000
00010000
00010000
01000000
00000000
,  // measure 33
10000000
00000000
00010000
00100000
00000000
01000000
00010000
00000000
,  // measure 34
00110000
00000000
01000000
00100000
00010000
00000000
00100000
00000000
,  // measure 35
10010000
00000000
00010000
01000000
00010000
10000000
00010000
00000000
,  // measure 36
00010000
00000100
00000000
00000010
00000100
00000000
00000200
00000000
,  // measure 37
00001000
00000000
00000001
00000010
00001000
00000000
00000310
00000000
,  // measure 38
00001000
01000010
00000000
00011000
,  // measure 39
00200000
00300000
11000000
10010000
,  // measure 40
10000000
00000000
10100000
00000000
00010000
00010000
01000000
00000000
,  // measure 41
00010000
10100000
10000000
11000000
,  // measure 42
00110000
00000000
10000000
01000000
00010000
00000000
01100000
00000000
,  // measure 43
10000000
01010000
01000000
11000000
,  // measure 44
00010000
00000000
00000100
00000000
00000010
00000100
00001000
00000010
,  // measure 45
00000001
00000000
00000010
00000000
00000100
00000010
00000001
00000000
,  // measure 46
00000101
00000100
00001000
00000110
,  // measure 47
00000010
00000000
00000010
00000100
00000010
00000001
00000010
00000000
,  // measure 48
00010000
00100000
00010000
01100000
,  // measure 49
00010000
10100000
10000000
11000000
,  // measure 50
00110000
00000000
10000000
01000000
00100000
00000000
01100000
00000000
,  // measure 51
01000000
01010000
01000000
11000000
,  // measure 52
00001010
00000000
00000001
00000000
00000010
00000000
00000100
00000010
,  // measure 53
00000000
00000001
00001000
00000000
00001000
00000001
00001000
00000000
,  // measure 54
00000001
00000201
00001000
00000310
,  // measure 55
00000001
00000000
00000001
00000000
00000000
00000001
00000001
00000000
,  // measure 56
00100001
10000000
01000000
10000000
,  // measure 57
00010000
00000000
10010000
00000000
00000000
00010000
00010000
00000000
,  // measure 58
10100000
00100000
00010000
01100000
,  // measure 59
00010000
00000000
10010000
00000000
00000000
00010000
00010000
00000000
,  // measure 60
10100000
00000000
00000001
00000000
00000010
00000000
00000100
00000010
,  // measure 61
00000001
00001000
00000000
00000100
00000010
00000000
00000001
00000000
,  // measure 62
00000010
00001100
00000001
00000010
,  // measure 63
00000001
20000000
30000000
01000000
,  // measure 64
00000000
00110000
00000000
01000000
,  // measure 65
00000000
01010000
00000000
01100000
,  // measure 66
00000000
10000000
00000000
00110000
,  // measure 67
10000000
01000000
00000000
10000000
,  // measure 68
10000000
01100000
00000000
10000000
,  // measure 69
00010000
11000000
00100000
01000000
,  // measure 70
10000000
01010000
00000000
10000000
,  // measure 71
00010000
01100000
00000000
01010000
,  // measure 72
10000000
00001100
00000000
00001000
,  // measure 73
00000010
00000000
00000011
00000000
00000000
00000010
00000001
00000000
,  // measure 74
00001000
00000110
00000000
00001000
,  // measure 75
00000001
00001010
00000000
00000001
,  // measure 76
00001000
00000000
00000101
00000000
00000000
00000010
00000001
00000000
,  // measure 77
00000011
00001000
00000100
00001100
,  // measure 78
00010000
00010000
01000000
00010000
10000000
00000000
00100000
00000000
,  // measure 79
00010000
00000000
10000000
00000000
10000000
01000000
00100000
00000000
,  // measure 80
10000000
02000000
00010000
00100000
,  // measure 81
00010000
00000000
13000000
00000000
10000000
01000000
00000000
00000000
,  // measure 82
10000000
00000000
00010000
00000000
00010000
00100000
00000000
00000000
,  // measure 83
10000000
00000000
00010000
00000000
00010000
01000000
00000000
00000000
,  // measure 84
10000000
00000000
00000001
00000000
00000001
00000010
00000000
00000000
,  // measure 85
00000100
00000000
00000001
00000000
00000010
00000100
00000010
00000000
,  // measure 86
00000011
00000000
00000010
00000000
00000001
00000010
00000001
00000000
,  // measure 87
00000100
00000000
00000001
00000000
00000010
00000100
00000010
00000000
,  // measure 88
10000000
00000000
00010000
00000000
01000000
00100000
01000000
00000000
,  // measure 89
10000000
00000000
00010000
00000000
01000000
00100000
00010000
00000000
,  // measure 90
00110000
00000000
00100000
00000000
00010000
00100000
00010000
00000000
,  // measure 91
01100000
00000000
00010000
00100000
00010000
01000000
00010000
00000000
,  // measure 92
10100000
00000000
00000100
00001000
00000000
00000100
00000010
00000000
,  // measure 93
00000001
00000010
00000010
00000000
00000001
00000010
00000100
00000000
,  // measure 94
00000010
00000101
00000000
00010100
,  // measure 95
00000000
01100000
10000000
10010000
,  // measure 96
00010000
01010000
00010000
10010000
,  // measure 97
10000000
00000000
00100000
01000000
10000000
01000000
10000000
00000000
,  // measure 98
00110000
00000000
10000000
01000000
00100000
00000000
01100000
00000000
,  // measure 99
10000000
01000000
00100000
00000000
00010000
00000000
11000000
00000000
,  // measure 100
00010000
00000000
00000010
00000001
00000100
00000010
00000001
00000000
,  // measure 101
00001000
00000000
00000100
00000010
00000100
00000010
00001000
00000000
,  // measure 102
00001010
00000001
00001000
00000110
,  // measure 103
01000010
00000000
01010000
00000000
01000000
00100000
01000000
00000000
,  // measure 104
00010000
01010000
00010000
10010000
,  // measure 105
00010000
00000000
00100000
01000000
10000000
00000000
11000000
00000000
,  // measure 106
00110000
00000000
10000000
01000000
00100000
00000000
01100000
00000000
,  // measure 107
10000000
00110000
01000000
11000000
,  // measure 108
10100000
00000000
00010000
00000000
00001000
00000100
00000001
00000010
,  // measure 109
00000000
00001000
00000001
00000000
00000001
00001000
00000001
00000000
,  // measure 110
00000001
00000000
00100100
00000000
00000001
00000010
00000001
00000100
,  // measure 111
00001000
00000000
00001001
00000000
00000000
00001000
00001000
00000000
,  // measure 112
00001000
00110000
10000000
01000000
,  // measure 113
00010000
00000000
10010000
00000000
00000000
00010000
00010000
00000000
,  // measure 114
10100000
00100000
00010000
01100000
,  // measure 115
00010000
00000000
10010000
00000000
00000000
00010000
00010000
00000000
,  // measure 116
10100000
00000000
00001100
00000000
00100100
00000000
00000011
00000100
,  // measure 117
00001000
00000000
00001010
00000000
00000100
00000010
00000100
00000000
,  // measure 118
00000001
00000010
00000100
00000010
,  // measure 119
00000001
00000010
00000002
00000000
00000013
00000000
00000100
00000000
,  // measure 120
00001000
00000100
00020000
00000000
01030000
00000000
01000000
00000000
,  // measure 121
20000000
00010000
00000000
00000000
,  // measure 122
30000000
00200000
00000000
00000000
,  // measure 123
10000000
10000000
00000000
00300000
,  // measure 124
00001000
00002000
00000000
00000000
,  // measure 125
00000000
00000000
00003000
00000000
,  // measure 126
01000000
00000000
10000000
00000000
01000000
00000000
10000000
01000000
,  // measure 127
00010000
00000000
00000100
00000000
00000010
00000100
00001000
00000010
,  // measure 128
00001000
00000000
10000000
00000000
10000000
01000000
00000000
00000000
,  // measure 129
00010000
00100000
10000000
01000000
,  // measure 130
10000000
00010000
10000000
00000000
,  // measure 131
00020000
00200000
00000000
10000000
,  // measure 132
01330000
00001000
00000000
00000010
,  // measure 133
00001000
00000000
00000100
00000010
,  // measure 134
00000000
00000000
00001000
00000100
00000010
00001000
00000100
00000010
,  // measure 135
00000001
00000000
00001000
00000100
00001000
00010000
00100000
00010000
,  // measure 136
00100000
01000000
10000000
00000000
00000000
00000000
00000000
00000000
,  // measure 137
00000100
00100000
00001000
01000000
,  // measure 138
00010000
01010200
00010000
10010000
,  // measure 139
00110000
00000000
10000000
01000000
00100000
01000000
00110000
00000000
,  // measure 140
10000000
00110000
00100000
10100000
,  // measure 141
00010000
00100000
11000300
00000000
01000000
00100000
00110000
01000000
,  // measure 142
10000000
00000000
00000100
00000010
00000100
00000010
00001000
00000000
,  // measure 143
00001010
00000000
00000010
00000001
00000010
00000000
00001000
00000010
,  // measure 144
00001000
00000011
00000010
00001100
,  // measure 145
00001010
00000001
00001000
00000110
,  // measure 146
00010000
11000000
10000000
11000000
,  // measure 147
00100000
01000000
10000000
01000000
00010000
00000000
01100000
00000000
,  // measure 148
10000000
00000000
00110000
00000000
01000000
10000000
01000000
10000000
,  // measure 149
01100000
00000000
00010000
00000000
00100000
00000000
01000000
00100000
,  // measure 150
00010000
00000000
00000010
00000000
00001000
00000100
00000010
00000000
,  // measure 151
00000011
00000000
00000100
00000000
00001000
00000000
00000100
00000010
,  // measure 152
00000100
00000010
00000011
00000000
00000001
00000000
00000101
00000000
,  // measure 153
00000100
00001100
00010000
00110000
,  // measure 154
02000200
03000300
00000000
00000000
;
