#VERSION:0.83;
#TITLE:Oxygen;
#SUBTITLE:;
#ARTIST:TWICE;
#TITLETRANSLIT:;
#SUBTITLETRANSLIT:;
#ARTISTTRANSLIT:;
#GENRE:;
#ORIGIN:;
#CREDIT:DubStepManiac;
#BANNER:Oxygen.png;
#BACKGROUND:Oxygen-bg.png;
#PREVIEWVID:;
#JACKET:jacket.png;
#CDIMAGE:;
#DISCIMAGE:;
#LYRICSPATH:;
#CDTITLE:cdtitle.png;
#MUSIC:Oxygen.mp3;
#OFFSET:-1.137324;
#SAMPLESTART:53.799999;
#SAMPLELENGTH:14.700000;
#SELECTABLE:YES;
#BPMS:0.000=260.049,
229.000=130.025,
233.000=260.049;
#STOPS:;
#DELAYS:;
#WARPS:;
#TIMESIGNATURES:0.000=4=4;
#TICKCOUNTS:0.000=4;
#COMBOS:0.000=1;
#SPEEDS:0.000=1.000=0.000=0;
#SCROLLS:0.000=1.000;
#FAKES:;
#LABELS:0.000=Song Start;
#BGCHANGES:;
#KEYSOUNDS:;
#ATTACKS:
;

//---------------dance-single - ----------------
#NOTEDATA:;
#CHARTNAME:;
#STEPSTYPE:dance-single;
#DESCRIPTION:;
#CHARTSTYLE:;
#DIFFICULTY:Easy;
#METER:3;
#RADARVALUES:0.253910,0.372287,0.000000,0.102079,0.000000,296.000000,296.000000,0.000000,17.000000,0.000000,0.000000,0.000000,0.000000,0.000000,0.253910,0.372287,0.000000,0.102079,0.000000,296.000000,296.000000,0.000000,17.000000,0.000000,0.000000,0.000000,0.000000,0.000000;
#CREDIT:DubStepManiac;
#NOTES:
0000
0000
0000
0000
,
0000
1000
0000
0000
,
0000
1000
0000
0000
,
0000
1000
0000
0000
,
0000
0001
0000
0000
,
0000
0001
0000
0000
,
0000
1000
0000
0000
,
0000
1000
0000
0000
,
0000
0001
0000
0000
,
0000
0000
0000
1000
,
0000
0001
1000
0000
,
0000
0000
0000
1000
,
0200
0001
0000
0000
,
0300
0000
0000
1000
,
0000
1000
0000
0000
,
0000
0000
0000
1000
,
0000
1000
0000
0000
,
0000
0000
1000
0000
,
0000
0001
1000
0000
,
0000
0001
0000
1000
,
0000
1000
0000
0100
,
0000
1000
0000
0010
,
0000
0001
0000
0000
,
0000
0000
0000
1000
,
0000
0001
0000
0000
,
0000
0000
1000
0000
,
0000
1000
0000
0000
,
0000
0001
0000
0000
,
0000
0000
0000
0020
,
0000
0000
0000
0030
,
0000
1000
0000
0000
,
0000
0001
0000
0000
,
0000
0000
0000
1000
,
1000
0000
0000
0010
,
0000
0001
0000
0020
,
0000
1000
0000
0030
,
0000
0001
0000
2000
,
0000
0001
0000
0000
,
3000
1000
0000
2000
,
0000
0010
0000
0000
,
0000
0000
3000
0000
,
0001
0000
0010
0001
,
0000
0001
0000
1000
,
1000
0010
0000
1000
,
0001
0010
0000
0001
,
1000
0100
0000
1000
,
0001
0010
0000
0001
,
0001
0010
0000
0001
,
1000
0100
0000
1000
,
0001
0100
0000
0001
,
0000
1000
0000
0100
,
1000
0010
0000
1000
,
0001
0100
0000
0001
,
1000
0100
0000
1000
,
0001
0100
0000
0001
,
0001
0100
0000
0001
,
0000
1000
0000
0000
,
0000
1000
0000
0000
,
0000
0000
0000
1000
,
2000
0000
0000
3000
,
0001
0000
0010
0100
,
1000
0000
0000
0010
,
0001
0010
0001
0000
0001
0000
0000
0000
,
0000
1000
0000
0000
,
0001
0000
0010
0100
,
1000
0010
0000
1000
,
1000
0100
0000
1000
,
0000
0000
0000
0001
,
0001
0001
0000
0100
,
0000
1000
0000
0000
,
0001
0000
0000
1000
,
0000
0001
0000
0000
,
0001
0100
0000
0010
,
0001
0100
0010
0001
,
0000
1000
0000
0000
,
0001
0001
0000
0100
,
0001
0100
0000
0000
,
0001
0100
0000
0010
,
0000
1000
0000
0000
,
0001
0100
0000
0010
,
0000
0001
1000
0000
,
0001
0100
0010
0001
,
0000
0001
0000
0000
,
0001
0001
0000
0100
,
0000
0001
0000
0000
,
0001
0001
0000
0100
,
0000
0001
0000
0000
,
0001
0100
0000
0010
,
0000
0001
1000
0000
,
0001
0100
0010
0001
,
0000
0001
0000
0000
,
0000
0001
0000
0100
,
0001
0000
0000
0000
,
0001
0001
0000
0100
,
0000
1000
0000
0000
,
0001
0000
0010
0100
,
0000
0000
0000
1000
,
1000
1000
0010
0000
,
0000
0000
0000
0001
,
0000
0100
0000
0000
,
0000
0001
0002
0000
,
0000
1000
0003
0000
,
0000
0000
0200
1000
,
0000
1000
0300
0100
,
0000
0000
1000
0000
,
0000
1000
0000
0000
,
0020
1000
0000
0000
,
0000
0030
0000
0002
,
0000
1000
0000
0100
,
0000
0000
0000
0003
,
1000
0010
0100
0200
,
0000
1000
0000
0300
,
0000
0000
0000
0000
,
0020
0000
0000
0000
,
0000
1000
0000
0030
,
0000
0001
0000
0000
,
0000
1000
0000
0000
,
0000
0001
0000
0000
,
0000
1000
0000
0000
,
0000
1000
0000
0000
,
0000
0000
0020
0000
,
0000
1000
0000
0000
,
0000
0000
0030
0000
,
0000
0001
0000
0000
,
1000
0010
1000
0000
,
1000
0000
0010
0010
,
0001
0000
0010
0100
,
1000
0010
1000
0000
,
1000
0000
0010
1000
,
0001
0000
0010
0100
,
0001
0000
0100
0010
,
1000
0000
0010
1000
,
0001
0000
1000
1000
,
1000
0000
0010
0010
,
0001
0000
0010
0100
,
0001
0000
0010
0100
,
1000
0000
0010
0100
,
0001
0000
0010
0100
,
0001
0000
0000
0001
,
0000
1000
0000
0000
,
0000
0000
0001
0000
,
0001
0000
1000
0010
,
0000
0001
1000
0000
,
1000
0000
0001
1000
,
0001
0010
0002
0003
,
2000
0001
3000
1000
,
0001
0000
1000
0000
,
0001
0000
0010
0100
,
1000
0000
0010
1000
,
0001
0000
1000
0010
,
0000
0000
1000
0000
,
1000
0000
0001
1000
,
0001
0010
0002
0003
,
2000
0001
3000
1000
,
0001
0000
1000
0000
,
0001
0000
0000
0000
;

//---------------dance-single - ----------------
#NOTEDATA:;
#CHARTNAME:;
#STEPSTYPE:dance-single;
#DESCRIPTION:;
#CHARTSTYLE:;
#DIFFICULTY:Medium;
#METER:5;
#RADARVALUES:0.307094,0.468362,0.060046,0.072056,0.000000,358.000000,348.000000,10.000000,12.000000,0.000000,0.000000,0.000000,0.000000,0.000000,0.307094,0.468362,0.060046,0.072056,0.000000,358.000000,348.000000,10.000000,12.000000,0.000000,0.000000,0.000000,0.000000,0.000000;
#CREDIT:DubStepManiac;
#NOTES:
0000
0000
0000
0000
,
0000
0001
0000
0000
,
0000
0001
0000
0000
,
0000
0001
0000
0000
,
0000
1000
0010
0000
,
0000
0001
0000
0000
,
0000
1000
0000
0000
,
0000
0001
0000
0000
,
0000
1000
0010
0000
,
0000
0000
0000
0000
0000
0000
0001
0100
,
0000
1000
0001
0000
,
0000
0000
0000
0000
0000
0000
0001
0100
,
0000
1000
0000
0000
,
0000
0000
0000
0000
0000
0000
0001
0100
,
0000
0001
0000
0000
,
0000
0000
0000
0000
0000
0000
0001
0100
,
0000
0001
0000
0000
,
0000
0000
0001
0000
,
0001
1000
0001
0000
,
1000
0001
0000
0010
,
0000
1000
0000
0100
,
0000
0001
0000
0100
,
0000
1000
0010
0000
,
0000
0000
0000
0000
0000
0000
0001
0100
,
0000
1000
0010
0000
,
0001
0000
0010
0000
,
0000
0001
0000
0000
,
0000
1000
0010
0000
,
0000
0000
0000
0020
,
0000
0000
0000
0030
,
0000
0001
0000
0000
,
0000
0001
0000
0000
,
0000
0000
0000
0000
0000
0000
0001
0100
,
1000
0000
0000
0000
0000
0000
0001
0100
,
0000
1000
0010
0000
,
0000
0001
0000
0000
,
0000
1000
0000
0000
,
0000
1000
0000
0000
,
0000
1000
0000
0200
,
0000
1000
0000
0000
,
0000
1000
0300
0000
,
1000
0010
1000
0001
,
1000
0001
0000
0010
,
1000
0100
0000
0010
,
0001
0010
0000
0100
,
0001
0100
0000
0010
,
0001
0010
0000
0100
,
1000
0100
0000
0010
,
0001
0010
0000
0100
,
0001
0100
0000
0010
,
0000
0001
1000
0100
,
1000
0100
0000
0010
,
1000
0010
0000
0100
,
1000
0100
0000
0010
,
1000
0100
0000
0010
,
1000
0010
0000
0100
,
0000
1000
0010
0000
0000
0000
0000
0000
,
0000
0001
0000
0000
,
0000
0000
0000
0000
0000
0000
0001
0100
,
0000
1000
0000
0000
,
0001
0000
1000
0010
,
0001
0000
0000
0000
0000
0010
0001
0000
,
0001
1000
0100
0000
0100
0100
0000
0000
,
0000
1000
0000
0000
,
0001
0000
1000
0010
,
1000
0100
0000
0010
,
0001
0010
0000
0100
,
0000
0001
0000
0100
,
0001
0000
0000
0110
,
0000
0001
0000
0000
,
1000
0000
0000
0000
0000
0000
0010
0100
,
0000
1000
0010
0000
,
1000
0010
0000
0001
,
0000
0000
0000
0000
,
1001
0010
1000
0100
,
0000
0001
0000
0000
,
0001
0000
0000
0110
,
1000
0001
0000
0000
,
1000
0010
0000
0001
,
0000
0001
0000
0000
,
1000
0010
0000
0001
,
0000
1000
0001
0000
,
1001
0010
1000
0100
,
0000
1000
0010
0000
,
0001
0000
0000
0110
,
0000
1000
0010
0000
,
0001
0000
0000
0110
,
0000
1000
0010
0000
,
1000
0010
0000
0001
,
0000
1000
0001
0000
,
1001
0010
1000
0100
,
0200
1000
0000
0000
,
0300
0000
0000
0110
,
1000
0000
0000
0000
,
0001
0000
0000
0110
,
0000
0001
0000
0000
,
0001
0000
1000
0010
,
0000
0000
0000
0000
0000
0000
0001
0100
,
1000
0001
0001
0000
1000
0000
0000
0000
,
0000
0001
0000
0100
,
0000
0001
0000
0000
,
0000
1000
0200
0000
,
0000
0001
0300
0000
,
0000
0000
0200
0001
,
0000
1000
0300
0100
,
0001
0000
0010
0000
,
0000
0001
0000
0000
,
0020
0001
0000
0000
,
0000
0031
0000
0000
,
0000
1000
0000
0100
,
0000
0010
0000
0001
,
1000
1000
0001
0000
0100
0000
2000
0000
,
0000
0001
0000
3000
,
0000
0000
0000
0000
,
0000
0000
0000
0000
,
0000
0001
0000
0000
,
0000
0001
0000
0000
,
0000
0001
0000
0000
,
0000
1000
0010
0000
,
0000
0001
0000
0000
,
0000
1000
0000
0000
,
0001
0000
0200
0000
,
0000
0001
0000
0000
,
0000
0000
0300
0000
,
0000
1000
0010
0000
,
1000
0000
0010
0000
0100
0010
0000
0000
,
0001
0100
0000
0000
0001
0000
0001
0000
,
1000
0000
0010
0100
,
0001
0000
0100
0000
0010
1000
0000
0000
,
1000
1000
0100
1000
,
1000
0000
0010
0100
,
0001
0000
0010
0100
,
1000
1000
0100
1000
,
1000
1000
0100
0100
,
0001
0100
0000
0000
0001
0000
0001
0000
,
1000
0000
0010
0100
,
0001
0000
0010
0100
,
0001
0000
0100
0010
,
0001
0000
0100
0010
,
0110
0000
0000
0001
,
0000
0001
0000
0000
,
0000
0000
1000
0001
,
0001
0000
0000
0010
0001
0000
0100
0000
,
0001
1000
0001
0000
,
0000
0000
0000
0001
0100
0000
0010
0100
,
0001
0000
1000
0100
0020
0000
0030
0000
,
0002
0000
0010
0000
0003
0100
1000
0000
,
1000
0000
0000
0000
0100
0010
0000
0000
,
1000
0000
0010
0100
,
1000
1000
0100
1000
,
0001
0000
0000
0010
0001
0000
0100
0000
,
0001
0000
0010
0000
,
0000
0000
0000
0001
0100
0000
0010
0100
,
0001
0000
1000
0100
0020
0000
0030
0000
,
0002
0000
0010
0000
0003
0100
1000
0000
,
1000
0000
0000
0000
0100
0010
0000
0000
,
1000
0000
0000
0000
;

//---------------dance-single - ----------------
#NOTEDATA:;
#CHARTNAME:;
#STEPSTYPE:dance-single;
#DESCRIPTION:;
#CHARTSTYLE:;
#DIFFICULTY:Hard;
#METER:7;
#RADARVALUES:0.420325,0.659909,0.216167,0.072056,0.000000,490.000000,454.000000,36.000000,12.000000,0.000000,0.000000,0.000000,0.000000,0.000000,0.420325,0.659909,0.216167,0.072056,0.000000,490.000000,454.000000,36.000000,12.000000,0.000000,0.000000,0.000000,0.000000,0.000000;
#CREDIT:DubStepManiac;
#NOTES:
1000
0000
0000
0000
,
0000
0001
0000
0000
,
0000
0001
0000
0000
,
0000
0001
0000
0000
,
0000
1000
0010
0000
0000
0000
0000
0000
,
0000
0001
0000
0000
,
0000
0001
0000
0000
,
0000
0001
0000
0000
,
0000
1000
0010
0000
0000
0000
0000
0000
,
0000
0000
0000
0000
0000
0000
1000
0100
,
0000
0000
0001
0001
0100
0000
0000
0000
,
0000
0000
0000
0000
0000
0000
1000
0100
,
0000
0010
0000
0000
,
0000
0000
0000
0000
0000
0000
1000
0100
,
0000
0001
0000
0000
,
0000
0000
0000
0000
0000
0000
1000
0100
,
0000
0001
0000
0000
,
0000
0000
0000
0000
1000
0100
0000
0000
,
1000
0000
0010
1000
0100
0000
0000
0000
,
0001
0010
0001
0000
0000
0000
1000
0000
,
0000
0000
0001
0000
0000
0000
1000
0100
,
0000
0000
0001
0000
0000
0000
1000
0100
,
0000
1000
0010
0000
0000
0000
0000
0000
,
0000
0000
0000
0000
0000
0000
1000
0100
,
0000
1000
0010
0000
0000
0000
0000
0000
,
0001
0000
0000
0000
1000
0100
0000
0000
,
0000
0001
0000
0000
,
0000
1000
0010
0000
0000
0000
0000
0000
,
0000
0000
0000
0000
,
0001
0000
0000
0000
,
0000
0001
0000
0000
,
0000
1000
0000
0000
,
0000
0000
0000
0000
0000
0000
1000
0100
,
1000
0100
0000
0000
0000
0000
1000
0010
,
0000
1000
0010
0000
0000
0000
2000
0000
,
0000
0001
0000
3000
,
0000
1000
0000
2000
,
0000
0010
0000
0000
,
3000
0001
0000
0000
,
0001
0100
0020
0030
,
0000
0000
0001
0000
0000
0000
0000
1000
,
0001
0000
0010
0001
0010
0000
0001
0100
,
0001
0010
0001
0000
0000
0000
1000
0000
,
0000
0001
1000
0000
0000
0100
1000
0000
,
0000
1000
0001
0000
0000
0010
0001
0000
,
0000
1000
0001
0000
0000
0100
0001
0000
,
0000
1000
0001
0000
0000
0100
0001
0000
,
0000
0001
1000
0000
0000
0100
1000
0000
,
0000
1000
0001
0000
0000
0010
0001
0000
,
0000
1000
0001
0000
0000
0010
0001
0000
,
0000
0000
1000
0000
0010
0100
0010
0000
,
0000
0001
1000
0000
0000
0100
1000
0000
,
0000
0001
1000
0000
0000
0100
1000
0000
,
0000
1000
0001
0000
0000
0100
0001
0000
,
0000
1000
0001
0000
0000
0010
0001
0000
,
0000
1000
0001
0000
0000
0100
0001
0000
,
0001
1000
0010
0000
0000
0000
0000
0000
,
0000
0001
0000
0000
,
0000
0000
0000
0000
0000
0000
1000
0100
,
0000
0000
0001
0000
0000
0000
0000
1000
,
0001
0000
0001
0000
0010
0100
1000
0000
,
0001
0000
1000
0000
0000
0010
0100
0000
,
0101
0000
1000
0001
0001
0001
0000
0000
,
0000
0000
1000
0000
0001
0000
0000
0100
,
0001
0000
0001
0000
0010
0100
1000
0000
,
0000
0001
1000
0000
0000
0100
1000
0000
,
0000
0001
1000
0000
0000
0010
1000
0000
,
0000
0000
0001
0000
0000
0000
0010
0001
,
1000
0010
0010
0000
0000
0000
0110
0000
,
0000
0001
0000
0000
,
0001
0000
0000
0000
0000
0000
0010
0001
,
0000
1000
0010
0000
0000
0000
0000
0000
,
0001
0100
0100
0001
,
0000
0000
0000
0000
,
0110
0000
0010
1000
0100
0000
0010
0000
,
0000
0001
0000
0000
,
1000
0010
0010
0000
0000
0000
0110
0000
,
1000
0100
1000
0000
0000
0000
0000
0000
,
0001
0100
0100
0001
,
0000
0001
0000
0000
,
0001
0100
0100
0001
,
0000
0000
0001
0001
0100
0000
0000
0000
,
0110
0000
0010
1000
0100
0000
0010
0000
,
0000
1000
0010
0000
0000
0000
0000
0000
,
1000
0010
0010
0000
0000
0000
0110
0000
,
0000
1000
0010
0000
0000
0000
0000
0000
,
1000
0010
0010
0000
0000
0000
0110
0000
,
0000
1000
0010
0000
0000
0000
0000
0000
,
0001
0100
0100
0001
,
0000
0000
0001
0001
0100
0000
0000
0000
,
0110
0000
0010
1000
0100
0000
0010
0000
,
0200
0010
0000
0000
,
1300
0010
0010
0000
0000
0000
0110
0000
,
0001
0010
0000
0000
0000
0000
0000
0000
,
1000
0010
0010
0000
0000
0000
0110
0000
,
0000
0001
0000
0000
,
0001
0000
0001
0000
0010
0100
1000
0000
,
0000
0000
0000
1000
,
0011
0000
1000
1000
0100
0000
0100
0000
,
0000
0001
0000
0010
,
1000
1000
0000
0000
,
0000
1000
0010
0000
0020
0000
0000
0000
,
0000
0001
0030
0000
,
0000
0000
0000
1000
,
0000
0000
0001
0000
0000
0000
1000
0100
,
0001
0000
0000
0000
1000
0100
0000
0000
,
0000
0001
0000
0000
,
0020
0001
0000
0000
,
0000
0031
0000
0000
,
0000
0001
0000
1000
,
0001
0000
0010
0000
0010
0000
0001
0100
,
0001
0001
1000
1000
0100
1000
0020
0000
,
0000
0001
0000
0030
,
1000
0000
0000
0000
,
0020
0000
0000
0000
,
0000
0001
0000
0030
,
0000
1000
0000
0000
,
0000
0001
0000
0000
,
0000
1000
0010
0000
0000
0000
0000
0000
,
0000
0001
0000
0000
,
0000
0001
0000
0000
,
0001
0000
0000
0000
,
0000
0001
0000
0000
,
0001
0000
0000
0000
1000
0100
0000
0000
,
0000
1000
0010
0000
0000
0000
0000
0000
,
1000
0010
1000
0000
0010
1000
0000
0000
,
0001
0100
0010
0000
1010
0000
1000
0000
,
0011
1000
0110
0001
,
0001
0010
0100
0000
1010
0000
0000
0000
,
1001
0000
0001
0000
0010
0001
1000
0000
,
0011
1000
0110
0001
,
0101
1000
0110
0001
,
1001
0000
0001
0000
0010
0001
1000
0000
,
0001
0000
0001
0000
0010
0001
0001
0000
,
0001
0100
0010
0000
1010
0000
1000
0000
,
0011
1000
0110
0001
,
0011
1000
0110
0001
,
1010
0001
0110
1000
,
1010
0001
0110
1000
,
1010
0000
0000
0001
,
0000
0001
0000
0000
,
0000
0000
0000
0000
0001
0100
0000
0000
,
0001
0010
0000
0001
1000
0000
0001
0000
,
1000
0000
0010
1000
0100
0000
0000
0000
,
1000
0000
0000
0000
1010
0000
0100
0001
,
0001
0001
0100
0001
0020
0000
0030
0000
,
0002
0000
0010
0000
0003
0100
1000
0001
,
1000
0000
0000
0000
0010
0100
0001
0000
,
0011
1000
0110
0001
,
1001
0000
0001
0000
0010
0001
1000
0000
,
0001
0010
0000
0001
1000
0000
0001
0000
,
0001
0000
0000
0000
1000
0100
0000
0000
,
1000
0000
0000
0000
1010
0000
0100
0001
,
0001
0001
0100
0001
0020
0000
0030
0000
,
0002
0000
0010
0000
0003
0100
1000
0001
,
1000
0000
0000
0000
0010
0100
0001
0000
,
0001
0010
0000
0000
0000
0000
0000
0000
,
1000
0000
0000
0000
;

//---------------dance-single - ----------------
#NOTEDATA:;
#CHARTNAME:;
#STEPSTYPE:dance-single;
#DESCRIPTION:;
#CHARTSTYLE:;
#DIFFICULTY:Challenge;
#METER:8;
#RADARVALUES:0.568725,0.671468,0.216167,0.294227,0.003002,663.000000,627.000000,36.000000,49.000000,0.000000,2.000000,1.000000,0.000000,0.000000,0.568725,0.671468,0.216167,0.294227,0.003002,663.000000,627.000000,36.000000,49.000000,0.000000,2.000000,1.000000,0.000000,0.000000;
#CREDIT:DubStepManiac;
#NOTES:
// measure 0
1000
0000
0000
0000
,  // measure 1
0000
0001
0000
0000
,  // measure 2
0000
0001
0000
0000
,  // measure 3
0000
0001
0000
0000
,  // measure 4
0000
1000
0010
0000
0000
0000
0000
0000
,  // measure 5
0000
0001
0000
0000
,  // measure 6
0000
0001
0000
0000
,  // measure 7
0000
0001
0000
0000
,  // measure 8
0000
1000
0010
0000
0000
0000
0000
0000
,  // measure 9
0000
0000
0000
0000
0000
0000
1000
0100
,  // measure 10
0000
0000
0001
0001
0100
0000
1000
0100
,  // measure 11
0000
0000
0010
0000
0000
0000
1000
0100
,  // measure 12
0000
0000
0010
0000
0100
0000
1000
0100
,  // measure 13
0001
0000
0010
0000
0000
0000
1000
0100
,  // measure 14
0000
0001
0020
0200
,  // measure 15
0330
0000
1000
0100
1000
0000
1000
0100
,  // measure 16
0000
0000
0001
0010
0000
1000
0100
0000
,  // measure 17
0000
0000
0010
0100
1000
0100
0000
0000
,  // measure 18
1000
0000
0010
1000
0100
0000
0010
0000
,  // measure 19
0001
0010
0002
0000
0000
0000
1003
0000
,  // measure 20
0100
0010
0001
0010
0000
0000
1000
0100
,  // measure 21
0000
0000
0001
0000
0010
0000
1000
0100
,  // measure 22
0000
0010
0100
1000
,  // measure 23
0010
0000
0000
0002
0000
0000
0003
0000
0000
0000
0000
0000
1000
0000
0100
0000
,  // measure 24
0000
0020
0001
0130
,  // measure 25
0001
0000
0100
0000
1000
0100
0020
0000
,  // measure 26
0000
0031
0200
1000
,  // measure 27
0010
1300
0020
0001
,  // measure 28
0100
0031
2000
0010
,  // measure 29
0001
3010
0002
0010
,  // measure 30
0100
0013
1000
1000
,  // measure 31
0100
0010
0010
0000
,  // measure 32
0001
0010
0200
0000
0000
0000
1300
0000
,  // measure 33
0200
0000
0010
0000
1000
0000
0310
0001
,  // measure 34
0000
1000
0010
0000
0000
0000
0020
0000
,  // measure 35
0001
0100
0001
0030
,  // measure 36
0010
1000
2000
0100
,  // measure 37
0100
0000
0010
0100
3010
0000
0002
0000
,  // measure 38
0010
1003
0020
0000
,  // measure 39
0031
0100
0020
0030
,  // measure 40
0000
0000
0001
0000
0000
0000
0000
1000
,  // measure 41
0001
0000
0010
0001
0010
0000
0001
0100
,  // measure 42
0001
0010
0001
0000
0000
0000
1000
0000
,  // measure 43
0000
0001
1000
0000
0000
0100
1000
0000
,  // measure 44
0000
1000
0001
0000
0000
0010
0001
0000
,  // measure 45
0000
1000
0001
0000
0000
0100
0001
0000
,  // measure 46
0000
1000
0001
0000
0000
0100
0001
0000
,  // measure 47
0000
0001
1000
0000
0000
0100
1000
0000
,  // measure 48
0000
1000
0001
0000
0000
0010
0001
0000
,  // measure 49
0000
1000
0001
0000
0000
0010
0001
0000
,  // measure 50
0000
0000
1000
0000
0010
0100
0010
0000
,  // measure 51
0000
0001
1000
0000
0000
0100
1000
0000
,  // measure 52
0000
0001
1000
0000
0000
0100
1000
0000
,  // measure 53
0000
1000
0001
0000
0000
0100
0001
0000
,  // measure 54
0000
1000
0001
0000
0000
0010
0001
0000
,  // measure 55
0000
1000
0001
0000
0000
0100
0001
0000
,  // measure 56
0001
1000
0040
0000
0000
0000
0000
0000
,  // measure 57
0030
0001
0000
0000
,  // measure 58
0000
0000
1000
0100
0000
0000
0001
0000
,  // measure 59
0000
0000
0000
1000
0001
0010
0001
0000
,  // measure 60
0100
1000
1000
0000
0001
0000
1000
0000
,  // measure 61
0000
0010
0100
0000
0101
0000
1000
0010
,  // measure 62
0001
0010
0000
0000
0100
0000
1000
0000
,  // measure 63
0001
0000
0000
0100
0001
0000
0001
0000
,  // measure 64
0010
0100
1000
0000
0000
0001
1000
0000
,  // measure 65
0000
0100
1000
0000
0000
0001
1000
0000
,  // measure 66
0000
0010
1000
0000
0000
0000
0001
0010
,  // measure 67
0100
1000
0010
0001
1000
0010
0010
0000
,  // measure 68
0000
0110
0000
0001
,  // measure 69
0000
0002
0003
0001
,  // measure 70
0000
0000
0010
0001
0000
1000
0010
0000
,  // measure 71
0001
0010
0000
0100
0001
0000
0100
1000
,  // measure 72
0100
0001
0000
2000
,  // measure 73
0200
0000
3300
0000
0110
0000
0010
1000
,  // measure 74
0100
0010
0011
0002
,  // measure 75
0020
0000
0033
0000
1100
0010
0010
0000
,  // measure 76
0001
0000
0110
0000
1000
0100
1000
0000
,  // measure 77
0100
0010
0001
0100
,  // measure 78
0100
0000
0001
0000
0001
0010
0000
0000
,  // measure 79
0010
0001
0000
0100
0001
0000
0100
0000
,  // measure 80
0100
0000
0001
0000
0000
0000
0001
0001
,  // measure 81
0100
0000
0000
0000
0110
0000
0010
1000
,  // measure 82
0100
0000
0010
0000
0000
1000
0010
0000
,  // measure 83
0000
0000
0010
0000
1000
0001
0010
0000
,  // measure 84
0000
0000
0110
0000
0000
1000
0010
0000
,  // measure 85
0000
0000
0001
0000
1000
0100
0010
0000
,  // measure 86
0000
0000
0110
0000
0000
1000
0010
0000
,  // measure 87
0001
0010
0001
0100
,  // measure 88
0100
0000
0001
0000
0000
0000
0001
0001
,  // measure 89
0100
0000
0000
0000
0110
0000
0010
1000
,  // measure 90
0100
0010
0200
0010
,  // measure 91
1000
0000
0010
0000
1300
0010
0010
0000
,  // measure 92
0000
0000
0110
0000
0001
0010
0000
0000
,  // measure 93
0100
0000
0100
0000
1000
0010
0010
0000
,  // measure 94
0000
0000
0110
0000
0000
0010
0002
0000
,  // measure 95
0010
0103
0001
0001
,  // measure 96
0010
0100
1000
0000
1000
0000
0200
0000
,  // measure 97
0000
0000
1000
0000
0311
0000
1000
1000
,  // measure 98
0100
0200
0010
0001
,  // measure 99
0300
0010
1000
1000
,  // measure 100
0100
0000
0010
0000
0002
1000
0010
0000
,  // measure 101
0023
0100
1000
0100
,  // measure 102
0031
0010
0010
0000
,  // measure 103
0100
1000
1000
0000
0100
0000
0001
0000
,  // measure 104
0010
0000
1000
0100
0020
0000
0001
0000
,  // measure 105
1030
0100
0000
0000
2000
0000
0001
0000
,  // measure 106
0100
3001
0020
0001
,  // measure 107
0100
1030
0100
0002
,  // measure 108
0010
1000
0013
2000
,  // measure 109
0001
0010
3001
0010
,  // measure 110
0010
0000
0001
0100
0001
0000
1000
0000
,  // measure 111
0100
1000
0010
0000
0020
0000
0001
0000
,  // measure 112
0200
1330
0200
0000
,  // measure 113
0000
0000
0310
0000
0000
0000
0020
0001
,  // measure 114
0000
0100
1000
0000
0001
0100
0000
0000
,  // measure 115
1000
0100
0030
0000
0000
0000
2000
0100
,  // measure 116
0000
0001
0010
0000
3100
0010
0002
0000
,  // measure 117
0000
0000
0010
0000
0003
1000
0010
0000
,  // measure 118
0002
0000
0003
0011
,  // measure 119
0000
0000
0001
0000
0000
0000
0001
0010
,  // measure 120
0000
1000
0100
0000
0001
0000
0200
0000
,  // measure 121
0000
0310
0000
0021
,  // measure 122
0000
0000
0130
0000
0000
0010
0002
0000
,  // measure 123
0000
1000
0103
0000
0000
1000
0010
0000
,  // measure 124
2000
0000
3000
0000
1000
0010
1000
0000
,  // measure 125
0010
1000
0000
0000
0001
0100
0010
0000
,  // measure 126
1010
1000
0011
1000
,  // measure 127
0110
0000
0001
0000
0001
0010
0100
0000
,  // measure 128
1010
0000
1001
0001
,  // measure 129
0010
0001
1000
0000
0011
0000
1000
0000
,  // measure 130
0110
0001
0101
1000
,  // measure 131
0110
0001
1001
0001
,  // measure 132
0010
0001
1000
0000
0001
0000
0001
0000
,  // measure 133
0010
0001
0001
0000
0001
0100
0010
0000
,  // measure 134
1010
1000
0011
1000
,  // measure 135
0110
0001
0011
1000
,  // measure 136
0110
0001
1000
0001
,  // measure 137
1010
1000
0100
0001
,  // measure 138
0010
1000
0100
0010
,  // measure 139
0010
0001
1000
0001
,  // measure 140
0100
0010
0001
0010
,  // measure 141
0001
0100
0000
0000
0001
0010
0000
0001
,  // measure 142
1000
0000
0001
0000
1000
0000
0010
1000
,  // measure 143
0200
0000
1300
0000
,  // measure 144
1000
0000
0100
0010
0001
0010
0100
0001
,  // measure 145
0020
0030
0002
0010
,  // measure 146
0003
0100
1000
0001
1000
0000
0000
0000
,  // measure 147
0010
0100
0001
0000
0011
0000
1000
0000
,  // measure 148
0110
0001
1001
0001
,  // measure 149
0010
0001
1000
0000
0001
0010
0000
0001
,  // measure 150
1000
0001
0001
0100
,  // measure 151
1000
0100
0010
0000
1000
0000
0001
0000
,  // measure 152
1010
0000
0100
0010
0001
0010
0100
0001
,  // measure 153
0020
0030
0002
0010
,  // measure 154
0003
0100
1000
0001
1000
0000
0100
0000
,  // measure 155
0010
0100
0001
0010
0001
0000
0010
0000
,  // measure 156
1000
0100
1000
1001
,  // measure 157
1000
0000
0010
0100
0001
0000
1000
0100
,  // measure 158
0000
1000
0010
0001
0100
0001
0010
0000
,  // measure 159
1000
0000
0100
0010
0100
0001
0010
0000
;
