#TITLE:Not Shy;
#SUBTITLE:;
#ARTIST:ITZY;
#TITLETRANSLIT:;
#SUBTITLETRANSLIT:;
#ARTISTTRANSLIT:;
#GENRE:;
#CREDIT:DubStepMania;
#BANNER:Not Shy.png;
#BACKGROUND:Not Shy-bg.png;
#LYRICSPATH:;
#CDTITLE:cdtitle.png;
#MUSIC:Not Shy.mp3;
#OFFSET:-1.165941;
#SAMPLESTART:30.868889;
#SAMPLELENGTH:12.000000;
#SELECTABLE:YES;
#BPMS:0.000000=202.000000
,27.500000=101.000000
,28.000000=404.000000
,28.500000=202.000000
,155.000000=101.000000
,155.500000=404.000000
,156.500000=202.000000
,189.000000=101.000000
,189.500000=404.000000
,190.500000=202.000000
,248.000000=101.000000
,248.500000=404.000000
,249.500000=202.000000
,347.000000=101.000000
,347.500000=404.000000
,348.500000=202.000000
,381.000000=101.000000
,381.500000=404.000000
,382.500000=202.000000
,413.000000=101.000000
,417.000000=202.000000
,512.000000=101.000000
,512.500000=404.000000
,513.500000=202.000000
,545.000000=101.000000
,545.500000=404.000000
,546.500000=202.000000
;
#STOPS:
;
#BGCHANGES:0.000=Not Shy.mp4=1.000=0=0=0=StretchNoLoop=Not Shy-bg.png=CrossFade_Faster==,
99999=-nosongbg-=1.000=0=0=0 // don't automatically add -songbackground-
;
#KEYSOUNDS:;
#ATTACKS:;

//---------------dance-single - ----------------
#NOTES:
     dance-single:
     :
     Easy:
     3:
     0.222510,0.369431,0.163067,0.028115,0.000000,277.000000,248.000000,29.000000,5.000000,8.000000,0.000000,0.222510,0.369431,0.163067,0.028115,0.000000,277.000000,248.000000,29.000000,5.000000,8.000000,0.000000:
0000
1000
0000
0000
,
0000
1000
0000
0000
,
0000
1000
0000
0000
,
0000
1000
0000
0000
,
0000
1000
0000
0000
,
0001
0000
0000
0000
,
0001
0000
0000
0000
,
0000
0101
0000
0001
,
1000
0101
0000
0000
,
1000
0011
0000
0000
,
0001
1010
0000
0000
,
1000
0101
0000
0000
,
0001
1100
0000
0000
,
0000
0001
0010
0000
,
1000
0010
0000
0000
,
0001
1000
0000
0000
,
1000
0000
0010
0000
,
1000
0001
0100
0000
,
0000
0000
1000
0010
,
1000
0101
0000
0000
,
0000
0000
1000
0010
,
1000
0001
0100
0000
,
1000
0001
1000
0000
,
0001
0000
0000
0000
,
0002
0000
0000
0000
,
0000
0003
0000
0000
,
0000
0001
0000
0000
,
0000
0001
0000
0000
,
0000
1000
0000
0000
,
0000
1000
0000
0000
,
0001
0020
0000
0000
,
0000
0030
0000
0000
,
0001
0000
0000
0000
,
0000
1000
0000
0000
,
0001
0000
0000
0000
,
0000
1000
0000
0000
,
0001
0000
0000
0000
,
0001
0000
0000
0000
,
1000
0000
0000
0000
,
0000
0001
0000
0100
,
0001
0000
1100
0000
,
1000
0010
0000
0000
,
0001
0000
0010
0000
,
1000
0100
0000
0000
,
0001
0000
1100
0000
,
0000
1010
0000
1000
,
0001
0000
1000
0000
,
0001
0000
0000
0000
,
0001
0000
1100
0000
,
1000
0010
0000
0000
,
0001
0000
0010
0000
,
1000
0100
0000
0000
,
0001
0000
1100
0000
,
0000
1010
0000
1000
,
0001
0000
0010
0000
,
1000
0010
0000
0000
,
1000
0000
0000
0001
,
1000
0001
0000
0000
,
1000
0000
0000
0001
,
1000
0001
0000
0000
,
1000
0000
0000
0001
,
0001
1000
0010
0000
,
0001
0000
0000
0000
,
0001
0010
0000
0000
,
1000
0000
0010
0000
,
1000
0001
0100
0000
,
0000
0000
1000
0010
,
1000
0101
0000
0000
,
0000
0000
1000
0010
,
1000
0001
0100
0000
,
1000
0001
1000
0000
,
0000
1000
0000
0000
,
0000
1000
0000
0000
,
0000
1000
0000
0000
,
0000
0001
0000
0000
,
0000
0001
0000
0000
,
0001
0000
0000
0000
,
0000
1000
0000
0000
,
0001
0200
0000
0000
,
0000
0300
0000
0000
,
1000
0000
0000
0000
,
0000
0000
0000
1000
,
0001
0000
0000
0000
,
0000
1000
0000
0000
,
0001
0000
0000
0000
,
0001
0000
0000
0000
,
1000
0000
0000
0000
,
0000
1010
0000
1000
,
0001
0000
1100
0000
,
1000
0010
0000
0000
,
0001
0000
0010
0000
,
1000
0100
0000
0000
,
0001
0000
1100
0000
,
0000
1010
0000
1000
,
0001
0000
1000
0000
,
0001
0000
0000
0000
,
0001
0000
1100
0000
,
1000
0010
0000
0000
,
0001
0000
0010
0000
,
1000
0100
0000
0000
,
0001
0000
1100
0000
,
0000
1010
0000
1000
,
0001
0000
0010
0000
,
0000
1000
0000
0010
,
0001
0010
0000
0000
,
1000
0000
0010
0000
,
1000
0010
0000
0000
,
0001
0001
0000
1000
,
0001
0010
0000
0000
,
1000
0000
0010
0000
,
0000
0001
0000
1000
,
0000
1000
0000
0001
,
0000
0001
0000
1000
,
0000
0001
0000
1000
,
0000
0001
1000
0100
,
1000
0100
0000
0000
,
0000
1000
0000
0000
,
0000
1000
0000
0000
,
0000
1000
0012
0000
,
0010
0000
0000
0000
,
0003
0100
0000
0010
,
1000
0001
0000
1000
,
1000
0001
0000
0000
,
0200
0000
0000
0000
,
0300
0100
0000
0000
,
0000
1000
0000
0000
,
0000
1010
0000
1000
,
0001
0000
1100
0000
,
1000
0010
0000
0000
,
0001
0000
0010
0000
,
1000
0100
0000
0000
,
0001
0000
1100
0000
,
0000
1010
0000
1000
,
0001
0000
1000
0000
,
0001
0000
0000
0000
,
0001
0000
1100
0000
,
1000
0010
0000
0000
,
1000
0000
0010
0000
,
1000
0100
0000
0000
,
0001
0000
1100
0000
,
0000
1010
0000
1000
,
0001
0000
0010
0000
,
0001
0000
0000
0000
,
0000
1000
0000
0010
,
0001
00M0
0M00
M000
,
0M00
00M0
000M
00M0
,
0M00
0000
0000
0000
;

//---------------dance-single - ----------------
#NOTES:
     dance-single:
     :
     Medium:
     5:
     0.282757,0.369431,0.185559,0.022492,0.002812,352.000000,319.000000,33.000000,4.000000,8.000000,0.000000,0.282757,0.369431,0.185559,0.022492,0.002812,352.000000,319.000000,33.000000,4.000000,8.000000,0.000000:
0000
0001
0000
0000
,
0000
1000
0000
0000
,
0000
1000
0000
0000
,
0000
1000
0000
0000
,
0000
1000
0000
0000
,
0001
0000
0000
0000
,
1000
0000
0000
0000
,
0000
1001
0000
1000
,
0001
1100
0000
0000
,
1000
0011
0000
0000
,
0001
1010
0000
0000
,
1000
0101
0000
0000
,
1000
0011
0000
0000
,
0000
1000
0100
0000
,
0001
0100
0000
0000
,
1000
0001
0000
0100
,
0001
0000
0010
0000
,
0001
0010
0001
0000
,
0000
0000
0001
0010
,
0001
1100
0000
0000
,
0000
0000
0001
0010
,
0001
0010
0001
0000
,
0011
1000
0100
0000
,
0001
0000
0000
0100
,
2000
0001
0000
0000
,
0000
3001
0000
0000
,
0000
0001
0000
0000
,
0000
0001
0000
0000
,
0000
0001
0000
0000
,
0000
1000
0000
0000
,
0001
0020
0000
0100
,
0000
0031
0000
0000
,
0001
0000
0000
0100
,
0000
0001
0000
0000
,
0001
0000
0000
0100
,
0000
0001
0000
0000
,
0001
0000
0000
0100
,
0001
0000
0000
0000
,
1000
0000
0000
0000
,
0000
1000
0000
0100
,
1000
0100
1100
0000
,
0001
0010
0100
0000
,
0001
0100
0010
0000
,
0001
0100
0010
0000
,
1000
0100
1100
0000
,
0000
1001
0000
0001
,
0001
0000
1000
0100
,
0001
0000
0000
0000
,
1000
0100
1100
0000
,
0001
0010
0100
0000
,
0001
0100
0010
0000
,
0001
0100
0010
0000
,
1000
0100
1100
0000
,
0000
1001
0000
0001
,
0001
0100
0010
0000
,
0001
0100
0000
0000
,
0001
0100
0000
0010
,
1000
0010
0010
0000
,
0001
0100
0000
0010
,
1000
0010
0010
0000
,
0001
0100
0000
0010
,
0001
1000
0010
0000
,
1000
0000
0000
0000
,
0001
0100
0000
0000
,
0001
0000
0010
0000
,
0001
0010
0001
0000
,
0000
0000
0001
0010
,
0001
1100
0000
0000
,
0000
0000
0001
0010
,
0001
0010
0001
0000
,
0011
1000
0100
0000
,
0000
0001
0000
0000
,
0000
0001
0000
0000
,
0000
0001
0000
0000
,
0000
1000
0000
0000
,
0000
0001
0000
0000
,
1000
0000
0000
0000
,
0000
0001
0000
0000
,
0001
2000
0000
0100
,
0000
3000
0000
0100
,
1000
0000
0000
0010
,
0000
1000
0000
0100
,
0001
0000
0000
0100
,
0000
0001
0000
0000
,
0001
0000
0000
0100
,
0001
0000
0000
0000
,
0001
0000
0000
0000
,
0000
1001
0000
0001
,
1000
0100
1100
0000
,
0001
0010
0100
0000
,
0001
0100
0010
0000
,
0001
0100
0010
0000
,
1000
0100
1100
0000
,
0000
1001
0000
0001
,
0001
0000
1000
0100
,
0001
0000
0000
0000
,
1000
0100
1100
0000
,
0001
0010
0100
0000
,
0001
0100
0010
0000
,
0001
0100
0010
0000
,
1000
0100
1100
0000
,
0000
1001
0000
0001
,
0001
0100
0010
0000
,
0000
0001
0000
0100
,
0101
0100
0000
0000
,
0001
0000
1000
0010
,
0001
0010
0100
0000
,
0101
1000
0000
0110
,
0001
0100
0000
0000
,
0001
0000
1000
0010
,
1000
0100
0000
0010
,
0001
0100
0000
0010
,
1000
0100
0000
0010
,
1000
0100
0000
0010
,
0000
0001
1000
0010
,
0001
1000
0100
0000
,
0000
0001
0000
0000
,
0000
1000
0000
0000
,
0000
0001
0010
0100
,
2000
0100
0000
0010
,
3000
1000
0000
0100
,
1000
0001
0000
0100
,
1000
0100
0000
0010
,
0000
0100
0000
0010
,
0000
0000
0000
0000
,
0000
0001
0000
0000
,
0000
1001
0000
0001
,
1000
0100
1100
0000
,
0001
0000
0000
0010
0000
0000
0100
0000
0000
0000
0000
0000
0010
0000
0000
0000
,
0001
0100
0010
0000
,
0001
0100
0010
0000
,
1000
0100
1100
0000
,
0000
1001
0000
0001
,
0001
0000
1000
0100
,
0001
0000
0100
0000
,
1000
0100
1100
0010
,
0001
0010
0100
0000
,
0001
1000
0010
0000
,
0001
0100
0010
0000
,
1000
0100
1100
0000
,
0000
1001
0000
0001
,
0001
0100
0010
0000
,
0001
0000
0000
0000
,
0000
0001
0000
0100
,
0001
00M0
0M00
M000
,
0M00
00M0
000M
00M0
,
0M00
0000
0000
0000
;

//---------------dance-single - ----------------
#NOTES:
     dance-single:
     :
     Hard:
     7:
     0.460283,0.615718,0.371118,0.129329,0.002812,573.000000,507.000000,66.000000,23.000000,8.000000,0.000000,0.460283,0.615718,0.371118,0.129329,0.002812,573.000000,507.000000,66.000000,23.000000,8.000000,0.000000:
0000
0001
0000
0000
,
0000
1000
0000
0000
,
0000
0001
0000
0000
,
0000
1000
0000
0000
,
0000
0001
0000
0010
,
0000
0000
0001
0010
0001
0010
0100
1000
,
0100
1000
0100
0010
0100
0010
0200
0000
,
0300
0000
1100
0000
0000
1000
0000
0000
,
0001
0000
1100
0000
0000
0001
0000
0000
,
0001
0000
1010
0000
0000
0001
0000
0000
,
0001
0000
1100
0000
0000
0001
0000
0000
,
1000
0000
0011
0000
0000
1000
0000
0000
,
1000
0000
0011
0000
0000
1000
0000
0000
,
0000
0000
1000
0000
0100
0010
0000
0100
,
1000
0010
0001
0000
0100
0010
0000
0100
,
0001
0100
0000
0001
,
1000
0100
0000
0000
1000
0000
0010
0000
,
1001
0000
1000
0000
0100
0001
0000
0000
,
0100
0000
1100
1000
,
0001
0000
1100
0000
0010
0001
0000
0000
,
0010
0000
0000
0010
1100
0000
1000
0000
,
1001
0000
1000
0000
0100
0001
0000
0000
,
0011
0000
0001
0000
1000
0000
0010
0100
,
0001
0210
0000
1000
,
0000
0001
0000
1300
,
0000
1020
0000
0100
,
0000
1030
0000
0012
,
0000
1000
0000
0010
,
0000
1000
0000
0103
,
0000
2100
0000
0010
,
3001
0020
0000
1000
,
0030
0012
0000
0100
,
0000
0010
0000
1003
,
0000
0201
0000
1000
,
0000
0001
0000
1300
,
0000
0000
0001
0000
0010
0000
0001
0010
,
0001
0000
0100
0000
1000
0000
1000
0100
,
0001
0000
0000
0100
0010
0100
0000
0000
,
0001
0010
0001
0000
0100
0000
0200
0000
,
0300
1001
0000
0001
,
0001
1000
0000
0000
1001
0000
0000
0000
,
0001
1000
0100
0000
,
1000
0001
0000
0000
0010
0000
0000
0001
,
0001
0010
0100
0000
,
0001
1000
0000
0000
1001
0000
0000
0000
,
0001
0000
1100
0100
1000
0000
1000
0000
,
1000
0100
0001
0010
0100
0000
1000
0010
,
1000
0000
0000
0001
,
0001
1000
0000
0000
1001
0000
0010
0000
,
0001
1000
0100
0110
,
1000
0001
0000
0000
0010
0000
0010
0001
,
0001
0010
0100
0110
,
0001
1000
0001
0000
1001
0000
0100
0000
,
0001
1100
0100
1000
,
1000
0001
0000
0000
0010
0000
0010
0001
,
1000
0000
0001
0000
0000
0010
0000
0000
,
1000
0000
0000
0010
0000
0000
1000
0000
,
0001
0000
0010
0000
0000
0001
0000
0000
,
1000
0000
0000
0010
0000
0000
1000
0000
,
0001
0000
0010
0000
0000
0001
0000
0000
,
1000
0000
0000
0010
0000
0000
1000
0000
,
1000
0001
0010
0100
,
2000
0000
3100
0000
1000
0100
0010
0000
,
0001
0000
1000
0000
0000
0110
0000
0000
,
1000
0100
0000
0000
1000
0110
0000
0000
,
1001
0000
1000
0000
0100
0011
0000
0000
,
0001
0000
1000
1100
,
0001
0000
1000
0000
0000
0101
0000
0000
,
0100
0000
1100
1000
,
1001
0000
1000
0000
0100
0001
0000
0000
,
0011
0000
0001
0000
1000
0000
0100
0100
,
0000
0210
0000
1000
,
0000
0001
0000
1300
,
0000
1020
0000
0100
,
0000
1030
0000
0012
,
0000
1000
0000
0010
,
0000
1000
0000
0103
,
0000
2100
0000
0010
,
3001
0020
0000
1000
,
0030
0012
0000
0100
,
0000
0010
0000
1003
,
0000
0201
0000
1000
,
0000
0001
0000
1300
,
0000
0000
0001
0000
0010
0000
0001
0010
,
0001
0100
1000
1000
,
0001
0000
0000
0100
0010
0100
0000
0001
,
0010
0001
0000
0000
0100
0010
0200
0000
,
0300
1001
0000
0011
,
0001
1000
0000
0000
1001
0000
0000
0000
,
0001
1000
0100
0000
,
1000
0001
0000
0000
0010
0000
0000
0001
,
0001
0010
0100
0000
,
0001
1000
0000
0000
1001
0000
0000
0000
,
0001
0000
1100
0100
1000
0000
0010
0000
,
1000
0100
0001
0010
0100
0000
1000
0010
,
1000
0000
0000
0000
0000
0010
0001
0000
,
0001
1000
0000
0000
1001
0000
0010
0000
,
0001
1000
0200
0010
,
1000
0001
0000
0000
0310
0000
0010
0001
,
0001
0010
0100
0110
,
0001
1000
0001
0000
1001
0000
0100
0000
,
0001
1100
0100
1000
,
1000
0001
0000
0000
0010
0000
0010
0001
,
1000
0002
0000
0003
,
0110
1000
0000
0000
,
1000
0000
0001
1000
,
0001
1000
0100
0000
,
0101
1000
0000
0110
,
0001
0000
1000
0000
0000
0100
0000
0000
,
1000
0100
0001
1000
,
1000
0000
0001
0000
0000
0100
0000
0000
,
1000
0001
0100
0010
,
0001
0000
1000
0000
0000
0010
0000
0000
,
1000
0001
0000
0010
,
0001
0010
0001
0010
,
1000
0000
0001
0000
0000
0100
0000
0000
,
0000
0000
0001
0010
0000
0100
1000
0000
,
0100
0000
0001
0100
0010
0100
0010
0000
,
0001
0001
0010
0100
,
0002
0100
0000
1000
,
0003
0100
0010
0100
,
1000
0010
1000
0100
,
1000
0100
0000
1000
,
0000
0000
0100
0000
0000
0000
0001
0001
,
0010
0000
0100
1000
0000
0000
0000
0000
,
0010
0001
0000
0000
,
0001
0000
1100
0100
0010
0100
0000
0000
,
0001
0010
0001
0000
1000
0000
0100
0000
,
0201
0000
0000
0000
0300
1000
0000
0000
1001
0000
0000
0000
0000
0000
0000
0000
,
0001
0000
0001
1000
0010
0000
1001
0001
,
0001
1000
0100
0000
,
1000
0001
0000
0000
1010
0000
0000
0001
,
0001
0010
1100
1000
,
1000
0001
0000
0000
1001
0000
0100
0010
,
0100
0000
1100
0100
1000
0000
1000
0000
,
0100
0010
0001
0100
1000
0000
0001
0010
,
0001
1000
0100
0001
,
0001
1000
0000
0000
1001
0000
0010
0001
,
0010
1000
0200
0010
,
1000
0001
0000
0000
0010
0000
0310
0001
,
0001
0010
0100
0110
,
0001
1000
0001
0000
1001
0000
0100
0010
,
0001
1100
0100
1000
,
1000
0001
0000
0000
0010
0000
0010
0001
,
1000
00M0
0M00
M000
,
0M00
00M0
000M
00M0
,
0M00
0000
0000
0000
;

//---------------dance-single - ----------------
#NOTES:
     dance-single:
     :
     Challenge:
     9:
     0.668334,0.697814,0.387987,0.337380,0.019681,832.000000,763.000000,69.000000,60.000000,8.000000,9.000000,0.668334,0.697814,0.387987,0.337380,0.019681,832.000000,763.000000,69.000000,60.000000,8.000000,9.000000:
// measure 0
0010
0001
0000
0100
,  // measure 1
1000
0010
0002
0000
,  // measure 2
0103
0000
1000
0000
0000
0100
0010
0100
,  // measure 3
0010
0002
0003
0000
,  // measure 4
0010
0001
0000
0100
,  // measure 5
1000
0000
0100
0010
0100
0010
0001
0010
,  // measure 6
0001
0010
0100
1000
0100
0010
0200
0000
,  // measure 7
0300
0000
1100
0000
0000
1000
0100
1000
,  // measure 8
0001
0010
1100
0010
0001
0010
0100
0010
,  // measure 9
0001
0000
1010
0000
0000
0001
0000
0010
,  // measure 10
0001
0010
1100
0000
0100
0001
0010
0100
,  // measure 11
1000
0000
0011
0000
0000
1000
0100
1000
,  // measure 12
0100
0010
0011
0100
1000
0100
0010
0002
,  // measure 13
0000
0003
1000
0000
0100
0010
0001
0100
,  // measure 14
1000
0010
0001
0000
0100
0010
0000
0100
,  // measure 15
0001
0000
0100
1000
0100
0010
0011
0000
,  // measure 16
1000
0100
1000
0100
0010
0000
1010
0000
,  // measure 17
1000
0100
1000
0100
0010
0011
0000
0200
,  // measure 18
0010
0301
0010
0100
1000
0000
1100
0000
,  // measure 19
0002
0000
1103
0000
0010
0001
0010
0000
,  // measure 20
0010
0100
0010
0100
1010
0000
1100
0000
,  // measure 21
1001
0000
1000
0000
0100
0001
0010
0000
,  // measure 22
0001
0010
0001
0100
1000
0000
0010
0100
,  // measure 23
0001
0210
0010
0000
,  // measure 24
0001
0001
1000
0310
,  // measure 25
1000
0120
0100
0000
,  // measure 26
1000
1030
0100
0010
,  // measure 27
0100
0000
0002
0000
0010
0100
0000
0100
,  // measure 28
0010
0000
1000
0100
0000
0000
0103
0010
,  // measure 29
0001
0010
2000
0000
0100
0010
0000
0001
,  // measure 30
3010
0000
0020
0001
0000
0100
1000
0000
,  // measure 31
0130
0000
0012
0100
0000
1000
0100
0000
,  // measure 32
0100
0000
0010
0100
0000
0100
1003
0000
,  // measure 33
0100
0000
0002
0010
0000
0100
1000
0000
,  // measure 34
0010
0100
0010
0000
0010
0100
2003
0000
,  // measure 35
3000
0000
0001
0000
0010
0000
0001
0010
,  // measure 36
0001
0000
0100
1000
0100
0010
0200
0000
,  // measure 37
0300
0000
0000
0100
0010
0100
0010
0000
,  // measure 38
0001
0000
0010
0000
0001
0000
0000
0000
0100
0010
0100
0000
0200
0000
0000
0000
,  // measure 39
0300
0000
1000
1000
0000
0001
0001
0000
,  // measure 40
0010
0100
0000
0010
1000
0000
0020
0000
,  // measure 41
0031
0000
1000
1000
0200
0001
0001
0000
,  // measure 42
0310
0100
0000
0010
0000
0100
1000
0100
,  // measure 43
0010
0000
1100
1000
0200
0001
0001
0000
,  // measure 44
0310
0100
0000
0010
1000
0000
0010
0000
,  // measure 45
0002
0000
1013
0001
0010
0000
0100
0000
,  // measure 46
1000
0100
0001
0010
0100
0000
1000
0010
,  // measure 47
1000
0000
0000
0000
1000
1000
0000
0000
0000
0000
0001
0000
0001
0000
0000
0000
,  // measure 48
0010
0100
0000
0010
1000
0000
0010
0000
,  // measure 49
0002
0000
1003
1000
0200
0001
0001
0000
,  // measure 50
0310
0100
0000
0010
1000
0000
0001
0010
,  // measure 51
0001
0000
1000
1000
0000
0001
0001
0000
,  // measure 52
0010
0100
0001
0010
1000
0000
0100
0000
,  // measure 53
0001
0000
1000
0100
1000
0100
0010
0000
,  // measure 54
0010
0001
0100
0010
0100
0010
0002
0000
,  // measure 55
0013
0000
0001
0000
0000
0010
0001
0010
,  // measure 56
1000
0000
0100
0010
0100
0000
2000
0000
,  // measure 57
3001
0000
0020
0000
0130
0001
0100
0000
,  // measure 58
1000
0000
0100
0010
0100
0000
1000
0000
,  // measure 59
0001
0000
0010
0000
0010
0001
0010
0000
,  // measure 60
1000
0100
0001
0010
0000
1000
2000
0000
,  // measure 61
3100
1000
0001
0000
0010
0100
0010
0000
,  // measure 62
1000
1000
1000
0000
0000
0000
0000
0000
1000
0000
1000
0000
0000
0000
0001
0000
,  // measure 63
0001
0000
1000
0000
0200
0010
0300
0000
,  // measure 64
1000
0100
0010
0100
2000
0100
3000
0000
,  // measure 65
0001
0010
1000
0100
0010
0001
0020
0000
,  // measure 66
0031
0010
0001
0010
0100
0000
1100
0000
,  // measure 67
0001
0000
1010
0000
0010
0001
0010
0000
,  // measure 68
0010
0100
1000
0100
1000
0000
1000
0000
,  // measure 69
2001
0000
0000
0000
3100
0001
0000
0010
,  // measure 70
0001
0000
0001
0000
1000
0000
0100
0100
,  // measure 71
0000
0002
0013
1100
,  // measure 72
0200
0000
1300
0000
0001
0010
0100
0000
,  // measure 73
0011
0020
0031
1100
,  // measure 74
0200
0000
1300
0000
0001
0010
0100
0000
,  // measure 75
0011
0000
0020
0000
0001
0100
0001
0000
,  // measure 76
0230
0010
1000
0000
0001
0000
0301
0010
,  // measure 77
0001
0010
0002
0000
0010
0000
1100
0010
,  // measure 78
0203
0000
1000
0000
0302
0000
0100
0010
,  // measure 79
0103
0000
0012
0100
0000
1000
0100
0000
,  // measure 80
0100
0000
0010
0100
0000
0100
1003
0000
,  // measure 81
0100
0000
0002
0010
0000
0100
1000
0000
,  // measure 82
0010
0100
0010
0000
0010
0100
2003
0000
,  // measure 83
3000
0000
0001
0000
0010
0000
0001
0010
,  // measure 84
0001
0000
0100
1000
0100
0010
0200
0000
,  // measure 85
0300
0000
0000
0100
0010
0100
0010
0000
,  // measure 86
0001
0000
0010
0000
0001
0000
0000
0000
0100
0010
0100
0000
0200
0000
0000
0000
,  // measure 87
0300
0000
1000
1100
0000
0001
0011
0000
,  // measure 88
0010
0100
0000
0010
1001
0000
0020
0000
,  // measure 89
0031
0000
1000
1100
0200
0001
0011
0000
,  // measure 90
0310
0100
0000
0010
0000
0100
1000
0100
,  // measure 91
0010
0000
1000
1100
0200
0001
0011
0000
,  // measure 92
0310
0100
0000
0010
1001
0000
0010
0000
,  // measure 93
0002
0000
1013
0001
0010
0000
0100
0000
,  // measure 94
1000
0100
0001
0010
0100
0000
1000
0010
,  // measure 95
1000
0000
0000
0000
1000
1100
0000
0000
0000
0000
0001
0000
0011
0000
0000
0000
,  // measure 96
0010
0100
0000
0010
1001
0000
0020
0000
,  // measure 97
0031
0000
1000
1100
0200
0001
0011
0000
,  // measure 98
0310
0100
0000
0010
1001
0000
0001
0010
,  // measure 99
0001
0000
1000
1100
0000
0001
0011
0000
,  // measure 100
0010
0100
0001
0010
1000
0000
0100
0000
,  // measure 101
0101
0000
1000
0100
1000
0100
0011
0000
,  // measure 102
0010
0001
0100
0010
0100
0010
0002
0000
,  // measure 103
0013
0021
0000
0130
,  // measure 104
0110
0000
1000
0000
0000
1000
0100
0000
,  // measure 105
1000
0000
0100
0000
0001
0010
0000
0000
,  // measure 106
0001
0000
1000
0000
0100
0010
0000
0010
,  // measure 107
0100
0000
0001
0010
0100
0010
0100
0000
,  // measure 108
0001
0000
1000
0100
0000
0001
0010
0100
,  // measure 109
1000
0000
0100
0010
0001
0000
1000
0000
,  // measure 110
1000
0000
0001
0000
0100
0010
0100
0000
,  // measure 111
1000
0100
0001
0010
0001
0000
0010
0000
,  // measure 112
0001
0000
1000
1000
0100
0010
0001
0010
,  // measure 113
0001
0000
1001
0000
0100
0010
0100
0000
,  // measure 114
0001
0010
0001
0100
0010
0001
0010
0000
,  // measure 115
1000
0000
0011
0000
1000
0000
0100
0010
,  // measure 116
0100
0001
0010
0001
,  // measure 117
0010
0000
1000
0000
0100
0010
0001
0000
,  // measure 118
1000
0100
0010
0000
0010
0000
0100
0000
,  // measure 119
0002
0000
0010
0000
0100
0010
0100
0000
,  // measure 120
0103
1000
0100
0001
,  // measure 121
0010
1000
0100
0010
,  // measure 122
1000
0100
2000
0100
,  // measure 123
0010
0000
0001
0000
0010
0000
3100
0010
,  // measure 124
0100
0010
0100
0000
1000
0000
0100
0000
,  // measure 125
0001
0100
0010
1000
,  // measure 126
0010
0000
1000
0100
1000
0100
0010
0000
,  // measure 127
0001
1000
0100
0000
0001
0010
0001
0100
,  // measure 128
0010
0000
0000
1000
0000
0000
1100
0000
0000
0000
0001
0000
0011
0000
0000
0000
,  // measure 129
0010
0100
0000
0010
1001
0000
0020
0000
,  // measure 130
0131
0000
1200
1000
0000
0001
0001
0000
,  // measure 131
0310
0100
0000
0100
1000
0100
0010
0000
,  // measure 132
1010
0000
1000
1100
0000
0001
0011
0000
,  // measure 133
0010
0100
0000
0010
1001
0000
1000
0010
,  // measure 134
1000
0000
1000
0000
0100
1000
0100
0000
,  // measure 135
1000
0100
1000
0100
0011
0000
0001
0000
,  // measure 136
1001
0000
0000
0000
1000
1100
0000
0000
0000
0000
0001
0000
0011
0000
0000
0000
,  // measure 137
0010
0100
0000
0010
1001
0000
0020
0000
,  // measure 138
0031
0000
1000
1000
0200
0001
0001
0000
,  // measure 139
0310
0100
0000
0010
0000
0100
1000
0100
,  // measure 140
0010
0000
1100
1000
0200
0001
0001
0000
,  // measure 141
0310
0100
0000
0010
1001
0000
0010
0000
,  // measure 142
0002
0000
1013
0001
0010
0000
0100
0000
,  // measure 143
1000
0100
0001
0010
0100
0000
1000
0000
,  // measure 144
1001
00M0
0M00
M000
,  // measure 145
0M00
00M0
000M
00M0
,  // measure 146
0M00
0000
0000
0000
;

//---------------dance-double - ----------------
#NOTES:
     dance-double:
     :
     Challenge:
     7:
     0.457070,0.615718,0.371118,0.129329,0.002812,569.000000,503.000000,66.000000,23.000000,8.000000,0.000000,0.457070,0.615718,0.371118,0.129329,0.002812,569.000000,503.000000,66.000000,23.000000,8.000000,0.000000:
00000000
00010000
00000000
00000000
,
00000000
10000000
00000000
00000000
,
00000000
00010000
00000000
00000000
,
00000000
10000000
00000000
00000000
,
00000000
00010000
00000000
00100000
,
00000000
00000000
00010000
00100000
00010000
00100000
01000000
10000000
,
01000000
10000000
01000000
00100000
01000000
00100000
02000000
00000000
,
03000000
00000000
11000000
00000000
00000000
10000000
00000000
00000000
,
00010000
00000000
11000000
00000000
00000000
00010000
00000000
00000000
,
00010000
00000000
10100000
00000000
00000000
00010000
00000000
00000000
,
00010000
00000000
11000000
00000000
00000000
00010000
00000000
00000000
,
10000000
00000000
00110000
00000000
00000000
10000000
00000000
00000000
,
10000000
00000000
00110000
00000000
00000000
10000000
00000000
00000000
,
00000000
00000000
10000000
00000000
01000000
00100000
00000000
01000000
,
10000000
00100000
00010000
00000000
01000000
00100000
00000000
01000000
,
00010000
01000000
00000000
00010000
,
10000000
01000000
00000000
00000000
10000000
00000000
00100000
00000000
,
10010000
00000000
10000000
00000000
01000000
00010000
00000000
00000000
,
01000000
00000000
11000000
10000000
,
00010000
00000000
11000000
00000000
00100000
00010000
00000000
00000000
,
00100000
00000000
00000000
00100000
11000000
00000000
10000000
00000000
,
10010000
00000000
10000000
00000000
01000000
00010000
00000000
00000000
,
00110000
00000000
00010000
00000000
10000000
00000000
00100000
01000000
,
00010000
02100000
00000000
10000000
,
00000000
00010000
00000000
13000000
,
00000000
10200000
00000000
01000000
,
00000000
10300000
00000000
00120000
,
00000000
10000000
00000000
00100000
,
00000000
10000000
00000000
01030000
,
00000000
21000000
00000000
00100000
,
30010000
00200000
00000000
10000000
,
00300000
00120000
00000000
01000000
,
00000000
00100000
00000000
10030000
,
00000000
02010000
00000000
10000000
,
00000000
00010000
00000000
13000000
,
00000000
00000000
00010000
00000000
00100000
00000000
00010000
00100000
,
00010000
00000000
01000000
00000000
10000000
00000000
10000000
01000000
,
00010000
00000000
00000000
01000000
00100000
01000000
00000000
00000000
,
00010000
00100000
00010000
00000000
01000000
00000000
02000000
00000000
,
03000000
10010000
00000000
00010000
,
00010000
10000000
00000000
00000000
10010000
00000000
00000000
00000000
,
00010000
10000000
01000000
00000000
,
10000000
00010000
00000000
00000000
00100000
00000000
00000000
00010000
,
00010000
00100000
01000000
00000000
,
00010000
10000000
00000000
00000000
10010000
00000000
00000000
00000000
,
00010000
00000000
11000000
01000000
10000000
00000000
10000000
00000000
,
10000000
01000000
00010000
00100000
01000000
00000000
10000000
00100000
,
10000000
00000000
00000000
00010000
,
00010000
10000000
00000000
00000000
10010000
00000000
00100000
00000000
,
00010000
10000000
01000000
01100000
,
10000000
00010000
00000000
00000000
00100000
00000000
00100000
00010000
,
00010000
00100000
01000000
01100000
,
00010000
10000000
00010000
00000000
10010000
00000000
01000000
00000000
,
00010000
11000000
01000000
10000000
,
10000000
00010000
00000000
00000000
00100000
00000000
00100000
00010000
,
10000000
00000000
00010000
00000000
00000000
00100000
00000000
00000000
,
10000000
00000000
00000000
00100000
00000000
00000000
10000000
00000000
,
00010000
00000000
00100000
00000000
00000000
00010000
00000000
00000000
,
10000000
00000000
00000000
00100000
00000000
00000000
10000000
00000000
,
00010000
00000000
00100000
00000000
00000000
00010000
00000000
00000000
,
10000000
00000000
00000000
00100000
00000000
00000000
10000000
00000000
,
10000000
00010000
00100000
01000000
,
20000000
30000000
10000000
00000000
,
00010000
00000000
10000000
00000000
00000000
01100000
00000000
00000000
,
10000000
01000000
00000000
00000000
10000000
01100000
00000000
00000000
,
10010000
00000000
10000000
00000000
01000000
00110000
00000000
00000000
,
00010000
00000000
10000000
11000000
,
00010000
00000000
10000000
00000000
00000000
01010000
00000000
00000000
,
01000000
00000000
11000000
10000000
,
10010000
00000000
10000000
00000000
01000000
00010000
00000000
00000000
,
00110000
00000000
00010000
00000000
10000000
00000000
01000000
01000000
,
00000000
02100000
00000000
10000000
,
00000000
00010000
00000000
13000000
,
00000000
10200000
00000000
01000000
,
00000000
10300000
00000000
00120000
,
00000000
10000000
00000000
00100000
,
00000000
10000000
00000000
01030000
,
00000000
21000000
00000000
00100000
,
30010000
00200000
00000000
10000000
,
00300000
00120000
00000000
01000000
,
00000000
00100000
00000000
10030000
,
00000000
02010000
00000000
10000000
,
00000000
00010000
00000000
13000000
,
00000000
00000000
00010000
00000000
00100000
00000000
00010000
00100000
,
00010000
01000000
10000000
10000000
,
00010000
00000000
00000000
01000000
00100000
01000000
00000000
00010000
,
00100000
00010000
00000000
00000000
01000000
00100000
02000000
00000000
,
03000000
10010000
00000000
00110000
,
00010000
10000000
00000000
00000000
10010000
00000000
00000000
00000000
,
00010000
10000000
01000000
00000000
,
10000000
00010000
00000000
00000000
00100000
00000000
00000000
00010000
,
00010000
00100000
01000000
00000000
,
00010000
10000000
00000000
00000000
10010000
00000000
00000000
00000000
,
00010000
00000000
11000000
01000000
10000000
00000000
00100000
00000000
,
10000000
01000000
00010000
00100000
01000000
00000000
10000000
00100000
,
10000000
00000000
00000000
00010000
,
00010000
10000000
00000000
00000000
10010000
00000000
00100000
00000000
,
00010000
10000000
02000000
00100000
,
10000000
00010000
00000000
00000000
03100000
00000000
00100000
00010000
,
00010000
00100000
01000000
01100000
,
00010000
10000000
00010000
00000000
10010000
00000000
01000000
00000000
,
00010000
11000000
01000000
10000000
,
10000000
00010000
00000000
00000000
00100000
00000000
00100000
00010000
,
10000000
00020000
00000000
00030000
,
01100000
10000000
00000000
00000000
,
10000000
00000000
00010000
10000000
,
00010000
10000000
01000000
00000000
,
01010000
10000000
00000000
01100000
,
00010000
00000000
10000000
00000000
00000000
01000000
00000000
00000000
,
10000000
01000000
00010000
10000000
,
10000000
00000000
00010000
00000000
00000000
01000000
00000000
00000000
,
10000000
00010000
01000000
00100000
,
00010000
00000000
10000000
00000000
00000000
00100000
00000000
00000000
,
10000000
00010000
00000000
00100000
,
00010000
00100000
00010000
00100000
,
10000000
00000000
00010000
00000000
00000000
01000000
00000000
00000000
,
00000000
00000000
00010000
00100000
00000000
01000000
10000000
00000000
,
01000000
00000000
00010000
01000000
00100000
01000000
00100000
00000000
,
00010000
00010000
00100000
01000000
,
00020000
01000000
00000000
10000000
,
00030000
01000000
00100000
01000000
,
10000000
00100000
10000000
01000000
,
10000000
01000000
00000000
10000000
,
00000000
00000000
01000000
00000000
00000000
00000000
00010000
00010000
,
00100000
00000000
01000000
10000000
00000000
00000000
00000000
00000000
,
00100000
00010000
00000000
00000000
,
00010000
00000000
11000000
01000000
00100000
01000000
00000000
00000000
,
00010000
00100000
00010000
00000000
10000000
00000000
01000000
00000000
,
02010000
00000000
00000000
00000000
03000000
10000000
00000000
00000000
10010000
00000000
00000000
00000000
00000000
00000000
00000000
00000000
,
00010000
00000000
00010000
10000000
00100000
00000000
10010000
00010000
,
00010000
10000000
01000000
00000000
,
10000000
00010000
00000000
00000000
10100000
00000000
00000000
00010000
,
00010000
00100000
11000000
10000000
,
10000000
00010000
00000000
00000000
10010000
00000000
01000000
00100000
,
01000000
00000000
11000000
01000000
10000000
00000000
10000000
00000000
,
01000000
00100000
00010000
01000000
10000000
00000000
00010000
00100000
,
00010000
10000000
01000000
00010000
,
00010000
10000000
00000000
00000000
10010000
00000000
00100000
00010000
,
00100000
10000000
02000000
00100000
,
10000000
00010000
00000000
00000000
00100000
00000000
03100000
00010000
,
00010000
00100000
01000000
01100000
,
00010000
10000000
00010000
00000000
10010000
00000000
01000000
00100000
,
00010000
11000000
01000000
10000000
,
10000000
00010000
00000000
00000000
00100000
00000000
00100000
00010000
,
10000000
00M00000
0M000000
M0000000
,
0M000000
00M00000
000M0000
00M00000
,
0M000000
00000000
00000000
00000000
;
