#VERSION:0.83;
#TITLE:Naughty;
#SUBTITLE:;
#ARTIST:SEULGI & IRENE;
#TITLETRANSLIT:;
#SUBTITLETRANSLIT:;
#ARTISTTRANSLIT:;
#GENRE:;
#ORIGIN:;
#CREDIT:DubStepManiac;
#BANNER:Naughty.png;
#BACKGROUND:Naughty-bg.png;
#PREVIEWVID:;
#JACKET:jacket.png;
#CDIMAGE:;
#DISCIMAGE:;
#LYRICSPATH:;
#CDTITLE:cdtitle.png;
#MUSIC:Naughty.mp3;
#OFFSET:-0.810227;
#SAMPLESTART:45.556702;
#SAMPLELENGTH:17.743299;
#SELECTABLE:YES;
#BPMS:0.000=226.019,
655.000=113.009;
#STOPS:;
#DELAYS:;
#WARPS:;
#TIMESIGNATURES:0.000=4=4;
#TICKCOUNTS:0.000=4;
#COMBOS:0.000=1;
#SPEEDS:0.000=1.000=0.000=0;
#SCROLLS:0.000=1.000;
#FAKES:;
#LABELS:0.000=Song Start;
#BGCHANGES:0.000=Naughty.mp4=1.000=0=0=0=StretchNoLoop====,
99999=-nosongbg-=1.000=0=0=0 // don't automatically add -songbackground-
;
#KEYSOUNDS:;
#ATTACKS:
;

//---------------dance-single - ----------------
#NOTEDATA:;
#CHARTNAME:;
#STEPSTYPE:dance-single;
#DESCRIPTION:;
#CHARTSTYLE:;
#DIFFICULTY:Easy;
#METER:3;
#RADARVALUES:0.232652,0.369385,0.022541,0.107068,0.000000,289.000000,285.000000,4.000000,19.000000,0.000000,0.000000,0.000000,0.000000,0.000000,0.232652,0.369385,0.022541,0.107068,0.000000,289.000000,285.000000,4.000000,19.000000,0.000000,0.000000,0.000000,0.000000,0.000000;
#CREDIT:DubStepManiac;
#DISPLAYBPM:226.000000;
#NOTES:
0000
0000
0000
0000
,
0000
0000
0000
0000
,
0000
0000
0000
0000
,
0000
0000
0000
0000
,
0000
0000
0000
0000
,
0001
0000
0010
0000
,
0001
0000
1000
0000
,
0001
0000
0100
0000
,
0001
0000
0010
0000
,
0001
0000
1000
0000
,
0001
0000
1000
0000
,
0001
0000
0100
0000
,
0001
0000
1000
0000
,
0001
0000
1000
0000
,
0001
0000
0100
0000
,
0001
0000
1000
0000
,
0001
0000
0010
0000
,
0001
0000
1000
0000
,
1000
0000
0010
0000
,
0001
0000
1000
0000
,
0001
0000
1000
0000
,
1000
0200
0000
0000
,
0000
0000
0000
0000
,
0000
0000
0000
0000
,
0300
0000
1000
0000
,
1000
0000
0000
2000
,
0000
0000
0000
0000
,
3000
0000
0000
0000
,
0000
0000
1000
0000
,
1000
0000
0000
0000
,
0001
0000
0000
0000
,
1000
0000
0000
0000
,
1000
0000
0000
0000
,
0000
0000
0000
0000
,
0000
0002
0000
0000
,
0000
0000
0000
0000
,
0003
0011
0001
0001
,
0001
0000
1000
0000
,
1000
0000
0001
0000
,
1000
0000
0001
0000
,
1000
0000
0001
0000
,
0000
0000
1000
0100
,
1000
0000
0001
0000
,
1000
0000
0001
0000
,
0001
0000
1000
0000
,
0001
0001
0100
0000
,
1000
0000
0001
0000
,
0001
0000
1000
0000
,
0001
0000
1000
0000
,
1000
0000
0001
0000
,
1000
0000
0001
0000
,
0001
0000
1000
0000
,
1000
0000
0001
0000
,
1000
0000
0001
0000
,
0100
0000
0001
0000
,
1000
0000
0100
0000
,
0010
0000
1000
0000
,
0100
0000
0001
0000
,
0010
0000
1010
1000
,
0001
0000
1000
0000
,
0001
0000
1000
0000
,
0001
0000
1000
0000
,
1000
0000
0001
0000
,
0001
0000
1000
0000
,
0001
0000
1000
0000
,
0001
0000
1000
0000
,
0001
0000
0100
0000
,
1000
2000
0100
0000
,
0100
0000
0100
0000
,
0100
0000
3001
0000
,
0100
0000
0001
0000
,
0100
1000
0200
0000
,
0000
0000
0010
0000
,
0010
0300
1000
0000
,
2000
0000
3100
0000
,
1000
0000
0100
0000
,
0010
0000
1000
0000
,
0100
0000
0001
0000
,
0010
0000
0001
0000
,
0100
0000
1000
2000
,
0000
0000
0100
0000
,
0100
0000
3100
1000
,
0001
0000
0100
0000
,
1000
0000
0001
0000
,
0001
0000
1000
0000
,
0000
0000
1000
0100
,
0001
0000
1000
0000
,
1000
0000
0001
0010
,
0001
0000
1000
0000
,
0001
0000
1000
0000
,
0001
0000
1000
1000
,
0001
0000
0010
0000
,
0001
0000
0100
0000
,
0100
0000
0020
0000
,
0000
0000
0030
0000
,
0001
0000
1000
0000
,
1000
0000
0001
0000
,
0001
0000
1000
0000
,
0001
0000
1000
0000
,
1000
0000
0001
0000
,
1000
0000
0001
0000
,
0001
0000
1000
0000
,
1000
0000
0001
0000
,
1000
0000
0001
0000
,
0001
0000
0100
0000
,
1000
0000
0010
0000
,
1000
0000
0200
0000
,
0000
0000
0000
0000
,
0000
0000
0300
0000
,
0100
0000
0100
0000
,
0001
0000
0001
0000
,
0010
0000
0010
0020
,
0000
1000
1000
0000
,
0100
0000
0100
0000
,
1000
0030
1002
0000
,
0010
0000
0010
0000
,
0010
0003
0200
0000
,
0000
0000
0000
0000
,
0000
0000
0320
0000
,
0000
0000
0000
0000
,
0000
0000
2030
0000
,
0000
0000
0000
0000
,
0000
0000
3002
0000
,
0000
0000
0000
0000
,
0000
0000
0203
0000
,
0000
0000
0000
0000
,
0000
0000
0320
0000
,
0000
0000
1000
0000
,
0000
0000
0032
0000
,
0000
0000
0000
0000
,
0000
0000
2003
0000
,
0000
0000
0001
0000
,
3000
0000
0001
0000
,
0001
0000
1000
0000
,
0001
0000
1000
0000
,
1000
0000
0001
0000
,
0001
0000
1000
0000
,
1000
0000
0001
0000
,
1000
0000
0001
0000
,
1000
0000
0001
0000
,
1000
0000
0001
0000
,
0001
0000
1000
0000
,
0001
0000
1000
0000
,
1000
0000
0001
0000
,
0001
0100
1000
0000
,
0100
0000
1000
1000
,
0001
0001
0100
0000
,
1000
0010
0001
0000
,
0001
0000
1000
0000
,
1000
0000
0001
0000
,
1000
0000
0001
0000
,
1000
0000
0001
0010
,
0001
0000
0010
0000
,
0001
0000
0010
0000
,
1000
0000
0100
0000
,
0001
0000
0100
0000
,
0001
0000
0001
0000
,
1000
0000
0001
0000
,
1000
0000
0010
0000
,
0100
0000
0010
0000
,
0100
0000
0001
0000
,
1000
0000
0001
0000
,
1000
0000
1000
0000
,
0001
0000
0000
0000
0001
0000
0000
1001
;

//---------------dance-single - ----------------
#NOTEDATA:;
#CHARTNAME:;
#STEPSTYPE:dance-single;
#DESCRIPTION:;
#CHARTSTYLE:;
#DIFFICULTY:Medium;
#METER:6;
#RADARVALUES:0.343745,0.461732,0.028176,0.073257,0.000000,427.000000,422.000000,5.000000,13.000000,0.000000,0.000000,0.000000,0.000000,0.000000,0.343745,0.461732,0.028176,0.073257,0.000000,427.000000,422.000000,5.000000,13.000000,0.000000,0.000000,0.000000,0.000000,0.000000;
#CREDIT:DubStepManiac;
#DISPLAYBPM:226.000000;
#NOTES:
0000
0000
0000
0000
,
0000
0000
0000
0000
,
0000
0000
0000
0000
,
0000
0000
0000
0000
,
0000
0000
0000
0000
,
1000
0000
0100
0100
,
0001
0000
0010
0000
,
1000
0000
0010
0000
,
1000
0000
0100
0100
,
1000
0100
0010
0000
,
0001
0000
0010
0000
,
1000
0000
0010
0000
,
1000
0100
0010
0000
,
0001
0000
0010
0000
,
1000
0000
0010
0000
,
0001
0000
0010
0000
,
1000
0000
0100
0100
,
0001
0000
0010
0000
,
0001
0000
1000
0000
,
0001
0010
0010
0000
,
0001
0000
0010
0010
,
1000
0200
0000
0000
,
0000
0000
0000
0000
,
0300
0000
0100
0100
,
0010
0000
0100
0000
,
1000
0000
0100
0002
,
0000
0000
0010
0000
,
0003
0010
0010
0000
,
0001
0000
0100
0000
,
1000
0000
0000
0000
,
1000
0000
0000
0000
,
0001
0000
0000
0000
,
1000
0000
0000
0000
,
0001
2000
0000
3000
,
0020
0000
0000
0001
,
0000
0000
0000
0100
,
0030
0011
0100
0100
,
1000
0000
0001
0001
,
0001
0100
0001
0000
,
1000
0010
1000
0000
,
1000
0010
1000
0000
,
0001
0000
0100
0010
,
0001
0100
0001
0000
,
0001
0010
0001
0000
,
1000
0010
1000
0000
,
0001
0001
0100
0001
,
0001
0100
0001
0000
,
0001
0100
0001
0000
,
1000
0000
0001
0001
,
0001
0100
0001
0000
,
0001
0100
0001
0000
,
1000
0010
1000
0000
,
0001
0100
0001
0000
,
0001
0100
0001
0010
,
0100
0010
1000
1000
,
0001
1000
0100
0010
,
0001
0001
0010
0001
,
0001
0100
0001
1000
,
0100
0010
1100
0100
,
0001
0000
0010
0000
,
0001
0000
0010
0010
,
0001
0000
0010
0000
,
0001
0000
0100
0000
,
0001
0000
0100
0000
,
0001
0000
0000
0000
0100
0001
0000
0000
,
0001
0000
0010
0010
,
1000
0000
0000
0000
0100
0010
0000
0000
,
0001
2000
0000
0000
,
0100
0000
0001
0000
,
0100
0000
3001
0000
,
0010
0000
0000
0000
0001
0010
0000
0000
,
0100
0000
0002
0000
,
0010
0000
1000
0000
,
0010
0003
1000
0000
,
0001
1000
0020
0000
,
0000
0000
0030
0001
,
0001
0100
1000
0000
,
1000
0010
0000
0010
,
0010
0000
0001
0000
,
0001
0000
0100
2000
,
0000
0000
0100
0100
,
0000
0100
3000
1010
,
0001
0001
0100
0001
,
0001
0100
0001
0000
,
1000
0010
1000
0000
,
0001
0000
0100
0010
,
0001
0000
0010
0000
,
0001
0100
0001
0000
,
0001
0010
0001
0000
,
0001
0010
0001
0000
,
0001
0000
1100
1000
,
0001
0001
1000
0000
,
1000
0000
0010
0000
,
0001
0000
0000
0000
0002
0000
0010
0100
,
0000
0100
0003
0000
,
0001
0100
0001
0000
,
1000
0010
1000
0000
,
1000
0000
0000
0010
0001
0000
0001
0000
,
0001
0000
1000
1000
,
1000
0100
1000
0000
,
0001
0100
0001
0000
,
1000
0010
1000
0000
,
1000
0010
1000
0000
,
0001
0010
0001
0000
,
1000
0000
0010
0000
,
0001
0000
0010
0000
,
1000
0000
0100
1000
,
1000
0000
1000
0100
,
0002
0000
0013
0010
,
0001
0000
0001
0000
,
0001
0000
0001
0000
,
1000
0000
1000
0000
,
1000
0000
0100
0000
,
0001
0000
0001
0000
,
0001
0010
0200
0010
,
0001
0000
0001
0000
,
0001
0000
0301
0000
,
0001
0000
0001
0000
,
0001
0000
0100
0000
,
0001
0000
0001
0000
,
0001
0000
0001
0100
,
0001
0000
0001
0000
,
0001
0000
0020
0000
,
0100
0000
0000
0000
,
0100
0000
0030
0000
,
1000
0000
0010
0200
,
0000
0000
0000
0300
,
0001
0000
0100
0000
,
0001
0000
0010
0000
,
0010
0000
0001
0100
,
0000
0001
0001
0001
,
0001
0100
0001
0000
,
0001
0010
0001
0000
,
1000
0000
0001
0001
,
1000
0000
0001
0001
,
0001
0100
0001
0000
,
0001
0100
0001
0000
,
0001
0100
0001
0000
,
1000
0100
1000
0000
,
0001
0100
0001
0000
,
0001
0100
0001
0000
,
0001
0100
0001
0000
,
1000
0000
0001
0001
,
0001
0100
0001
0000
,
0001
0000
0010
0010
,
0000
0001
0001
0001
,
0001
0001
0100
0001
,
0001
0100
0001
0000
,
1000
0000
0001
0001
,
0001
0100
0001
0000
,
1000
0010
1000
0000
,
0001
0010
0001
0000
,
0001
0000
0010
0000
,
0001
0000
0100
0000
,
1000
0000
0100
0000
,
0001
0010
0001
0000
0100
0000
0000
0000
,
0010
0001
0001
0010
,
0100
0010
0001
0100
,
1000
0001
0010
0001
,
0100
0010
0001
0010
,
0001
0100
1000
0010
,
0001
0010
0100
0001
,
0010
0100
0010
0100
,
1000
0000
0001
0000
0100
0000
0000
0110
;

//---------------dance-single - ----------------
#NOTEDATA:;
#CHARTNAME:;
#STEPSTYPE:dance-single;
#DESCRIPTION:;
#CHARTSTYLE:;
#DIFFICULTY:Hard;
#METER:7;
#RADARVALUES:0.485429,0.600251,0.101433,0.140879,0.000000,603.000000,585.000000,18.000000,25.000000,0.000000,10.000000,0.000000,0.000000,0.000000,0.485429,0.600251,0.101433,0.140879,0.000000,603.000000,585.000000,18.000000,25.000000,0.000000,10.000000,0.000000,0.000000,0.000000;
#CREDIT:DubStepManiac;
#NOTES:
1000
0000
0000
0000
,
0100
0000
0000
0000
,
1000
0000
0000
0000
,
0001
0000
0000
0000
,
1000
0000
0000
0000
,
0001
0001
0000
0000
1000
0000
0000
0100
,
0001
0100
0000
0000
0010
0000
0000
0000
,
1000
0001
0000
0000
1000
0000
0000
0000
,
0001
0000
0000
0000
1000
0000
0000
0100
,
0001
0000
1000
0010
0100
0000
0000
0000
,
0001
0100
0000
0000
0010
0000
0000
0000
,
1000
0001
0000
0000
1000
0000
0000
0000
,
0001
0000
1000
0010
0100
0000
0000
0000
,
0001
0100
0000
0000
0010
0000
0000
0000
,
1000
0001
0000
0000
1000
0000
0000
0000
,
0001
0100
0000
0000
0010
0000
0000
0000
,
0001
0000
0000
0000
1000
0000
0000
0100
,
0001
0100
0000
0000
0010
0000
0000
0000
,
1000
0000
0100
0000
,
0001
0100
0000
0000
0010
0000
0000
0000
,
1000
0001
0000
0000
1000
0000
1000
0000
,
1000
0001
0000
0000
0010
0000
0000
0000
,
0001
0000
0000
0000
0010
0000
0000
0100
,
1000
0100
0000
0000
0010
0000
0000
0000
,
0001
0010
0010
0000
,
1000
0001
0000
0000
0100
0000
0200
0000
,
0001
0000
0010
0300
,
0001
1000
0000
0000
0100
0000
0000
0000
,
0020
0000
0001
0000
,
1000
0001
0000
0000
0100
0000
0000
0000
,
0001
1000
0000
0000
0000
0000
0000
0000
,
1000
0030
0100
0010
0001
0000
0010
0000
,
0001
2000
0000
0000
0000
0000
0001
0010
,
0001
0100
0020
0000
,
0001
3030
0000
0010
,
0001
0010
1000
0100
,
1000
0000
1100
0000
0010
0010
0010
0001
,
1000
0001
1000
1000
,
0001
1000
0100
0010
,
0001
0010
1000
0000
0100
0000
0010
0000
,
0001
1000
0100
0010
,
2000
0000
0000
0000
3100
0000
1000
1000
,
0001
1000
0100
0010
,
1000
0001
0100
0010
,
0001
1000
0010
0100
,
1000
0001
0001
0000
0010
0000
0001
0000
,
0001
1000
0100
0010
,
1000
0000
0001
0000
0100
0010
0010
0000
,
1000
0001
1000
1000
,
0001
1000
0100
0010
,
0001
1000
0010
0100
,
1000
0000
0001
0000
0100
0000
0010
0010
,
1000
0001
0010
0100
,
0001
0010
1000
0100
,
0001
0000
0010
0000
0100
0000
0100
1000
,
0001
0010
0100
0010
,
0001
0000
1000
0000
0100
0000
0001
1000
,
0001
0000
0010
0000
0100
0000
1000
1000
,
0001
1000
0110
1000
,
0001
0100
0000
0000
0010
0000
0000
0000
,
1000
0001
0000
0000
1000
0000
1000
0000
,
0001
0100
0000
0000
0010
0000
0000
0000
,
0001
0010
0000
0000
0100
0000
0000
0000
,
1000
0010
0000
0000
0100
0000
0000
0000
,
0001
0000
0000
0000
1001
0000
0000
0100
,
1000
0001
0000
0000
1000
0000
1000
0000
,
0001
0020
0100
0000
,
0001
0230
0010
0000
,
0001
0000
0010
0000
,
0001
0000
0310
0000
,
0001
0200
1000
0000
,
0010
0000
1300
0000
,
0100
0000
0001
0000
,
0010
0000
0000
0000
1000
0010
0000
0000
,
0002
0010
0003
0000
,
0101
0000
0010
0000
,
0001
0000
0020
0000
,
1000
0000
0001
2000
,
0000
0000
0000
0000
0001
0100
0000
0000
,
0001
0000
0000
0000
3030
0000
0001
0010
,
0001
0010
2000
0100
,
0001
0000
0020
0000
,
0100
0001
0001
0000
0100
0000
0001
0000
,
3031
1000
0100
0010
,
0001
1000
0020
0100
,
1030
0000
0000
0000
0200
0000
1000
1000
,
0301
0010
0000
0000
0010
0000
0000
0000
,
0001
1000
0200
0010
,
0301
1000
0100
0010
,
0001
1000
0100
0010
,
1000
0000
0000
0000
1001
0000
0001
1000
,
0001
0100
0100
0000
0010
0000
0000
0000
,
1000
0001
0000
0000
1000
0100
0000
0000
,
1000
0001
0000
0000
0200
0000
1000
0000
,
0001
0000
1000
0010
0300
0000
0010
0000
,
0001
1000
0010
0100
,
1000
0000
0001
0010
0100
0000
0010
0000
,
1000
0001
1000
1000
,
0001
1000
0001
0001
,
1000
0100
1000
0010
0100
0000
0010
0000
,
0001
1000
0100
0010
,
1000
0001
0010
0100
,
1000
0001
0100
0010
,
0001
1000
0100
0010
,
1000
0001
0010
0000
1000
0000
0010
0000
,
0001
1000
0000
0000
0001
0000
0100
0000
,
1000
0100
0001
0010
,
1000
1000
0100
1000
,
2000
0000
3100
1000
,
0001
0100
0100
0100
,
1000
0100
0100
0100
,
1000
0100
0100
0020
,
0001
1000
0100
1030
,
0100
0100
1000
0100
,
0010
0100
0001
1100
,
0101
0100
0110
0100
,
1001
0100
0000
0100
,
0001
0100
0100
0100
,
0001
1000
0000
0010
,
0001
0100
0100
0100
,
0001
0100
0010
0010
,
1000
0010
0010
0010
,
0001
0100
0020
0000
,
0031
0000
1000
0100
,
0001
0000
0010
0100
,
1000
0000
0010
0001
,
1000
0000
0010
0100
,
1000
0000
0010
0100
,
0001
0000
0200
0000
,
0301
0000
1000
0100
,
0000
0000
1000
0000
1000
0000
1000
0100
,
0001
1000
0100
0010
,
1000
0001
0100
0010
,
1000
0001
2000
3000
,
0001
1000
0002
0003
,
0001
1000
0100
0010
,
1000
0001
0100
0010
,
0002
1000
0013
0100
,
1000
0100
1000
0010
0100
0000
0000
0000
,
0001
1000
0100
0010
,
1000
0001
0100
0010
,
1000
0001
0010
0100
,
1000
0001
1000
1000
,
0001
1000
0100
0010
,
1000
0001
0000
0000
1000
0000
1000
0000
,
0000
0000
1000
0000
1000
0000
1000
0100
,
1000
0001
0001
0000
0010
0000
0001
0000
,
0001
1000
0100
0010
,
1000
0001
1000
1000
,
0001
1000
0100
0010
,
0001
1000
0100
0010
,
1000
0001
0100
0010
,
0001
0000
0000
0000
0010
0001
0000
0000
,
1000
0000
0000
0000
0100
1000
0000
0000
,
1000
0000
0100
0000
0001
0000
0010
0100
,
1000
0100
0102
0000
,
0000
0000
0003
0000
0100
0010
0100
0000
,
0011
0010
0010
0100
,
1010
0100
0100
1100
,
0100
0101
0010
0011
,
0010
1000
0100
0001
,
0010
0100
0001
1000
,
0001
0010
0100
0000
1000
0000
0010
0000
,
0100
0000
0110
0000
0010
0000
1001
1001
;

//---------------dance-single - ----------------
#NOTEDATA:;
#CHARTNAME:;
#STEPSTYPE:dance-single;
#DESCRIPTION:;
#CHARTSTYLE:;
#DIFFICULTY:Challenge;
#METER:9;
#RADARVALUES:0.551441,0.646424,0.231042,0.304299,0.000000,685.000000,644.000000,41.000000,54.000000,0.000000,17.000000,0.000000,0.000000,0.000000,0.551441,0.646424,0.231042,0.304299,0.000000,685.000000,644.000000,41.000000,54.000000,0.000000,17.000000,0.000000,0.000000,0.000000;
#CREDIT:;
#NOTES:
1000
0000
0010
0000
,
0100
0000
0010
0000
,
1000
0000
0010
0000
,
0001
0000
0010
0000
,
1000
1000
0100
0000
0010
0010
0000
0000
,
0001
0001
0000
0000
1000
0000
0000
0100
,
0001
0100
0000
0000
0010
0100
0000
0100
,
1000
0001
0000
0000
1000
0100
0010
0001
,
0010
0000
0001
0010
1000
0000
0000
0100
,
0001
0000
1000
0010
0100
0000
0000
0010
,
0001
0100
0000
0000
0010
0000
0000
0000
,
1000
0001
0000
0000
1000
0100
0000
0000
,
0010
0000
0001
0000
0100
0010
0000
1000
,
0020
0031
0100
0100
,
0001
0000
0000
0000
0100
0010
0200
0000
,
0000
0300
0001
0100
,
1000
0000
1000
0000
0001
0000
0000
0010
,
1000
0010
0000
0000
0100
0000
0100
0000
,
0002
0010
0103
0000
,
1000
0010
0000
0000
0100
0000
0000
0000
,
0001
1000
0000
0000
0001
0000
0001
0000
,
0001
1000
0000
0000
0100
0000
0000
0000
,
1000
0000
0000
0000
0100
0000
0001
0010
,
0001
0010
0000
0000
0100
0000
0100
0000
,
1000
0000
0100
0010
0100
0000
0010
0000
,
0001
1000
0000
0000
0110
0000
0020
0000
,
1000
0000
0100
0030
,
1000
0001
0000
0000
0010
0000
0000
0000
,
0200
0000
1000
0002
,
0000
0000
0023
0000
,
1000
0001
0000
0000
0000
0000
0000
0000
,
0000
0330
1000
0010
1000
0000
0100
0000
,
0001
2000
0000
0000
0200
0000
0001
0010
,
0000
0000
0001
0300
0020
0000
0000
0000
,
0001
3030
0000
0010
,
0001
0010
1000
0100
,
1000
0000
1100
0000
0010
0100
0010
0001
,
1000
0001
1000
1000
,
0001
1000
0100
0010
,
0001
0010
1000
0000
0100
0000
0010
0000
,
0011
1000
0100
0010
,
2100
0000
0000
0000
3100
0000
1000
1000
,
0001
1000
0100
0010
,
1000
0001
0100
0010
,
0001
1000
0010
0100
,
1000
0010
0001
0000
0010
0000
0001
0000
,
0001
1000
0100
0010
,
1000
0000
0001
0000
0100
0010
0010
0000
,
1000
0001
1000
1000
,
0001
1000
0100
0010
,
0001
1000
0010
0100
,
1000
0000
0001
0000
0100
0000
0010
0010
,
1000
0001
0010
0100
,
0001
0010
1000
0100
,
0001
0000
0010
0000
0100
0000
0100
1000
,
0001
0010
0100
0010
,
0001
0000
1000
0000
0100
0000
0001
1000
,
0001
0000
0010
0000
0100
0000
1000
1000
,
0001
1000
0110
1000
,
0001
0100
0000
0000
0010
0000
0000
0000
,
1000
0010
0000
0000
0001
0000
0001
0000
,
1000
0010
0000
0000
0100
0000
0100
0000
,
1000
0100
0000
0000
0020
0000
0000
0000
,
0031
0100
0000
0000
0010
0000
0000
0000
,
1000
0100
0001
0010
,
0010
0100
0010
0000
0001
0000
0001
0000
,
1000
0200
0020
0000
,
0001
0000
0330
0000
0100
0010
0001
0000
,
0100
0010
0200
0020
,
0330
0000
2000
0000
0100
0010
3000
0000
,
1000
0020
0001
0000
,
0100
0000
0001
0100
0031
0100
0000
0000
,
0200
0010
1300
0010
,
0001
0000
0100
0000
0001
0100
0000
0000
,
2000
0100
3020
0000
,
1000
0000
0130
0100
,
1000
0100
0020
0000
,
1000
0002
0000
2003
,
0000
0000
0000
0000
0001
0100
0000
0000
,
0001
0000
0000
0000
3030
0000
0001
0010
,
0001
0010
2000
0100
,
0001
0200
0000
0320
,
0000
0000
0000
0000
,
3030
0001
0010
0100
,
1000
0001
0200
0010
,
0301
0000
0000
0000
0200
1000
1000
0000
,
0301
0100
0000
0000
0101
0000
0000
0000
,
0001
0000
1000
0100
0200
0000
0010
0000
,
0301
1000
0100
0010
,
0001
1000
0100
0010
,
1000
0000
0000
0000
1001
0000
1000
0001
,
1000
0010
0010
0000
0100
0000
0000
0000
,
1000
0001
0000
0000
0001
0100
1000
0000
,
0100
0010
2000
0001
,
0100
0000
0010
0001
3010
0000
1000
0000
,
0010
0000
0100
0000
1000
0010
0001
0000
,
0010
0000
0001
0010
0001
0000
1000
0000
,
0100
0010
1000
0001
,
0100
0010
0010
0000
1000
0000
0001
0000
,
1000
0100
1000
0010
0001
0000
1000
0000
,
0100
0010
0001
1000
,
0010
0100
1000
0001
,
0100
0000
0010
0010
1000
0000
0001
0000
,
0010
0100
0001
0010
,
1000
0010
0100
0000
0001
0000
0010
0000
,
0100
1000
0100
1000
0001
0000
0010
0000
,
0100
0010
0001
1000
,
0100
0000
0001
1000
0001
0000
0010
0000
,
0200
0000
1000
0010
1300
0000
0010
0000
,
0110
0000
1000
0000
0001
0100
0001
0000
,
0010
0000
0100
0000
1000
0001
1000
0000
,
0100
0000
1000
0100
1000
0000
0020
0000
,
0001
1000
0100
1030
,
0100
0000
0010
0100
1000
0000
0100
0000
,
0010
0100
0001
0011
,
1010
0010
0110
0010
,
1001
0100
0000
0100
,
0001
0200
0010
0310
,
0001
1000
0000
0020
,
0001
0100
0100
0100
,
0001
0230
0010
0010
,
1000
0010
0310
0001
,
0010
0100
0020
0000
,
0031
0001
1000
0100
,
0001
0010
0000
0000
0020
0000
0100
0000
,
1000
0130
0010
0001
,
1000
0100
0000
0000
0020
0000
0100
0000
,
1000
0130
0001
2000
,
0010
0100
0000
0000
3020
0000
0000
0000
,
0002
0000
1033
0200
,
0000
0000
1000
0000
1000
0000
1000
0310
,
0001
1000
0100
0020
,
1000
0031
0010
0200
,
0001
1000
0022
0033
,
1300
0001
2200
3300
,
0001
1000
0100
0020
,
1000
0001
0230
0010
,
0002
1000
0313
0100
,
1000
0100
0010
0100
0011
0000
0000
0000
,
0101
1000
0110
0010
,
1001
0001
0110
0010
,
1001
0001
0010
0100
,
1010
0001
1000
1000
,
0101
0000
1000
0000
0100
0000
0010
0100
,
1000
0101
1000
1000
,
0011
0000
1000
0000
1000
0000
0100
0010
,
0100
0001
0010
0001
,
0001
1000
0100
0010
,
1100
0001
1000
1010
,
0001
1000
0101
0010
,
0001
1000
0100
0010
,
1000
0001
0100
0010
,
1001
0100
0010
0001
,
2000
0000
0000
0000
3100
0010
0000
0000
,
1000
0000
0100
0000
0001
0000
0010
0100
,
1000
0100
0102
0000
,
0000
0000
0003
0000
0010
0100
0010
0000
,
1100
0100
0110
0010
,
0101
0010
0110
0010
,
1010
0110
0010
0011
,
0010
1100
0100
0011
,
0010
0000
0100
0010
0101
0000
1000
0000
,
0001
0010
0100
0000
1000
0000
0010
0000
,
1000
0000
0010
0000
0001
0000
0110
1001
;

//---------------dance-double - ----------------
#NOTEDATA:;
#CHARTNAME:;
#STEPSTYPE:dance-double;
#DESCRIPTION:;
#CHARTSTYLE:;
#DIFFICULTY:Challenge;
#METER:9;
#RADARVALUES:0.554662,0.646424,0.242312,0.315569,0.000000,689.000000,646.000000,43.000000,56.000000,0.000000,19.000000,0.000000,0.000000,0.000000,0.554662,0.646424,0.242312,0.315569,0.000000,689.000000,646.000000,43.000000,56.000000,0.000000,19.000000,0.000000,0.000000,0.000000;
#CREDIT:;
#DISPLAYBPM:226.000000;
#NOTES:
// measure 0
10000000
00000000
00000010
00000000
,  // measure 1
01000000
00000000
00000010
00000000
,  // measure 2
10000000
00000000
00000010
00000000
,  // measure 3
00010000
00000000
00000010
00000000
,  // measure 4
10000000
10000000
01000000
00000000
00100000
00100000
00000000
00000000
,  // measure 5
00010000
00010000
00000000
00000000
10000000
00000000
00000000
01000000
,  // measure 6
00010000
01000000
00000000
00000000
00100000
01000000
00000000
01000000
,  // measure 7
10000000
00010000
00000000
00000000
10000000
01000000
00100000
00010000
,  // measure 8
00001000
00000000
00000001
00000010
00001000
00000000
00000000
00000100
,  // measure 9
00000001
00000000
00001000
00000010
00000100
00000000
00000000
00000010
,  // measure 10
00000001
00000100
00000000
00000000
00000010
00000000
00000000
00000000
,  // measure 11
00001000
00000001
00000000
00000000
10000000
01000000
00000000
00000000
,  // measure 12
00100000
00000000
00010000
00000000
01000000
00100000
00000000
10000000
,  // measure 13
00200000
00310000
01000000
01000000
,  // measure 14
00010000
00000000
00000000
00000000
01000000
00100000
02000000
00000000
,  // measure 15
00000000
03000000
00000001
00000100
,  // measure 16
00001000
00000000
00001000
00000000
00000001
00000000
00000000
00000010
,  // measure 17
00001000
00000010
00000000
00000000
00000100
00000000
00000100
00000000
,  // measure 18
00000002
00000010
00000100
00000003
,  // measure 19
00000010
00010000
00000000
00000000
01000000
00000000
00000000
00000000
,  // measure 20
00010000
10000000
00000000
00000000
00010000
00000000
00010000
00000000
,  // measure 21
00010000
10000000
00000000
00000000
01000000
00000000
00000000
00000000
,  // measure 22
10000000
00000000
00000000
00000000
01000000
00000000
00010000
00100000
,  // measure 23
00010000
00100000
00000000
00000000
00000100
00000000
00000100
00000000
,  // measure 24
00001000
00000000
00000100
00000010
00000100
00000000
00000010
00000000
,  // measure 25
00000001
00001000
00000000
00000000
00000110
00000000
00000020
00000000
,  // measure 26
00001000
00000000
00000100
00000030
,  // measure 27
10000000
00010000
00100000
00000000
00100000
00000000
00000000
00000000
,  // measure 28
02000000
00000000
10000000
00002000
,  // measure 29
00000000
00000000
00203000
00000000
,  // measure 30
00000001
00000100
00000000
00000000
00000000
00000000
00000000
00000000
,  // measure 31
00000000
03300000
00000001
00000100
00000001
00000000
00000010
00000000
,  // measure 32
00001000
00000002
00000000
00000000
00000020
00000000
00000100
00001000
,  // measure 33
00000000
00000000
00010000
00000030
00200000
00000000
00000000
00000000
,  // measure 34
01000000
00300003
00000000
00100000
,  // measure 35
00010000
00100000
10000000
01000000
,  // measure 36
10000000
00000000
11000000
00000000
00100000
01000000
00100000
00010000
,  // measure 37
10000000
00010000
00001000
00001000
,  // measure 38
00000001
00001000
00000100
00000010
,  // measure 39
00000001
00000010
00001000
00000000
00000100
00000000
00100000
00000000
,  // measure 40
00110000
10000000
01000000
00100000
,  // measure 41
21000000
00000000
00000000
00000000
31000000
00000000
10000000
10000000
,  // measure 42
00010000
00001000
00000100
00000010
,  // measure 43
00001000
00000001
00000020
00000100
,  // measure 44
00010030
10000000
00100000
01000000
,  // measure 45
10000000
00100000
00010000
00000000
00100000
00000000
00010000
00000000
,  // measure 46
00010000
10000000
01000000
00100000
,  // measure 47
10000000
00000000
00010000
00000000
01000000
00100000
00100000
00000000
,  // measure 48
00001000
00000001
00001000
00001000
,  // measure 49
00000001
00001000
00000100
00000010
,  // measure 50
00000001
00001000
00000010
00000100
,  // measure 51
00001000
00000000
00000001
00000000
00000100
00000000
00100000
00100000
,  // measure 52
10000000
00010000
00100000
01000000
,  // measure 53
00010000
00100000
10000000
01000000
,  // measure 54
00010000
00000000
00100000
00000000
01000000
00000000
01000000
10000000
,  // measure 55
00010000
00100000
01000000
00100000
,  // measure 56
00010000
00000000
00001000
00000000
00000100
00000000
00000001
00001000
,  // measure 57
00000001
00000000
00000010
00000000
00000100
00000000
10000000
10000000
,  // measure 58
00010000
10000000
01100000
10000000
,  // measure 59
00010000
01000000
00000000
00000000
00000010
00000000
00000000
00000000
,  // measure 60
00001000
00000010
00000000
00000000
00000001
00000000
00000001
00000000
,  // measure 61
00001000
00000010
00000000
00000000
00000100
00000000
00000100
00000000
,  // measure 62
00001000
00000100
00000000
00000000
00000020
00000000
00000000
00000000
,  // measure 63
00000031
00000100
00000000
00000000
00000010
00000000
00000000
00000000
,  // measure 64
10000000
01000000
00010000
00100000
,  // measure 65
00100000
01000000
00100000
00000000
00010000
00000000
00010000
00000000
,  // measure 66
10000000
02000000
00020000
00000000
,  // measure 67
00001000
00000000
03031000
00000000
00000100
00000010
00000001
00000000
,  // measure 68
00000100
00000010
00000200
00000020
,  // measure 69
00000330
00000000
00002000
00000000
00000100
00000010
00003000
00000000
,  // measure 70
00001000
00000020
00000001
00000000
,  // measure 71
01200030
00000000
00010000
01000000
00010000
01000000
00300000
00000000
,  // measure 72
02000000
00100000
13000000
00100000
,  // measure 73
00010000
00000000
01000000
00000000
00010000
01000000
00000000
00000000
,  // measure 74
20000000
01000000
30200000
00000000
,  // measure 75
10000000
00000000
00300100
00000100
,  // measure 76
00001000
00000100
00200000
00000000
,  // measure 77
10000000
00002000
00000000
20003000
,  // measure 78
00000000
00000000
00000000
00000000
00000001
00000100
00000000
00000000
,  // measure 79
00000001
00000000
00000000
00000000
30300000
00000000
00000001
00000010
,  // measure 80
00000001
00000010
00000002
00000010
,  // measure 81
00010000
00000200
00000000
00002300
,  // measure 82
00000000
00000000
00000000
00000000
,  // measure 83
00003003
00010000
00100000
01000000
,  // measure 84
10000000
00010000
02000000
00100000
,  // measure 85
03010000
00000000
00000000
00000000
02000000
10000000
10000000
00000000
,  // measure 86
03000001
00000100
00000000
00000000
00000101
00000000
00000000
00000000
,  // measure 87
00000001
00000000
00001000
00000100
00000200
00000000
00000010
00000000
,  // measure 88
00000301
10000000
01000000
00100000
,  // measure 89
00010000
10000000
01000000
00100000
,  // measure 90
10000000
00000000
00000000
00000000
00001001
00000000
00001000
00000001
,  // measure 91
00001000
00000010
00000010
00000000
00000100
00000000
00000000
00000000
,  // measure 92
00000001
00001000
00000000
00000000
00010000
01000000
10000000
00000000
,  // measure 93
01000000
00100000
20000000
00010000
,  // measure 94
01000000
00000000
00100000
00010000
30100000
00000000
10000000
00000000
,  // measure 95
00100000
00000000
01000000
00000000
10000000
00100000
00010000
00000000
,  // measure 96
00100000
00000000
00010000
00100000
00010000
00000000
00001000
00000000
,  // measure 97
00000100
00000010
00001000
00000001
,  // measure 98
00000100
00000010
00000010
00000000
00001000
00000000
00000001
00000000
,  // measure 99
00001000
00000100
00001000
00000010
00000001
00000000
00001000
00000000
,  // measure 100
00000100
00000010
00010000
10000000
,  // measure 101
00100000
01000000
10000000
00010000
,  // measure 102
01000000
00000000
00100000
00100000
10000000
00000000
00010000
00000000
,  // measure 103
00100000
01000000
00010000
00100000
,  // measure 104
10000000
00100000
01000000
00000000
00010000
00000000
00000010
00000000
,  // measure 105
00000100
00001000
00000100
00001000
00000001
00000000
00000010
00000000
,  // measure 106
00000100
00000010
00000001
00001000
,  // measure 107
00000100
00000000
00000001
00001000
00000001
00000000
00000010
00000000
,  // measure 108
00000200
00000000
00001000
00000010
00001300
00000000
00100000
00000000
,  // measure 109
01100000
00000000
10000000
00000000
00010000
01000000
00010000
00000000
,  // measure 110
00100000
00000000
01000000
00000000
10000000
00010000
10000000
00000000
,  // measure 111
01000000
00000000
10000000
01000000
10000000
00000000
00200000
00000000
,  // measure 112
00010000
01000000
10000000
10000000
,  // measure 113
00300100
00000000
00000010
00000100
00001000
00000000
00000100
00000000
,  // measure 114
00000010
00000100
00000001
00000011
,  // measure 115
00001010
00001000
00101000
00100000
,  // measure 116
00100100
00100000
00000000
01000000
,  // measure 117
00010000
02000000
00100000
03100000
,  // measure 118
00010000
10000000
00000000
00000020
,  // measure 119
00000001
00000100
00000100
00000100
,  // measure 120
00000001
02000030
00100000
00100000
,  // measure 121
10000000
00100000
03100000
00010000
,  // measure 122
00100000
01000000
00000020
00000000
,  // measure 123
00000031
00000001
00001000
00000100
,  // measure 124
00000001
00000010
00000000
00000000
00200000
00000000
01000000
00000000
,  // measure 125
10000000
01300000
00100000
00010000
,  // measure 126
10000000
01000000
00000000
00000000
00000020
00000000
00000100
00000000
,  // measure 127
00001000
00000130
00000001
20000000
,  // measure 128
00100000
01000000
00000000
00000000
30200000
00000000
00000000
00000000
,  // measure 129
00020000
00000000
10330000
02000000
,  // measure 130
00000000
00000000
00001000
00000000
00001000
00000000
00001000
00000100
,  // measure 131
03000010
00000001
00000010
00000200
,  // measure 132
00000001
00001300
00100000
02000000
,  // measure 133
00010000
10000000
00220000
00330000
,  // measure 134
13000000
00010000
22000000
33000000
,  // measure 135
00010000
10000000
01000000
00200000
,  // measure 136
10000000
00010000
00300200
00001000
,  // measure 137
00020000
00000001
00031300
00000010
,  // measure 138
00000001
00000010
00000100
00000010
00001100
00000000
00000000
00000000
,  // measure 139
00001010
00001000
00011000
00010000
,  // measure 140
10010000
00010000
01100000
00100000
,  // measure 141
10010000
00010000
00100000
01000000
,  // measure 142
10100000
00010000
10000000
10000000
,  // measure 143
01010000
00000000
10000000
00000000
01000000
00000000
00100000
01000000
,  // measure 144
10000000
00000101
00001000
00001000
,  // measure 145
00000011
00000000
00001000
00000000
00001000
00000000
00000100
00000010
,  // measure 146
00000100
00000001
00000010
00000001
,  // measure 147
00000001
00001000
00000100
00000010
,  // measure 148
11000000
00010000
10000000
10100000
,  // measure 149
00010000
10000000
01010000
00100000
,  // measure 150
00010000
10000000
01000000
00100000
,  // measure 151
10000000
00010000
01000000
00100000
,  // measure 152
10010000
00000100
00000010
00000001
,  // measure 153
00002000
00000000
00000000
00000000
00003100
00000010
00000000
00000000
,  // measure 154
00001000
00000000
00000100
00000000
00000001
00000000
00000010
00000100
,  // measure 155
00001000
00000100
00000102
00000000
,  // measure 156
00000000
00000000
00000003
00000000
00100000
01000000
00100000
00000000
,  // measure 157
11000000
01000000
01100000
00100000
,  // measure 158
01010000
00100000
01100000
00100000
,  // measure 159
10100000
01100000
00100000
00110000
,  // measure 160
00010000
00011000
00001000
00001010
,  // measure 161
00000010
00000000
00000100
00000010
00000101
00000000
00001000
00000000
,  // measure 162
00000001
00000010
00000100
00000000
00001000
00000000
00100100
00000000
,  // measure 163
00010000
00000000
00001000
00000000
01000000
00000000
01000010
10000001
;
