#VERSION:0.83;
#TITLE:Monster;
#SUBTITLE:;
#ARTIST:SEULGI & IRENE;
#TITLETRANSLIT:;
#SUBTITLETRANSLIT:;
#ARTISTTRANSLIT:;
#GENRE:Pop;
#ORIGIN:;
#CREDIT:DubStepManiac;
#BANNER:Monster.png;
#BACKGROUND:Monster-bg.png;
#PREVIEWVID:;
#JACKET:jacket.png;
#CDIMAGE:;
#DISCIMAGE:;
#LYRICSPATH:;
#CDTITLE:cdtitle.png;
#MUSIC:Monster.mp3;
#OFFSET:-0.508753;
#SAMPLESTART:48.900002;
#SAMPLELENGTH:9.400000;
#SELECTABLE:YES;
#BPMS:0.000=232.004;
#STOPS:291.000=1.034,
296.000=1.034;
#DELAYS:;
#WARPS:;
#TIMESIGNATURES:0.000=4=4;
#TICKCOUNTS:0.000=4;
#COMBOS:0.000=1;
#SPEEDS:0.000=1.000=0.000=0;
#SCROLLS:0.000=1.000;
#FAKES:;
#LABELS:0.000=Song Start;
#BGCHANGES:0.000=Red Velvet - IRENE & SEULGI 'Monster' MV.mp4=1.000=0=0=0=StretchNoLoop====,
99999=-nosongbg-=1.000=0=0=0 // don't automatically add -songbackground-
;
#KEYSOUNDS:;
#ATTACKS:
;

//---------------dance-single - ----------------
#NOTEDATA:;
#CHARTNAME:;
#STEPSTYPE:dance-single;
#DESCRIPTION:;
#CHARTSTYLE:;
#DIFFICULTY:Easy;
#METER:2;
#RADARVALUES:0.104030,0.191155,0.005602,0.173650,0.005602,130.000000,129.000000,1.000000,31.000000,0.000000,0.000000,0.000000,0.000000,0.000000,0.104030,0.191155,0.005602,0.173650,0.005602,130.000000,129.000000,1.000000,31.000000,0.000000,0.000000,0.000000,0.000000,0.000000;
#CREDIT:DubStepManiac;
#DISPLAYBPM:116.000000:232.000000;
#NOTES:
0000
0000
0000
0000
0000
1000
0000
0000
0000
0000
0000
0000
0000
0000
0000
0000
,
0000
1000
0000
0000
0000
0000
0000
0000
0000
0000
0000
0000
0000
0000
0000
0000
,
0000
0000
0000
0000
,
0000
0000
0000
0000
,
0000
0000
0000
0001
0000
0000
0000
0000
,
0001
0000
0000
0000
,
0200
0000
0000
0000
,
0000
0000
0000
0000
,
0302
0000
0000
0000
,
0000
0003
1000
0010
,
0200
0000
0000
0000
,
0000
0300
1000
0010
,
0001
0000
0000
0010
,
0000
0000
0011
0001
,
0020
0000
0000
0000
,
0000
0030
0001
0010
,
1000
0002
0000
0000
,
0000
0003
0001
0010
,
0002
0000
0000
0000
,
0000
0000
0003
0010
,
2000
0000
0000
0000
,
0000
3000
0001
0010
,
0020
0000
0000
0000
,
0030
1000
0001
0010
,
0000
0000
0000
0000
,
0001
0000
0000
0000
,
0001
0000
0200
0000
,
0310
0000
0000
0000
,
0100
0000
1000
0000
,
1000
0000
0100
0000
,
0020
0000
0000
0000
,
0000
0000
0030
0000
,
0020
0000
0000
0000
,
0000
0030
1000
0001
,
0001
0000
0000
0010
,
0000
0000
1000
0010
,
0002
0000
0000
0000
,
0000
0003
1000
0001
,
1000
0000
0000
0001
,
0000
0000
1000
1000
,
0001
0000
2000
3000
,
0000
0000
1000
0001
,
1000
0000
0020
0000
,
0000
0000
0030
0010
,
1000
2000
0000
0000
,
0000
0000
3000
0001
,
0002
0000
0000
0003
,
0000
0000
0001
0000
,
2000
0000
0000
0000
,
0000
0000
3000
0001
,
0020
0000
0000
0000
,
0000
0000
0030
0010
,
0020
0000
0000
0000
,
0000
0030
1000
0001
,
0020
0000
0000
0000
,
0030
0000
0001
0000
,
1000
0000
0000
0000
,
0000
0000
0000
0000
,
1000
0000
0200
0000
,
0000
0000
0000
0000
,
0302
0000
0000
0000
,
0003
0000
0001
0000
,
0002
0000
0000
0000
,
0000
0000
0000
0000
,
0003
0000
0001
0000
,
0000
0000
1000
1000
,
0000
0000
0001
0000
,
0000
0000
1000
1000
,
0000
0000
1000
0000
,
0000
0000
1000
0010
,
1000
0000
0000
0000
,
0000
0000
0001
0000
,
0001
1000
0000
0000
,
0001
0000
0000
1000
,
0000
0000
0001
0000
,
0000
0000
1000
0000
,
0020
0000
0000
0000
,
0000
0000
0000
0030
,
0200
0000
0000
0000
,
0000
0300
1000
0001
,
1000
0000
0000
0000
,
0100
0000
1000
0010
,
1000
0000
0100
0010
,
0100
0000
1000
0001
,
1000
0000
0000
0000
,
0001
0000
1000
1000
,
0001
0000
2000
0000
,
0000
0000
3000
0001
,
0002
0000
0000
0000
,
0000
0000
0003
0010
,
1000
0020
0000
0000
,
0000
0000
0030
0001
,
0002
0000
0000
0003
,
0000
0000
0001
0000
,
0020
0000
0000
0000
,
0000
0000
0030
1000
,
0020
0000
0000
0000
,
0000
0000
0030
0000
;

//---------------dance-single - ----------------
#NOTEDATA:;
#CHARTNAME:;
#STEPSTYPE:dance-single;
#DESCRIPTION:;
#CHARTSTYLE:;
#DIFFICULTY:Medium;
#METER:5;
#RADARVALUES:0.171249,0.245771,0.039211,0.151244,0.008402,214.000000,207.000000,7.000000,27.000000,0.000000,0.000000,0.000000,0.000000,0.000000,0.171249,0.245771,0.039211,0.151244,0.008402,214.000000,207.000000,7.000000,27.000000,0.000000,0.000000,0.000000,0.000000,0.000000;
#CREDIT:DubStepManiac;
#DISPLAYBPM:116.000000:232.000000;
#NOTES:
0000
0000
0000
0000
0000
0001
0000
0000
0000
0000
0000
0000
0000
0000
0000
0000
,
0000
1000
0000
0000
0000
0000
0000
0000
0000
0000
0000
0000
0000
0000
0000
0000
,
0001
0000
0000
0000
,
0001
0000
0000
0000
,
1000
0000
0000
0000
,
0001
0000
0000
0000
,
0000
0000
0000
0000
,
0010
0000
0000
0000
,
0000
0000
0000
0100
,
0000
0000
0000
0000
1000
0100
0010
0000
,
0002
0000
0000
0000
0000
0010
0000
0000
,
0000
0000
0003
0000
1000
0100
0010
0000
,
1000
0000
0000
0000
0000
0010
0000
1000
,
0000
0000
0011
0001
,
0000
0000
0000
1000
,
0200
0000
0300
0000
1000
0001
1000
0000
,
1001
2000
0000
0100
,
0000
3000
0101
0010
,
0002
0000
0000
0000
,
1000
0000
0000
0000
0003
0000
0100
0010
,
0000
0000
0000
0100
,
0000
0000
0101
0010
,
0000
0000
0000
0100
,
0000
0000
1100
0000
1000
0001
1000
0000
,
0001
0000
0100
0000
,
0001
0000
0000
0000
,
0001
0100
0002
0010
,
0000
0000
0003
0000
,
1000
0000
0100
0100
,
0000
0000
0001
0000
,
1000
0200
0000
0000
,
0000
0000
0000
0000
0000
0010
0300
0000
,
0020
0000
0000
0001
,
0000
0030
0010
1000
,
1000
0000
0000
0000
0000
0000
0010
1000
,
0000
0000
0000
0000
1000
0100
0010
0000
,
0100
0000
0000
0000
,
0001
0000
0010
1000
,
0001
0100
0000
0001
,
1000
0000
0100
0100
,
0001
0000
0200
0300
,
1000
0000
0010
1000
,
1000
0100
0200
0001
,
0010
1000
0300
1000
,
1000
2000
0000
0001
,
0000
0000
3000
1000
,
0002
0100
0000
0003
,
0001
0000
0100
0000
,
2000
0001
0000
0000
,
0010
0000
3000
1000
,
2000
0000
0200
0300
,
0100
0000
0000
0000
3000
0100
0010
0000
,
0000
0100
0000
0001
,
0002
0003
0010
1000
,
2000
0000
0000
0000
0000
0000
0000
0000
0000
0010
0000
0000
0000
0000
0000
0000
,
3000
0000
0100
0000
,
1000
0010
0000
0000
,
0001
0000
0000
0000
,
1000
0010
0000
0000
,
1000
0000
0000
0000
,
0020
0000
0000
0000
,
0030
0000
0010
0000
,
2000
0000
0000
0000
0000
0100
0000
0000
,
0000
0000
0000
0000
0000
0100
0000
0000
,
3000
0000
0010
0000
,
1000
0000
0100
0100
,
0001
0000
0100
0000
,
1000
0000
0100
0100
,
1000
0000
0010
0000
,
0000
1000
0100
1000
,
1000
0010
0000
0000
,
1000
0100
1000
0000
,
1000
0001
0001
0010
,
0001
0100
0000
0010
,
0001
0000
0100
0000
,
0010
0000
0001
0000
,
2000
0100
0000
0001
,
0000
0000
3000
0000
,
0020
0000
0000
0000
,
0130
0000
0010
1000
,
1001
0000
1000
0100
,
1000
0000
0000
0000
1000
0100
0010
0000
,
1000
0100
0010
0001
,
1000
0000
0010
1000
,
0001
0000
0100
0000
0000
0000
0001
0100
,
1000
0000
0100
0100
,
0001
0000
0220
0300
,
0001
0000
0031
1000
,
0020
0100
0000
0001
,
0000
1000
0030
1000
,
1000
2000
0000
0001
,
0000
0000
3000
1000
,
0002
0100
0000
0003
,
0001
0000
0100
0000
,
0002
0000
0000
0000
,
0010
0000
0003
0100
,
0002
0010
0000
0000
,
0010
0000
0003
0000
;

//---------------dance-single - ----------------
#NOTEDATA:;
#CHARTNAME:;
#STEPSTYPE:dance-single;
#DESCRIPTION:;
#CHARTSTYLE:;
#DIFFICULTY:Hard;
#METER:7;
#RADARVALUES:0.287283,0.382310,0.084024,0.173650,0.008402,359.000000,344.000000,15.000000,31.000000,0.000000,0.000000,0.000000,0.000000,0.000000,0.287283,0.382310,0.084024,0.173650,0.008402,359.000000,344.000000,15.000000,31.000000,0.000000,0.000000,0.000000,0.000000,0.000000;
#CREDIT:DubStepManiac;
#DISPLAYBPM:116.000000:232.000000;
#NOTES:
0000
0000
0000
0000
0000
1000
0000
0000
0000
0000
0000
0000
0000
0000
0000
0000
,
0000
0001
0000
0000
0000
0000
0000
0000
0000
0000
0000
0000
0000
0000
0000
0000
,
1000
0000
0000
0000
,
0001
0000
0000
0000
,
1000
0000
0000
0000
,
0001
0000
0000
0000
,
0000
0100
0001
0000
,
1000
0000
0000
0000
,
2000
0000
0001
0001
,
0000
3000
1010
1000
,
0010
0000
0001
1000
,
1000
0000
0000
0000
1010
0000
1000
0010
,
1000
0000
0001
1000
,
0000
0000
0000
0000
1010
0000
0010
0100
,
0200
0000
1000
0010
,
0000
0000
0300
1000
0001
1000
0010
0000
,
1100
2000
0001
0001
,
0010
0000
3100
0000
0101
0000
0100
0001
,
0010
0001
0010
0000
1000
0000
0010
0000
,
1000
0000
0000
0000
0001
0000
1000
0010
,
0200
0000
0001
0001
,
0010
0000
0301
0000
0101
0000
0100
0001
,
0200
0000
0001
0001
,
0310
0000
1010
0000
0001
1000
0010
0000
,
0001
0100
0001
0000
,
1000
0000
0000
0000
,
0001
0001
1000
0000
0020
0000
0001
0000
,
1000
0000
0030
0000
,
0001
0001
0100
0000
1000
1000
2000
0000
,
0000
3000
1000
0000
,
0001
0000
0100
0000
,
1000
0000
0001
1000
,
0001
0010
2000
0000
0010
0000
0001
0000
,
0010
0000
3000
0000
1000
0100
1000
0100
,
1000
0000
0000
0000
0001
0000
1000
0010
,
0000
0000
0000
0000
1010
0000
1000
0010
,
0000
0100
0010
0001
,
0010
0000
0100
0000
1000
0100
1000
0100
,
0001
0000
0010
0000
0100
0000
1000
0100
,
1000
0000
0000
0000
1000
1000
1000
0000
,
2000
0100
3000
0000
0020
0000
0031
0000
,
0200
0000
0000
0000
1300
0100
1000
0100
,
0001
0010
0100
0000
0020
0000
0001
0000
,
1000
0001
1030
0001
,
0001
0010
0000
0000
0010
0000
0001
0000
,
0100
0010
1000
2000
,
3002
0100
0000
0003
,
0001
0100
0001
0000
,
0000
0001
0001
0000
,
0001
0000
0000
0000
1000
0100
1000
0100
,
0200
0000
0001
0001
,
0000
0000
0001
0000
0300
0001
1000
0010
,
2000
0000
0000
0000
0010
0000
0000
0000
0000
0000
0000
0000
0000
0100
0000
0000
,
0100
0000
3000
0000
1000
0100
1000
0100
,
0000
0000
0001
1000
,
0001
0100
0001
0000
,
1000
0100
0000
0100
0010
0000
0000
0000
,
1000
0100
0000
0001
0010
0000
0000
0000
,
1000
0100
0000
0010
0200
0000
0000
0000
,
0010
0001
0000
0000
0000
0000
0000
0000
,
2300
0100
0001
0000
,
3001
0000
0010
0001
,
0000
0000
0000
1000
0000
2000
0000
3000
,
0000
0000
0000
0001
0000
0002
0000
0003
,
0100
0000
0000
0000
0010
0010
0001
0100
,
0010
0001
0010
0000
1000
0000
1000
0000
,
0001
0000
0100
0000
0001
0010
0100
0100
,
1000
0010
0100
0100
1000
0000
2000
0000
,
3100
0000
0000
0000
0001
0001
1000
1000
,
0100
0001
1000
0001
,
1000
0100
1000
0000
0100
0010
0100
0000
,
0001
0000
0010
0001
0100
0000
0000
0000
,
1000
0000
0001
0100
0100
0000
0100
0000
,
0001
0001
2000
0000
3000
0000
0001
0000
,
0101
0100
0001
0000
,
0100
0000
1000
0000
,
0010
0000
0200
0000
,
0000
0000
0301
1000
,
0001
0010
2000
0000
0010
0000
0001
0000
,
0010
0000
3000
0000
1000
0100
1000
0100
,
1001
0000
0000
0000
0001
0100
0001
0100
,
0011
0000
0000
0000
1010
0000
1000
0010
,
0001
0010
0100
0000
0010
0000
0001
0000
,
0101
0000
0000
0000
1000
0100
1000
0100
,
0001
0000
0010
0000
0100
0000
0100
1000
,
0110
0000
0000
0000
1000
1000
1000
0000
,
2000
0100
3000
0000
0020
0000
0031
0000
,
0200
0000
0000
0000
1300
0100
1000
0100
,
0010
0001
0100
0000
0020
0000
0001
0000
,
1000
0001
1030
0001
,
0001
0010
0000
0000
0010
0000
0001
0000
,
0010
0000
0100
0000
1000
0100
1000
0100
,
0002
0100
0000
0003
,
0001
0100
0002
0003
,
0000
0001
0001
0000
,
0011
0000
0000
0000
0000
1000
1000
0000
,
0020
0000
0000
0000
,
1000
0000
0030
0000
;

//---------------dance-single - ----------------
#NOTEDATA:;
#CHARTNAME:;
#STEPSTYPE:dance-single;
#DESCRIPTION:;
#CHARTSTYLE:;
#DIFFICULTY:Challenge;
#METER:8;
#RADARVALUES:0.291284,0.382310,0.151244,0.268877,0.005602,364.000000,337.000000,27.000000,48.000000,0.000000,2.000000,0.000000,0.000000,0.000000,0.291284,0.382310,0.151244,0.268877,0.005602,364.000000,337.000000,27.000000,48.000000,0.000000,2.000000,0.000000,0.000000,0.000000;
#CREDIT:;
#NOTES:
// measure 0
0000
0000
0000
0000
0000
1000
0000
0000
0000
0000
0000
0000
0000
0000
0000
0000
,  // measure 1
0000
0011
0000
0000
0000
0000
0000
0000
0000
0000
0000
0000
0000
0000
0000
0000
,  // measure 2
1000
0000
0100
0000
,  // measure 3
0001
0000
0000
0000
,  // measure 4
1000
0000
0000
0000
,  // measure 5
0001
0000
0000
0000
,  // measure 6
0000
0100
0001
0000
,  // measure 7
2000
0000
3000
0000
,  // measure 8
0200
0000
0001
0010
,  // measure 9
0000
0300
1100
1000
,  // measure 10
0001
0000
0010
1000
,  // measure 11
1010
0000
0000
0000
1001
0000
1000
0010
,  // measure 12
1000
0000
0001
2000
,  // measure 13
0000
3000
0000
0000
1010
0000
0010
0100
,  // measure 14
0200
0000
1000
0010
,  // measure 15
0000
0000
0300
0100
0001
0100
0010
0000
,  // measure 16
1010
2000
0001
0001
,  // measure 17
0010
0000
3100
0000
0101
0000
0100
0001
,  // measure 18
0010
0001
0010
0000
1000
0000
0010
0000
,  // measure 19
0200
0000
0000
0300
0001
0000
1000
0010
,  // measure 20
0200
0000
0001
0001
,  // measure 21
0010
0000
0301
0000
0101
0000
0100
0001
,  // measure 22
0200
0000
0001
0001
,  // measure 23
0310
0000
0110
0000
0001
1000
0010
0000
,  // measure 24
0001
0100
0002
0000
,  // measure 25
1003
0000
0000
0000
,  // measure 26
0001
0001
1020
0000
0000
0000
0001
0000
,  // measure 27
1000
0000
0130
0000
,  // measure 28
0001
0001
0100
0000
1000
0000
2000
0000
,  // measure 29
0100
3000
1000
0000
,  // measure 30
0001
0000
0100
0000
,  // measure 31
2002
3003
0000
0000
,  // measure 32
1000
0010
2000
0000
0001
0000
0010
0000
,  // measure 33
0001
0000
3000
0000
1000
0100
1000
0100
,  // measure 34
1000
0000
0001
1000
,  // measure 35
0011
0000
0000
0000
1010
0000
1000
0010
,  // measure 36
0000
0100
0010
0000
0010
0000
1000
0000
,  // measure 37
0100
0000
0010
0000
0001
0010
0001
0010
,  // measure 38
1000
0000
0100
0000
0010
0000
0001
0010
,  // measure 39
0001
0000
0000
0000
0010
0100
0010
0000
,  // measure 40
2000
0100
3000
0000
0020
0000
0031
0000
,  // measure 41
0200
0000
0000
0000
1300
0100
1000
0100
,  // measure 42
0001
0010
0100
0000
0020
0000
0001
0000
,  // measure 43
1000
0001
1030
0001
,  // measure 44
0001
0010
0000
0000
0010
0000
0001
0000
,  // measure 45
0100
0010
1000
1000
,  // measure 46
0002
0000
0200
0000
0000
0303
0000
0000
,  // measure 47
0001
0000
0100
0000
0002
0000
0000
0003
,  // measure 48
0000
0001
0001
0000
,  // measure 49
0001
0000
0000
0000
1000
0100
1000
0100
,  // measure 50
0020
0000
1000
1000
,  // measure 51
0001
0000
0000
0000
0030
0001
1000
0010
,  // measure 52
2000
0010
0000
0001
,  // measure 53
0001
0000
3000
0000
1000
0010
0100
0010
,  // measure 54
0200
0300
0001
0000
,  // measure 55
0001
0010
0100
0000
0001
0000
0000
0000
,  // measure 56
1000
0100
0000
0100
0010
0000
0000
0000
,  // measure 57
0001
0010
0000
1000
0100
0000
0000
0000
,  // measure 58
0001
0010
0000
0100
0020
0000
0000
0000
,  // measure 59
0100
1000
0000
0000
0000
0000
0000
0000
,  // measure 60
0032
0010
1000
0000
,  // measure 61
1003
0000
0200
1300
,  // measure 62
0000
0000
0000
0001
0000
0022
0000
0033
,  // measure 63
0000
0000
0000
1000
0000
2200
0000
3300
,  // measure 64
0000
0110
0000
0010
0000
0010
0001
0100
,  // measure 65
0010
0001
0010
0000
1000
0000
1000
0000
,  // measure 66
0101
0000
0100
0000
0001
0010
0000
0100
,  // measure 67
1000
0010
0000
0100
1000
0000
2000
0000
,  // measure 68
3100
0000
0000
0000
0001
0010
1000
0100
,  // measure 69
0010
0001
1000
0001
,  // measure 70
1000
0000
1000
0000
0010
0100
0010
0000
,  // measure 71
0001
0000
0100
0010
0202
0000
0303
0000
,  // measure 72
1000
0000
0001
0100
0100
0000
0100
0000
,  // measure 73
0001
0001
2000
0000
3000
0000
0001
0000
,  // measure 74
0101
0100
0100
0000
0001
0000
0000
0000
,  // measure 75
0100
0000
1000
0000
,  // measure 76
0020
0000
0200
0000
,  // measure 77
0000
0000
0000
0330
,  // measure 78
0001
0010
2000
0000
0100
0000
0010
0000
,  // measure 79
0011
0000
3000
0000
0100
0010
0100
0010
,  // measure 80
1001
0000
0000
0000
0001
0010
0001
0010
,  // measure 81
0101
0000
0000
0000
1010
0000
1000
0010
,  // measure 82
0001
0010
0100
0000
0010
0000
0001
0000
,  // measure 83
0101
0000
0000
0000
1000
0100
1000
0100
,  // measure 84
0001
0000
0010
0000
0100
0000
0100
1000
,  // measure 85
0110
0000
0000
0000
1000
0100
1000
0000
,  // measure 86
2000
0100
3000
0000
0020
0000
0031
0000
,  // measure 87
0200
0000
0000
0000
1300
0100
1000
0100
,  // measure 88
0010
0100
0020
0001
,  // measure 89
1000
0001
1030
0001
,  // measure 90
0001
0010
0000
0000
0010
0000
0001
0000
,  // measure 91
0010
0000
0100
0000
1000
0000
1000
0100
,  // measure 92
0002
0000
0000
0003
,  // measure 93
0001
0100
0002
0003
,  // measure 94
0000
0001
0002
0003
,  // measure 95
0022
0000
0000
0033
0000
0000
1000
0000
,  // measure 96
0020
0000
0000
0000
,  // measure 97
1001
0000
0030
0000
;
