#TITLE:Kick It;
#SUBTITLE:(Valentino Khan Remix);
#ARTIST:NCT 127;
#TITLETRANSLIT:;
#SUBTITLETRANSLIT:;
#ARTISTTRANSLIT:;
#GENRE:;
#CREDIT:DubStepManiac;
#BANNER:Kick It (Valentino Khan Remix).png;
#BACKGROUND:Kick It (Valentino Khan Remix)-bg.png;
#LYRICSPATH:;
#CDTITLE:cdtitle.png;
#MUSIC:Kick It (Valentino Khan Remix).mp3;
#OFFSET:-0.168345;
#SAMPLESTART:37.521088;
#SAMPLELENGTH:12.000000;
#SELECTABLE:YES;
#BPMS:0.000000=167.056000
,428.000000=250.584015
;
#STOPS:0.000000=1.437000
;
#BGCHANGES:0.000=Kick It (Valentino Khan Remix).mp4=1.000=0=0=0=StretchNoLoop====,
99999=-nosongbg-=1.000=0=0=0 // don't automatically add -songbackground-
;
#KEYSOUNDS:;
#ATTACKS:;

//---------------dance-single - ----------------
#NOTES:
     dance-single:
     :
     Easy:
     3:
     0.216404,0.392243,0.023039,0.034559,0.000000,263.000000,259.000000,4.000000,6.000000,0.000000,0.000000,0.216404,0.392243,0.023039,0.034559,0.000000,263.000000,259.000000,4.000000,6.000000,0.000000,0.000000:
1000
0000
0000
0000
,
0000
0000
0000
0000
,
1000
0000
0000
0000
,
1000
0000
0000
0000
,
0001
0000
0000
0000
,
0001
0000
0000
0000
,
1000
0000
0000
0000
,
1000
0000
0000
0000
,
1000
0000
0000
0000
,
1000
0000
0000
0000
,
1000
0000
0000
0000
,
1000
0000
0000
0000
,
1000
0000
0000
0000
,
1000
0000
0000
0000
,
0001
0000
0000
0000
,
1000
0000
0000
0000
,
0001
0000
0000
0000
,
0000
0000
0000
0000
,
0011
1000
0001
0100
,
1010
0001
1000
0100
,
0011
1000
0001
0100
,
0000
0000
0000
0000
,
1000
0100
1000
0100
,
1000
0001
0000
0010
,
1000
0100
1000
0100
,
0001
0010
0100
0000
,
0001
0100
0010
1000
,
0001
0100
0010
0000
,
0001
0100
0010
1000
,
1000
0000
0000
0000
,
1000
0100
1000
0100
,
1000
0001
0000
0010
,
1000
0100
1000
0100
,
1000
0010
0001
0000
,
0001
0100
0010
1000
,
1000
0010
0001
0000
,
0001
0100
0010
1000
,
1000
0000
0000
0000
,
0001
0100
0010
1000
,
1000
0010
0001
0000
,
0001
0100
0010
1000
,
0001
0010
0000
0001
,
0001
0100
0010
1000
,
1000
0010
0001
0000
,
0001
0100
0010
1000
,
1000
0000
0000
0000
,
0001
0100
0010
1000
,
1000
0010
0001
0000
,
0001
0100
0010
1000
,
1000
0010
0001
0000
,
0001
0100
0010
1000
,
1000
0010
0001
0000
,
0001
0100
0010
2000
,
0000
0000
0000
3000
,
1000
0000
0000
0000
,
2000
0000
0000
0000
,
3000
0000
0000
0000
,
0001
0000
0000
0000
,
0001
0000
0000
0000
,
1000
0000
0000
0000
,
0001
0000
0000
0000
,
0001
0000
0000
0000
,
0001
0000
0000
0000
,
1000
0000
0000
0000
,
1000
0000
0000
0010
,
1000
0000
0000
0000
,
0001
0000
0000
0000
,
1000
0000
0000
0000
,
1000
0000
0000
0000
,
1000
0000
0000
0000
,
0001
0000
0000
0000
,
0000
0000
0000
0000
,
2000
0000
0000
0000
,
0000
0000
0000
0000
,
3000
0100
1000
0100
,
0001
0100
0010
0000
,
0001
0100
0010
1000
,
0001
0100
0010
0000
,
0001
0100
0010
1000
,
1000
0000
0010
0000
,
1000
0100
1000
0100
,
0001
0100
0010
0000
,
1000
0100
1000
0100
,
1000
0010
0001
0000
,
0001
0100
0010
1000
,
1000
0010
0001
0000
,
0001
0100
0010
1000
,
1000
0000
0000
0000
,
1000
0000
0000
0010
,
0001
0000
0000
0010
,
0001
0000
0020
0000
,
0000
0000
0030
0000
,
1000
0000
0000
0010
,
0001
0000
0000
0100
,
1000
0000
0000
0100
,
1000
0000
0000
0000
,
0001
1000
0010
0100
,
1000
0010
0001
0000
,
0001
0100
0010
1000
,
1000
0100
0100
0001
,
0010
0001
0010
1000
,
1000
0001
0001
0100
,
0010
0100
0010
1000
,
0100
1000
0010
0001
,
0010
0100
0010
0100
,
1000
0100
0100
0010
,
0010
0001
1000
0010
,
0100
0000
0000
0100
,
0000
0000
0010
0000
,
0000
0010
0000
0000
,
1000
0000
0000
1000
,
0000
0000
0001
0000
,
0000
0001
0000
0000
,
0220
0000
0330
0000
;

//---------------dance-single - ----------------
#NOTES:
     dance-single:
     :
     Medium:
     5:
     0.324195,0.524142,0.184314,0.040319,0.002880,394.000000,362.000000,32.000000,7.000000,0.000000,0.000000,0.324195,0.524142,0.184314,0.040319,0.002880,394.000000,362.000000,32.000000,7.000000,0.000000,0.000000:
0001
0000
0001
0000
,
0001
0000
0001
0000
,
0010
0000
0010
0000
,
1000
0000
1000
0000
,
1000
0000
1000
0000
,
1000
0000
1000
0000
,
1000
0000
1000
0000
,
0100
0000
0100
0000
,
0010
0000
0100
0000
,
0001
0000
0001
0000
,
1000
0000
1000
0000
,
0001
0000
0001
0000
,
0001
0000
0001
0000
,
1000
0000
1000
0000
,
0001
0000
0001
0000
,
1000
0000
1000
0000
,
1000
0000
1000
0000
,
1000
0000
0000
0000
,
0101
0000
0100
1000
0010
0100
0010
0000
,
1100
0000
0100
0001
0010
0100
0010
0000
,
1100
0000
0100
0001
0010
0100
0010
0000
,
1000
0000
0000
0000
,
1000
0000
0010
0100
0010
1000
0010
0100
,
0001
0000
0010
0000
0100
0000
1000
0100
,
1000
0000
0010
0100
0010
1000
0010
0100
,
1000
0000
0100
0010
0001
0000
0000
0000
,
1000
0000
0001
0001
1000
0000
1100
0000
,
1000
0000
0010
0000
1000
0010
1000
0000
,
1000
0000
0001
0001
1000
0000
1100
0000
,
0001
0000
0001
0000
,
1000
0000
0010
0100
0010
1000
0010
0100
,
0001
0000
0010
0000
0100
0000
1000
0100
,
1000
0000
0010
0100
0010
1000
0010
0100
,
0001
1100
0010
0000
,
1000
0000
0001
0001
1000
0000
1100
0000
,
0001
1100
0010
0000
,
1000
0000
0001
0001
1000
0000
1100
0000
,
0001
0000
0001
0000
,
1000
0000
0001
0001
1000
0000
1100
0000
,
0001
1100
0010
0000
,
1000
0000
0001
0001
1000
0000
1100
0000
,
1000
1001
1000
0001
,
1000
0000
0001
0001
1000
0000
1100
0000
,
0001
1100
0010
0000
,
1000
0000
0001
0001
1000
0000
1100
0000
,
0001
0000
0001
0000
,
1000
0000
0001
0001
1000
0000
1100
0000
,
0001
1100
0010
0000
,
1000
0000
0001
0001
1000
0000
1100
0000
,
0001
1100
0010
0000
,
1000
0000
0001
0001
1000
0000
1100
0000
,
0001
1100
0010
0000
,
1000
0000
0001
0001
1000
0010
2000
0000
,
0000
0000
0000
3000
,
0001
0010
0000
0000
,
2000
0000
0000
0000
,
3000
0000
0001
0000
,
1000
0000
1000
0000
,
0001
0000
0001
0000
,
0001
0000
0001
0000
,
0001
0000
0001
0000
,
0001
0000
0001
0000
,
0001
0000
0001
0000
,
0001
0000
0001
0000
,
1000
0000
0010
1000
,
0001
0000
0001
0000
,
1000
0000
1000
0000
,
0001
0000
0001
0000
,
1000
0000
1000
0000
,
0001
0000
0001
0000
,
0001
0000
0001
0000
,
1000
0000
0000
0000
,
0002
0010
0000
0000
,
0000
0000
0000
0000
,
0003
0000
0010
0100
0010
1000
0010
0100
,
1000
0000
0010
0000
1000
0010
1000
0000
,
1000
0000
0001
0001
1000
0000
1100
0000
,
1000
0000
0010
0000
1000
0010
1000
0000
,
1000
0000
0001
0001
1000
0000
1100
0000
,
1000
0000
0100
0000
,
1000
0000
0010
0100
0010
1000
0010
0100
,
1000
0000
0010
0000
1000
0010
1000
0000
,
1000
0000
0010
0100
0010
1000
0010
0100
,
0001
1100
0010
0000
,
1000
0000
0001
0001
1000
0000
1100
0000
,
0001
1100
0010
0000
,
1000
0000
0001
0001
1000
0000
1100
0000
,
0001
0000
0001
0000
,
1000
0000
0010
1000
,
1000
0000
0010
1000
,
0001
0000
2000
0001
,
0000
0000
3000
0000
,
1000
0000
0010
1000
,
1000
0000
0010
1000
,
1000
0000
0100
1000
,
0001
0000
0001
0000
,
0001
0000
0100
0110
,
0001
1100
0010
0000
,
1000
0000
0001
0001
1000
0000
1100
0000
,
0001
0000
0001
0010
,
1000
0000
1000
0000
,
1000
0000
1000
0100
,
1000
0000
0100
0000
,
0001
0000
0010
0000
,
1000
0100
1000
0100
,
1000
0010
0100
0010
,
0001
0010
0100
0010
,
0100
0000
0000
0100
,
0000
0100
0000
0000
0000
0000
0000
0020
,
0000
0000
0000
0030
0000
0000
0000
0000
,
0001
0000
0000
0001
,
0000
0000
0001
0000
0000
0000
0000
0000
1000
0000
0000
0100
0000
0000
0010
0000
,
0000
0000
0100
0000
0000
0100
0000
0000
,
2002
0000
0000
3003
;

//---------------dance-single - ----------------
#NOTES:
     dance-single:
     :
     Hard:
     7:
     0.431985,0.593548,0.282230,0.040319,0.043199,525.000000,476.000000,49.000000,7.000000,0.000000,0.000000,0.431985,0.593548,0.282230,0.040319,0.043199,525.000000,476.000000,49.000000,7.000000,0.000000,0.000000:
0001
0000
0000
0000
,
0001
0000
0000
0000
,
0001
0010
0010
0000
,
1000
0010
0010
0000
,
0001
0100
0100
0000
,
0001
0010
0010
0000
,
1000
0100
0100
0000
,
1000
0100
0100
0000
,
1000
0010
0010
0000
,
1000
0100
0100
0000
,
0001
0010
0010
0000
,
1000
0100
0100
0000
,
1000
0010
0010
0000
,
0001
0100
0100
0000
,
0001
0100
0100
0010
,
0001
0100
0100
0000
,
0001
0010
0010
0000
,
1000
0000
0000
0000
,
1010
0000
0100
0010
0100
0010
1000
0000
,
1100
0000
0010
0100
0010
0100
1000
0000
,
1010
0000
0100
0010
0100
0010
1000
0100
,
1000
0000
0000
0000
,
1000
0000
0100
0010
0001
0000
0101
0000
,
0001
1000
0010
1000
0001
0100
0001
0100
,
1000
0000
0100
0010
0001
0000
0101
0000
,
1000
0100
0010
0001
0100
1000
0000
0000
,
0001
1000
0010
0010
0100
0000
1001
0000
,
1000
0000
1100
0000
0001
0100
0001
0000
,
0001
1000
0010
0010
0100
0000
1001
0000
,
0001
0010
0010
0000
,
1000
0000
0100
0010
0001
0000
0101
0000
,
0001
1000
0010
1000
0001
0100
0001
0100
,
1000
0000
0100
0010
0001
0000
0101
0000
,
0001
0000
1001
0000
0100
0010
0000
0000
,
0001
1000
0010
0010
0100
0000
1001
0000
,
0001
0000
1001
0000
0100
0010
0000
0000
,
0001
1000
0010
0010
0100
0000
1001
0000
,
0001
0010
0010
0000
,
0001
1000
0010
0010
0100
0000
1001
0000
,
0001
0000
1001
0000
0100
0010
0000
0000
,
0001
1000
0010
0010
0100
0000
1001
0000
,
0001
1010
0100
0001
,
0001
1000
0010
0010
0100
0000
1001
0000
,
0001
0000
1001
0000
0100
0010
0000
0000
,
0001
1000
0010
0010
0100
0000
1001
0000
,
0001
0010
0010
0000
,
0001
1000
0010
0010
0100
0000
1001
0000
,
0001
0000
1001
0000
0100
0010
0000
0000
,
0001
1000
0010
0010
0100
0000
1001
0000
,
0001
0000
1001
0000
0100
0010
0000
0000
,
0001
1000
0010
0010
0100
0000
1001
0000
,
0001
0000
1001
0000
0100
0010
0000
0000
,
0001
1000
0010
0010
0100
0001
0200
0000
,
1000
0000
0000
0300
,
0001
0010
0000
0000
0000
0000
0000
0000
,
0020
0000
0000
0000
,
0031
0010
0010
0000
,
1000
0100
0100
0000
,
0001
0100
0100
0000
,
1000
0100
0100
0000
,
0001
0010
0010
0000
,
1000
0010
0010
0000
,
0001
0010
0010
0000
,
0001
0100
0100
0000
,
1000
0000
0000
0000
0100
0000
1000
0001
,
0001
0010
0010
0000
,
0001
0100
0100
0000
,
0001
0100
0100
0000
,
1000
0010
0010
0000
,
0001
0010
0010
0000
,
0001
0010
0010
0000
,
1000
0000
0000
0000
,
0020
0000
0000
0000
,
1000
0000
0000
0000
,
1030
0000
0100
0010
0001
0000
0101
0000
,
1000
0000
1100
0000
0001
0100
0001
0000
,
0001
1000
0010
0010
0100
0000
1001
0000
,
1000
0000
1100
0000
0001
0100
0001
0000
,
0001
1000
0010
0010
0100
0000
1001
0000
,
1000
0001
0000
0000
1000
0000
0000
0000
,
1000
0000
0100
0010
0001
0000
0101
0000
,
1000
0000
1100
0000
0001
0100
0001
0000
,
1000
0000
0100
0010
0001
0000
0101
0000
,
0001
0000
1001
0000
0100
0010
0000
0000
,
0001
1000
0010
0010
0100
0000
1001
0000
,
0001
0000
1001
0000
0100
0010
0000
0000
,
0001
1000
0010
0010
0100
0000
1001
0000
,
0001
0010
0010
0000
,
1000
0000
0000
0000
0100
0000
1000
0001
,
0001
0000
0000
0000
0100
0000
0001
1000
,
1000
0000
0000
1000
,
0001
0000
0200
0300
,
1000
0000
0000
0000
0100
0000
1000
0001
,
1000
0000
0000
0000
0100
0000
1000
0001
,
0001
0000
0000
0000
0100
0000
0001
1000
,
0001
0010
0010
0000
,
1000
0000
0010
0100
0001
0000
0110
0000
,
0001
0000
1001
0000
0100
0010
0000
0000
,
0001
1000
0010
0010
0100
0000
1001
0000
,
0001
0000
0000
0100
0010
0000
0001
0000
0010
0000
0000
0100
0100
0000
1000
0000
,
0100
0000
0000
0010
0010
0000
0001
0000
0010
0000
0000
1000
1000
0000
0100
0000
,
1000
0000
0000
0001
0001
0000
0010
0000
0001
0000
0000
1000
0100
0000
0010
0000
,
0001
0000
0000
0010
0100
0000
0010
0000
0100
0000
0000
1000
0100
0000
0010
0000
,
0001
0000
0000
0010
0001
0000
0010
0000
0100
0000
0000
1000
1000
0000
0100
0000
,
1000
0000
0000
0100
0100
0000
0010
0000
0001
0000
0010
0100
0100
0000
0010
0000
,
0001
0010
1000
0010
0100
0001
0010
0100
,
0001
0010
0100
1000
0010
0100
0001
0000
,
0110
0000
0000
0010
0000
0000
0011
0000
,
0000
0000
0010
0000
0000
0100
0000
0000
1000
0000
0000
0000
0000
0000
1000
0000
,
0000
0000
1200
0000
0000
0300
0000
0000
,
0101
0000
0000
0001
0000
0000
0011
0000
,
0000
0000
0010
0000
0000
0010
0000
0000
0110
0000
0000
0000
0000
0000
0100
0000
,
0000
0000
0000
0000
0100
0000
0000
0010
0000
0000
0100
0000
0000
0000
0000
0000
,
2002
0000
0000
0000
,
0000
0000
3003
0000
;

//---------------dance-single - ----------------
#NOTES:
     dance-single:
     :
     Challenge:
     10:
     0.680480,0.846115,0.218873,0.046078,0.169914,827.000000,789.000000,38.000000,8.000000,0.000000,1.000000,0.680480,0.846115,0.218873,0.046078,0.169914,827.000000,789.000000,38.000000,8.000000,0.000000,1.000000:
0001
0000
0000
0000
,
0010
0000
0001
0000
,
0010
0000
0100
0000
0100
0010
0001
0010
,
0100
0000
0010
0001
0010
0000
0100
0000
,
0001
0000
1000
0100
1000
0000
0100
0000
,
0001
0000
0010
0100
0010
0000
0001
0000
,
1000
0000
0100
0010
0100
1000
0001
0010
,
1000
0000
0100
0010
0100
0000
1000
0100
,
1000
0000
0010
0001
0010
0000
0100
0100
,
1000
0000
0100
0010
0100
0000
0010
0001
,
0010
0000
0000
0000
0100
0000
0010
0000
0001
0000
0000
0000
0100
0000
0010
0100
,
1000
0000
0100
0010
0100
0000
0001
0010
,
1000
0000
0100
0010
0001
0000
0010
0100
,
0001
0000
0100
1000
0100
0000
0100
0010
,
0001
0010
0100
0010
0100
1000
0010
0001
,
0001
0010
0100
0000
0100
0000
0100
0001
,
0010
0000
0100
1000
0100
0000
0010
0100
,
1000
0000
0010
0100
0010
0100
0001
0010
,
0100
1000
0001
0010
0100
0010
1000
0100
,
1000
0100
0010
0100
0010
0100
1000
0100
,
0010
0001
0100
0010
0100
0010
1000
0100
,
1000
0100
0010
0001
0010
0100
0010
0001
,
1000
1000
0100
0010
0001
0010
0101
0000
,
0001
1000
0010
1000
0001
0100
0001
0100
,
1000
0000
0100
0010
0001
0000
0101
0000
,
1000
0100
0010
0001
0100
1000
0100
0010
,
0001
0100
0010
0010
1000
0000
1001
0000
,
1000
0000
1100
0000
0001
0100
0001
0000
,
0001
1000
0010
0010
0100
0000
1001
0000
,
0001
0010
0100
0000
0110
0000
1000
0100
,
1000
0010
0100
0010
0001
0000
0201
0000
,
0001
1300
0010
1000
0001
0100
0001
0100
,
1000
0000
0100
0010
0001
0010
0101
0000
,
0001
0010
1001
0000
0100
0010
0001
0010
,
0001
1000
0010
0010
0100
0000
1001
0000
,
0001
0000
1001
0000
0100
0010
0001
0010
,
0001
1000
0010
0010
0100
0000
1001
0000
,
0001
0000
0010
0100
0010
0000
0001
0010
,
0001
1000
0010
0010
0100
0000
1001
0000
,
0001
0010
1001
0100
0010
0100
0010
0001
,
0001
1000
0010
0010
0100
0010
1001
0000
,
0001
0010
1100
0000
0100
0010
0001
0010
,
0001
1000
0010
0010
0100
0010
1001
0010
,
0001
0000
1001
0000
0100
0010
0001
0000
,
0001
1000
0010
0010
0100
0000
1001
0010
,
0001
0000
0010
0100
0010
0000
0100
0000
,
0001
1000
0010
0010
0100
0000
1000
0100
,
0001
0010
1001
0000
0100
0010
0001
0000
,
0001
1000
0010
0010
0100
0000
1001
0010
,
0001
0100
1001
0000
0100
0010
0001
0010
,
0001
1000
0010
0010
0100
0100
1001
0010
,
0001
0000
1001
0000
0100
0010
0010
0001
,
0001
1000
0010
0010
0100
0001
0200
0000
,
1000
0000
0010
0001
0010
1000
0310
0000
,
0001
0010
0100
1000
0100
0000
0010
0000
,
0020
0001
0001
0100
0100
1000
0100
1000
,
0031
0000
0010
0001
0010
0100
0001
0010
,
1000
0010
0100
0010
0100
1000
0010
0000
,
0001
0010
0100
0010
0100
0010
0200
0000
,
1300
0100
0100
0010
,
0001
0001
0010
0010
0100
0100
0100
0000
,
1000
1000
0010
0010
0010
0000
0001
0000
,
0001
0010
0010
0000
0020
0001
1000
0100
,
0031
0000
0100
0000
0100
0100
0010
0000
,
1000
0000
0100
0100
0010
0000
1000
0001
,
0001
0000
0010
0000
0010
0010
0001
0000
,
0001
0000
0100
0010
0100
1000
1000
0100
,
0001
0000
0100
0010
0100
0000
1000
0100
,
1000
0000
0010
0001
0010
0000
0100
0010
,
0001
0000
0010
0100
0010
0000
1000
0100
,
0001
0000
0010
0000
0100
0000
0010
0000
0100
0000
0000
0000
0001
0000
0010
0100
,
1000
0000
0100
0010
0100
0000
1000
0100
,
0010
0000
0000
0000
0001
0000
0010
0000
0001
0000
0010
0100
1000
0000
0100
0000
,
1000
0000
0100
0000
0100
0000
0010
0000
0001
0000
0010
0100
1000
0000
0100
0000
,
1000
0000
0100
0000
0100
0000
0010
0000
0001
0000
0001
0010
0100
0000
1000
0100
,
1000
0100
0010
0000
1000
0000
0010
0000
0001
0010
0100
0010
0001
0000
0010
0000
,
0001
0000
1000
0000
0010
0000
0010
0000
0100
0010
0001
0010
0001
0000
0100
0000
,
1000
0000
0100
0000
1000
0000
0010
0000
0001
0010
0100
0010
0001
0000
0010
0000
,
0001
0000
1000
0100
0010
0000
0010
0000
0100
0000
0010
0000
1001
0000
0100
0010
,
1000
0100
0001
0000
0100
0000
0100
0000
1000
0000
0100
0010
0100
0000
0001
0000
,
1000
0000
0010
0000
0100
0000
0010
0000
0001
0010
0100
0000
0010
0000
0100
0000
,
0001
0010
0100
0010
1000
0001
1000
0010
,
1000
1000
0100
0100
0010
0001
0101
0000
,
0001
0000
1001
0000
0100
0010
0000
0000
,
0001
1000
0010
0010
0100
0000
1001
0000
,
0001
0000
0000
0000
1001
0000
0000
0000
0100
0010
0001
0000
0010
0000
0000
0000
,
0001
0000
1000
0000
0010
0001
0010
0000
0100
0000
0000
0000
2001
0000
0000
0000
,
3001
0000
0100
0010
0001
0100
0010
0001
0010
0000
0100
0000
0010
0000
0100
0000
,
1000
0000
0100
0000
0001
0000
0010
0000
0100
0000
0010
0000
1000
0100
0001
0000
,
0001
0010
0001
0010
0100
0010
0001
1000
,
1000
0100
1000
0010
0100
0010
1000
0100
,
0011
0000
0001
0010
0200
0000
1300
0000
,
1000
0000
0100
0000
0010
0000
0100
0000
0001
0000
0010
0000
1000
0100
0010
0001
,
1000
0000
0100
0000
0010
0000
0001
0000
0100
0000
0000
0000
1000
0100
0001
0000
,
0001
0010
0001
0010
0100
1000
0001
1000
,
0001
0010
0010
0100
0010
0100
0100
1000
,
1000
0000
0100
0000
0010
0000
0100
0000
0001
0000
0010
0000
0101
0010
0100
1000
,
0100
0010
1001
0100
0110
0010
0001
0010
,
0001
0000
1000
0000
0010
0001
0010
0000
0200
0000
0000
0000
1301
0000
0000
0000
,
0001
0010
0100
0010
0100
0000
0010
0001
0010
0000
0100
0000
0100
1000
0100
0010
,
0100
0000
0010
0001
0010
0000
0100
0000
0100
1000
1000
0010
0100
0000
1000
0100
,
0010
0000
0000
0100
1000
0000
0001
0010
0001
0100
0010
0100
1000
0000
0010
0000
,
0001
0100
0010
0000
0001
0001
0010
0000
0100
0000
1000
0000
0100
0010
0001
0100
,
0010
0000
0001
0000
0001
0000
0100
0010
0001
0000
0100
0010
0100
0010
0100
0000
,
1000
0000
0100
0000
0010
0100
0100
0010
0010
0000
1000
0000
0100
0000
0010
0000
,
0001
0010
0100
0000
0001
0010
0100
0000
0010
0000
0100
0000
1000
0000
0010
0000
,
0001
1000
0100
0010
0100
0001
0010
0000
,
0010
0000
0000
0010
0000
0000
0011
0000
,
0000
0010
0000
0000
1100
0000
0000
1000
,
0000
0000
0001
0000
0000
0110
0000
0000
,
1000
0000
0000
0100
0000
0000
0010
0000
0000
0000
0000
0000
0001
0000
0000
0100
,
0000
0000
1000
0000
0000
1000
0000
0000
1000
0000
0000
0010
0000
0000
0100
0000
,
0000
0000
0000
0000
0010
0000
0000
0100
0000
0000
1000
0000
0000
0000
0000
0000
,
1000
0000
0000
0000
;

//---------------dance-double - ----------------
#NOTES:
     dance-double:
     :
     Challenge:
     10:
     0.691999,0.857347,0.282230,0.057598,0.169914,841.000000,792.000000,49.000000,10.000000,0.000000,1.000000,0.691999,0.857347,0.282230,0.057598,0.169914,841.000000,792.000000,49.000000,10.000000,0.000000,1.000000:
// measure 0
00010000
00000000
00000000
00000000
,  // measure 1
00100000
00000000
00010000
00000000
,  // measure 2
00000100
00000000
00000010
00000000
00000010
00000001
00000010
00000100
,  // measure 3
00001000
00000000
00100000
00010000
00100000
00000000
01000000
00000000
,  // measure 4
00010000
00000000
10000000
01000000
10000000
00000000
01000000
00000000
,  // measure 5
00010000
00000000
00000100
00000010
00000100
00000000
00001000
00000000
,  // measure 6
10000000
00000000
01000000
00100000
01000000
10000000
00010000
00100000
,  // measure 7
10000000
00000000
01000000
00100000
01000000
00000000
10000000
01000000
,  // measure 8
10000000
00000000
00100000
00010000
00100000
00000000
01000000
01000000
,  // measure 9
10000000
00000000
01000000
00100000
01000000
00000000
00100000
00010000
,  // measure 10
00001000
00000000
00000000
00000000
00000100
00000000
00000010
00000000
00000001
00000000
00000000
00000000
00000100
00000000
00000010
00000100
,  // measure 11
00001000
00000000
00000100
00000010
00000100
00000000
00000001
00000010
,  // measure 12
00001000
00000000
00000100
00000010
00000001
00000000
00000010
00000100
,  // measure 13
00000001
00000000
00000100
00001000
00000100
00000000
00000100
00000010
,  // measure 14
00000001
00000010
00000100
00001000
00010000
00100000
01000000
10000000
,  // measure 15
10000000
00100000
01000000
00001000
01000000
00001000
01000000
00010000
,  // measure 16
00100000
00000100
01000000
10000000
01000000
00000000
00100000
01000000
,  // measure 17
10000000
00000000
00100000
01000000
00100000
01000000
00010000
00100000
,  // measure 18
01000000
10000000
00010000
00100000
01000000
00100000
10000000
01000000
,  // measure 19
00001000
00000100
00000010
00000100
00000010
00000100
00001000
00000100
,  // measure 20
00000010
00000001
00000100
00000010
00000100
00000010
00001000
00000100
,  // measure 21
00001000
00000100
00000010
00000001
00000010
00000100
00000010
00001000
,  // measure 22
10000000
10000000
01000000
00100000
00010000
00100000
01010000
00000000
,  // measure 23
00010000
10000000
00100000
10000000
00010000
01000000
00010000
01000000
,  // measure 24
10000000
00000000
01000000
00100000
00010000
00000000
01010000
00000000
,  // measure 25
00001000
00000100
00000010
00000001
00000100
00001000
00000110
00000010
,  // measure 26
00000001
00000100
00000010
00000010
10000000
00000000
10010000
00000000
,  // measure 27
10000000
00000000
11000000
00000000
00010000
01000000
00010000
00000000
,  // measure 28
00010000
10000000
00100000
00100000
01000000
00000000
10010000
00000000
,  // measure 29
00000001
00000010
00000100
00000000
00000110
00000000
00001000
00000100
,  // measure 30
00001000
00000010
00000100
00000010
00001000
00000000
00002010
00000000
,  // measure 31
00010000
10003000
00100000
10000000
00010000
01000000
00010000
01000000
,  // measure 32
10000000
00000000
01000000
00100000
00010000
00100000
01010000
00000000
,  // measure 33
00010000
00100000
10010000
00000000
01000000
00100000
00010000
00100000
,  // measure 34
00010000
10000000
00100000
00100000
01000000
00000000
10010000
00000000
,  // measure 35
00001000
00000000
00001001
00000000
00000010
00000100
00001000
00000100
,  // measure 36
00001000
00000001
00000100
00000100
00000010
00000000
00001001
00000000
,  // measure 37
00010000
00000000
00100000
01000000
00100000
00000000
00010000
00100000
,  // measure 38
00010000
10000000
00100000
00100000
01000000
00000000
10010000
00000000
,  // measure 39
00001000
00000100
00001001
00000010
00000100
00000010
00000100
00001000
,  // measure 40
00001000
00000001
00000100
00000100
00000010
00000100
00001001
00000000
,  // measure 41
00010000
00100000
11000000
00000000
01000000
00100000
00010000
00100000
,  // measure 42
00010000
10000000
00100000
00100000
01000000
00100000
10010000
00100000
,  // measure 43
00001000
00000000
10000001
00000000
00000100
00000010
00000001
00000000
,  // measure 44
00000001
00001000
00000010
00000010
00000100
00000000
00001001
00000100
,  // measure 45
00001000
00000000
00100000
01000000
00100000
00000000
01000000
00000000
,  // measure 46
00010000
10000000
00100000
00100000
01000000
00000000
10000000
01000000
,  // measure 47
00010000
00100000
10010000
00000000
01000000
00100000
00010000
00000000
,  // measure 48
00010000
10000000
00100000
00100000
01000000
00000000
10010000
00100000
,  // measure 49
00001000
00000100
00000101
00000000
00000010
00000100
00001000
00000100
,  // measure 50
00001000
00000001
00000010
00000010
00000100
00000100
00001001
00000000
,  // measure 51
00000010
00001000
10010000
00000000
01000000
00100000
00100000
00010000
,  // measure 52
00010000
10000000
00100000
00100000
01000000
00010000
02000000
00000000
,  // measure 53
10000000
00000000
00100000
00010000
00100000
10000000
03100000
00000000
,  // measure 54
00010000
00100000
01000000
10000000
01000000
00000000
00100000
00000000
,  // measure 55
00000020
00000001
00000001
00000100
00000100
00001000
00000100
00001000
,  // measure 56
00000031
00000000
00000010
00000001
00000010
00000100
00001000
00100000
,  // measure 57
10000000
00100000
01000000
00100000
01000000
10000000
00100000
00000000
,  // measure 58
00010000
00100000
01000000
00100000
01000000
00100000
02000000
00000000
,  // measure 59
13000000
01000000
01000000
00100000
,  // measure 60
00010000
00010000
00100000
00100000
01000000
01000000
01000000
00000000
,  // measure 61
00001000
00001000
00000010
00000010
00000010
00000000
00000001
00000000
,  // measure 62
00000001
00000010
00000010
00000000
00000020
00000001
00001000
00000100
,  // measure 63
00000031
00000000
00000100
00000000
00000100
00000100
00000010
00000000
,  // measure 64
00000001
00000000
00000100
00000100
00000010
00000000
00001000
00010000
,  // measure 65
00010000
00000000
00100000
00000000
00100000
00100000
00010000
00000000
,  // measure 66
00010000
00000000
01000000
00100000
01000000
10000000
10000000
01000000
,  // measure 67
00010000
00000000
00000100
00000010
00000100
00000000
00001000
00000100
,  // measure 68
00001000
00000000
00100000
00010000
00100000
00000000
01000000
00100000
,  // measure 69
00010000
00000000
00100000
01000000
00100000
00000000
10000000
01000000
,  // measure 70
00010000
00000000
00100000
00000000
01000000
00000000
00100000
00000000
01000000
00000000
00000000
00000000
00100000
00000000
00010000
00001000
,  // measure 71
00000100
00000000
00000010
00000100
00000010
00000000
00000001
00000010
,  // measure 72
00000100
00000000
00000000
00000000
00001000
00000000
00000100
00000000
00001000
00000000
00000100
00000010
00000001
00000000
00000100
00000000
,  // measure 73
00001000
00000000
00000010
00000000
00000010
00000000
00000100
00000000
00001000
00000000
00000100
00000010
00000001
00000000
00000010
00000000
,  // measure 74
00000001
00000000
00000010
00000000
00000010
00000000
00000100
00000000
00001000
00000000
00010000
00100000
01000000
00000000
10000000
01000000
,  // measure 75
10000000
01000000
00100000
00000000
10000000
00000000
00100000
00000000
00010000
00100000
01000000
00100000
00010000
00000000
00100000
00000000
,  // measure 76
00010000
00000000
10000000
00000000
00100000
00000000
00100000
00000000
01000000
00100000
00010000
00100000
00010000
00000000
01000000
00000000
,  // measure 77
10000000
00000000
01000000
00000000
00010000
00000000
00000010
00000000
00000001
00000010
00000100
00000010
00000001
00000000
00000010
00000000
,  // measure 78
00000001
00000000
00001000
00000100
00000010
00000000
00000010
00000000
00000100
00000000
00000010
00000000
00001001
00000000
00000100
00000010
,  // measure 79
00001000
00000100
00000001
00000000
00000100
00000000
00000100
00000000
00001000
00000000
00000100
00000010
00000100
00000000
00000001
00000000
,  // measure 80
00001000
00000000
00100000
00000000
01000000
00000000
00100000
00000000
00010000
00100000
01000000
00000000
00100000
00000000
01000000
00000000
,  // measure 81
00010000
00100000
01000000
00100000
10000000
00010000
00001000
00000100
,  // measure 82
00000001
00000001
00000010
00000010
00000100
00001000
00001010
00000000
,  // measure 83
00010000
00000000
10010000
00000000
01000000
00100000
00000000
00000000
,  // measure 84
00010000
10000000
00100000
00100000
01000000
00000000
10010000
00000000
,  // measure 85
00001000
00000000
00000000
00000000
00001001
00000000
00000000
00000000
00000100
00000010
00000001
00000000
00000010
00000000
00000000
00000000
,  // measure 86
00000001
00000000
00001000
00000000
00000010
00000001
00000010
00000000
00000100
00000000
00000000
00000000
00002001
00000000
00000000
00000000
,  // measure 87
00003001
00000000
00000100
00000010
00000001
00000100
00000010
00000001
00000010
00000000
00000100
00000000
00000010
00000000
00000100
00000000
,  // measure 88
00001000
00000000
00000100
00000000
00000001
00000000
00000010
00000000
00000100
00000000
00000010
00000000
00001000
00000100
00000001
00000000
,  // measure 89
00000001
00000010
00000001
00000010
00000100
00000010
00001000
00010000
,  // measure 90
00010000
00100000
00010000
01000000
00100000
01000000
10000000
00100000
,  // measure 91
10100000
00000000
01000000
00100000
02000000
00000000
13000000
00000000
,  // measure 92
10000000
00000000
01000000
00000000
00100000
00000000
01000000
00000000
00010000
00000000
00100000
00000000
10000000
01000000
00100000
00010000
,  // measure 93
10000000
00000000
01000000
00000000
00100000
00000000
00010000
00000000
01000000
00000000
00000000
00000000
10000000
01000000
00010000
00000000
,  // measure 94
00010000
00100000
00010000
00100000
01000000
10000000
00010000
10000000
,  // measure 95
00001000
00000100
00000100
00000010
00000100
00000010
00000010
00000001
,  // measure 96
00000001
00000000
00000010
00000000
00000100
00000000
00000010
00000000
00001000
00000000
00000100
00000000
00001010
00000100
00000010
00000001
,  // measure 97
00000010
00000100
00001001
00000010
00000110
00000100
00001000
00000100
,  // measure 98
00001000
00000000
00000001
00000000
00000100
00001000
00000100
00000000
00000020
00000000
00000000
00000000
00001031
00000000
00000000
00000000
,  // measure 99
00010000
00100000
01000000
00100000
01000000
00000000
00100000
00010000
00100000
00000000
01000000
00000000
01000000
10000000
01000000
00100000
,  // measure 100
01000000
00000000
00100000
00010000
00100000
00000000
01000000
00000000
01000000
10000000
10000000
00100000
01000000
00000000
10000000
01000000
,  // measure 101
00100000
00000000
00000000
01000000
10000000
00000000
00010000
00100000
00010000
01000000
00100000
01000000
10000000
00000000
00100000
00000000
,  // measure 102
00010000
01000000
00100000
00000000
00010000
00010000
00100000
00000000
01000000
00000000
10000000
00000000
01000000
00100000
00010000
00001000
,  // measure 103
00000010
00000000
00000001
00000000
00000001
00000000
00000100
00000010
00000001
00000000
00000100
00000010
00000100
00000010
00000100
00000000
,  // measure 104
00001000
00000000
00000100
00000000
00000010
00000100
00000100
00000010
00000010
00000000
00001000
00000000
00000100
00000000
00000010
00000000
,  // measure 105
00000001
00000010
00000100
00000000
00000001
00000010
00000100
00000000
00000010
00000000
00000100
00000000
00001000
00000000
00000010
00000000
,  // measure 106
00000001
00001000
00000100
00000010
00000100
00001000
00100000
00000000
,  // measure 107
00100000
00000000
00000000
00100000
00000000
00000000
00110000
00000000
,  // measure 108
00000000
00100000
00000000
00000000
11000000
00000000
00000000
10000000
,  // measure 109
00000000
00000000
00010000
00000000
00000000
01100000
00000000
00000000
,  // measure 110
10000001
00000000
00000000
01000010
00000000
00000000
00100100
00000000
00000000
00000000
00000000
00000000
00001000
00000000
00000000
01000010
,  // measure 111
00000000
00000000
10000001
00000000
00000000
10000001
00000000
00000000
10000001
00000000
00000000
00000100
00000000
00000000
00001000
00000000
,  // measure 112
00000000
00000000
00000000
00000000
00100000
00000000
00000000
01010000
00000000
00000000
10001000
00000000
00000000
00000000
00000000
00000000
,  // measure 113
00200200
00000000
00000000
00000000
,  // measure 114
00000000
00000000
00300300
00000000
;
