#TITLE:Ice Cream;
#SUBTITLE:(with Selena Gomez);
#ARTIST:BLACKPINK;
#TITLETRANSLIT:;
#SUBTITLETRANSLIT:;
#ARTISTTRANSLIT:;
#GENRE:;
#CREDIT:;
#BANNER:Ice Cream (with Selena Gomez).png;
#BACKGROUND:Ice Cream (with Selena Gomez)-bg.png;
#LYRICSPATH:;
#CDTITLE:cdtitle.png;
#MUSIC:Ice Cream (with Selena Gomez).mp3;
#OFFSET:-0.286803;
#SAMPLESTART:37.787937;
#SAMPLELENGTH:12.000000;
#SELECTABLE:YES;
#BPMS:0.000000=159.994995
;
#STOPS:
;
#BGCHANGES:0.000=Ice Cream (with Selena Gomez).mp4=1.000=0=0=0=StretchNoLoop====,
99999=-nosongbg-=1.000=0=0=0 // don't automatically add -songbackground-
;
#KEYSOUNDS:;
#ATTACKS:;

//---------------dance-single - ----------------
#NOTES:
     dance-single:
     :
     Easy:
     4:
     0.257998,0.339374,0.109453,0.000000,0.000000,330.000000,310.000000,20.000000,0.000000,0.000000,0.000000,0.257998,0.339374,0.109453,0.000000,0.000000,330.000000,310.000000,20.000000,0.000000,0.000000,0.000000:
0000
0000
0000
0000
,
0000
0000
0000
0000
,
0000
0000
0000
0000
,
0000
0000
0000
0000
,
0000
0000
0000
0000
,
0000
0000
0000
0000
,
0000
0000
0000
0000
,
1010
1000
0010
0010
,
0001
0100
0100
0010
,
1000
0100
0010
0100
,
0001
1000
0010
1100
,
1010
1000
0010
0010
,
0001
0100
0100
0010
,
1000
0100
0010
0100
,
0001
0000
0001
0000
,
0001
0100
0010
0100
,
1000
0001
0010
0001
,
1010
1000
0010
0010
,
0001
0100
0100
0010
,
1000
0100
0010
0100
,
0001
1000
0010
0001
,
1000
0100
0001
0010
,
0001
1000
0010
1100
,
1010
1000
0010
0010
,
0001
0100
0100
0010
,
1000
0010
0010
0100
,
1000
0010
0010
0100
,
0001
0100
0100
0010
,
0001
0100
0010
0100
,
1000
1000
0001
0001
,
0010
1000
0010
1100
,
1010
1000
0010
0010
,
0001
0100
0100
0010
,
0001
0100
0100
0010
,
1000
0100
0100
0010
,
0001
0100
0100
0010
,
0001
0010
0010
0100
,
1000
0010
0100
0010
,
1000
0010
0001
0010
,
1001
1000
1010
1000
,
0001
0100
0010
0001
,
1000
0100
0010
1000
,
0001
1000
0010
1100
,
1010
1000
0010
0010
,
0001
0100
0100
0010
,
1000
0100
0010
0100
,
0001
1000
0010
1100
,
1010
1000
0010
0010
,
0001
0100
0100
0010
,
1000
0100
0100
0010
,
1000
0000
0000
0000
,
1000
0000
0000
0000
,
0001
0000
0000
0000
,
1000
0000
0000
0000
,
0001
0000
0000
0000
,
0001
0000
0000
0000
,
0001
0000
0000
0000
,
0001
0000
0000
0000
,
0001
1000
0010
1100
,
1010
1000
0010
0010
,
0001
0100
0100
0010
,
1000
0010
0010
0100
,
0001
1000
0010
1100
,
1010
1000
0010
0010
,
0001
0100
0100
0010
,
1000
0010
0010
0100
,
0001
1000
0010
1100
,
1010
1000
0010
0010
,
0001
0100
0100
0010
,
1000
0100
0100
0010
,
1000
0000
0000
0000
,
1000
0000
0000
0000
,
0001
0000
0000
0000
,
1000
0000
0000
0000
,
1000
0000
0000
0000
,
0001
0000
0000
0000
,
0001
0000
0000
0000
,
1000
0000
0000
0000
,
0001
0000
0000
1000
,
0000
0001
0010
0000
,
0001
0000
0000
1000
,
0000
0000
0000
0000
,
1000
0000
0000
0000
,
0001
0000
0000
0000
,
0001
0000
0000
0000
,
1000
0000
0000
0000
,
0001
0000
0000
0000
,
0001
0000
0000
0000
,
1000
0000
0000
0000
,
1000
0000
0000
0000
,
0001
0100
0001
0010
,
0001
1000
0010
0010
,
0001
0100
0100
0010
,
1000
0010
0010
0100
,
0001
0000
0000
0000
,
1000
0000
0010
0000
,
0001
1000
1000
0010
,
1000
0000
0000
0000
,
1000
1000
0000
0100
,
1000
0001
0000
0000
,
1000
1000
0000
0100
,
0001
1000
0000
0000
,
1000
1000
0000
0100
,
1000
0001
0000
0000
,
1000
1000
0000
0100
,
1000
0001
0000
0000
,
1000
1000
0000
0100
,
1000
0001
0000
0000
,
1000
1000
0000
0100
,
1000
0001
0000
0000
,
1000
1000
0000
0100
,
1000
0001
0000
0000
,
1000
1000
0000
0100
;

//---------------dance-single - ----------------
#NOTES:
     dance-single:
     :
     Medium:
     5:
     0.268943,0.435762,0.213434,0.000000,0.000000,344.000000,305.000000,39.000000,0.000000,0.000000,0.000000,0.268943,0.435762,0.213434,0.000000,0.000000,344.000000,305.000000,39.000000,0.000000,0.000000,0.000000:
0000
0000
0000
0000
,
0000
0000
0000
0000
,
0000
0000
0000
0000
,
0000
0000
0000
0000
,
0000
0000
0000
0000
,
0000
0000
0000
0000
,
0000
0000
0000
0000
,
1001
0100
1000
0101
,
1100
0010
0101
0001
,
1000
0000
0010
0000
0010
0100
0010
0010
,
1000
0000
0100
0000
1000
0001
0100
0000
,
1001
0100
1000
0101
,
1100
0010
0101
0001
,
1000
0000
0010
0000
0010
0100
0010
0010
,
1000
0000
0100
0000
1000
0001
0100
0100
,
1000
0000
0100
0000
,
0001
0000
0100
0000
,
1000
0000
0000
0000
,
1000
0000
0000
0000
,
1000
0000
0000
0000
,
0001
0000
0000
0000
,
0001
0000
0000
0000
,
1000
0000
0000
0000
,
1001
0100
1000
0101
,
1100
0010
0101
0001
,
1000
0000
0010
0000
0010
0100
0010
0010
,
1000
0000
0010
0000
0010
0100
0010
0010
,
1000
0000
0000
0000
,
0001
0000
0000
0000
,
0001
0000
0000
0000
,
1000
0000
0100
0000
,
1001
0100
1000
0101
,
1100
0010
0101
0001
,
1000
0000
0010
0000
0010
0100
0010
0010
,
1000
0000
0010
0000
0010
0100
0010
0010
,
1000
0000
0000
0000
,
1000
0000
0000
0000
,
1000
0000
0000
0000
,
1000
0000
0000
0000
,
0001
0000
0000
0000
,
1000
0000
0000
0000
,
0001
0000
0000
0000
,
0001
0000
0000
0000
,
1001
0100
1000
0101
,
1100
0010
0101
0001
,
1000
0000
0010
0000
0010
0100
0010
0010
,
1000
0000
0100
0000
1000
0001
0100
0000
,
1001
0100
1000
0101
,
1100
0010
0101
0001
,
1000
0000
0010
0000
0010
0100
0010
0010
,
1000
0000
0010
0000
0010
0100
0010
0010
,
1000
0000
0000
0000
,
0001
0000
0000
0000
,
0001
0000
0000
0000
,
0001
0000
0000
0000
,
1000
0000
0000
0000
,
1000
0000
0000
0000
,
1000
0000
0000
0000
,
1000
0000
0100
0000
,
1001
0100
1000
0101
,
1100
0010
0101
0001
,
1000
0000
0010
0000
0010
0100
0010
0010
,
0001
0000
0010
0000
0010
0100
0010
0000
,
1001
0100
1000
0101
,
1100
0010
0101
0001
,
1000
0000
0010
0000
0010
0100
0010
0010
,
1000
0000
0100
0000
0100
0010
0100
0000
,
1001
0100
1000
0101
,
1100
0010
0101
0001
,
1000
0000
0010
0000
0010
0100
0010
0010
,
1000
0000
0010
0000
0010
0100
0010
0010
,
1000
0000
0000
0000
,
1000
0000
0000
0000
,
0001
0000
0000
0000
,
0001
0000
0000
0000
,
0001
0000
0000
0000
,
0001
0000
0000
0000
,
0001
0000
0000
0000
,
0001
0000
0000
0000
,
0001
0000
0000
0100
,
0000
1000
0100
0000
,
0001
0000
0000
0100
,
0000
0000
0000
0000
,
1000
0000
0000
0000
,
0001
0000
0000
0000
,
0001
0000
0000
0000
,
1000
0000
0000
0000
,
1000
0000
0000
0000
,
0001
0000
0000
0000
,
0001
0000
0000
0000
,
1000
0000
0000
0000
,
0101
0010
1000
0100
,
0001
0000
0000
0000
1010
0000
1000
1000
,
1000
0000
0010
0000
0010
0100
0010
0010
,
1000
0000
0010
0000
0010
0100
0010
0010
,
1000
0000
0100
0000
,
0000
1000
0000
0000
0001
0000
0000
0000
,
1010
0000
1000
0100
0100
0000
0010
0000
,
1000
0000
0000
0000
,
0001
0001
0000
0100
,
0001
0010
0010
0000
,
0001
0001
0000
0100
,
1000
0001
0100
0000
,
0001
0001
0000
0100
,
0001
0010
0010
0000
,
0001
0001
0000
0100
,
0001
0010
0010
0000
,
0001
0001
0000
0100
,
0001
0010
0010
0000
,
0001
0001
0000
0100
,
0001
0010
0010
0000
,
0001
0001
0000
0100
,
0001
0010
0010
0000
,
0001
0001
0000
0100
;

//---------------dance-single - ----------------
#NOTES:
     dance-single:
     :
     Hard:
     8:
     0.599649,0.736348,0.815429,0.043781,0.002736,767.000000,618.000000,149.000000,8.000000,4.000000,1.000000,0.599649,0.736348,0.815429,0.043781,0.002736,767.000000,618.000000,149.000000,8.000000,4.000000,1.000000:
0000
0000
0000
0000
,
1000
0000
0000
0000
,
1000
0000
0001
0000
,
0001
0000
0000
0000
,
0001
0000
1000
0000
,
1000
0000
0000
0000
,
1000
0000
0001
0000
,
1001
0000
0010
1000
0010
0000
0001
0010
,
0100
0000
1000
0000
0001
0001
1000
0000
,
1100
0000
1000
1000
1000
0001
0100
0000
,
1010
0000
1000
1000
0001
0100
0001
0000
,
1001
0000
0010
1000
0010
0000
0011
0000
,
0110
1000
0011
1000
,
1100
0000
1000
1000
1000
0001
0100
0000
,
1010
0000
1000
1000
0001
0100
0001
0001
,
0011
0000
0001
0001
0001
1000
0010
0000
,
1000
0100
0010
0000
0010
0010
0000
0000
,
1100
0000
1000
1000
1000
0001
0100
0000
,
1010
0000
1000
1000
0001
0100
0001
0000
,
1001
0000
0010
1000
0010
0000
0011
0000
,
0110
0000
1000
0000
0001
0010
1000
0000
,
1100
0000
1000
1000
1000
0001
0100
0000
,
1010
0000
1000
1000
0001
0100
0001
0001
,
1001
0000
0010
1000
0010
0000
0011
0000
,
0110
0000
1000
0000
0001
0010
1000
0000
,
1100
0000
1000
1000
1000
0001
0100
0000
,
1010
0000
1000
1000
1000
0001
0010
0010
,
1001
0000
0010
1000
0100
0000
0101
0000
,
0011
1000
0110
1000
,
1100
0000
1000
1000
1000
0001
0100
0000
,
1010
0000
0001
0001
1000
0010
1000
1000
,
1001
0000
0010
1000
0010
0000
0001
0010
,
0110
0000
1000
0000
0001
0010
1010
0000
,
1100
0000
1000
1000
1000
0001
0100
0000
,
1010
0000
1000
1000
1000
0001
0010
0010
,
1001
0000
0010
1000
0100
0000
0101
0000
,
0011
1000
0110
1000
,
1100
0000
1000
1000
1000
0001
0100
0000
,
1010
0000
0001
0001
1000
0010
1000
1000
,
1001
0000
0010
1000
0010
0000
0001
0010
,
0110
1000
0010
1000
,
1100
0000
1100
0000
0011
0011
0011
0000
,
1010
0000
1010
0000
0101
0101
0000
0000
,
1100
0000
1100
1000
0011
0011
0011
0010
,
1010
0000
1010
0000
0101
0101
0000
0000
,
1100
0000
1000
1000
1000
0001
0100
0000
,
1010
0000
1000
1000
0001
0100
0001
0000
,
1001
0000
0010
1000
0010
0000
0011
0000
,
0110
1000
0011
1000
,
1100
0000
1000
1000
1000
0001
0100
0000
,
1100
0000
1000
1000
1000
0001
0100
0000
,
1000
0100
0010
0000
0100
0100
0000
0000
,
0011
0000
0001
0001
0001
1000
0010
0000
,
0101
0000
0010
0100
0010
0000
1000
0000
,
1000
0000
0100
0000
1000
0000
0100
0000
0010
0000
0200
0300
0100
0000
0000
0000
,
1010
0000
0100
0010
0100
0000
0001
0000
,
0001
0000
0010
0000
0001
0000
0010
0000
0100
0000
0020
0030
0010
0000
0000
0000
,
1100
0000
0010
0100
0010
0000
1000
1000
,
1000
0100
1000
0100
0010
0100
0010
0000
,
1001
0000
0100
0010
0100
0000
0001
0001
,
0001
0010
0001
0010
0100
0010
0100
0000
,
1100
0000
1000
1000
1000
0001
0100
0000
,
1010
0000
1000
1000
1000
0001
0010
0000
,
1001
0000
0010
1000
0010
0000
0011
0000
,
0110
1000
0011
1000
,
1100
0000
1000
1000
1000
0001
0100
0000
,
0101
0000
0001
0001
0001
1000
0100
0000
,
1001
0000
0010
1000
0010
0000
0011
0000
,
0110
1000
0011
1000
,
1100
0000
1000
1000
1000
0001
0100
0000
,
1010
0000
1000
1000
1000
0001
0010
0010
,
1001
0000
0010
1000
0100
0000
0101
0000
,
0011
1000
0110
1000
,
1100
0000
1000
1000
1000
0001
0100
0000
,
1010
0000
0001
0001
1000
0010
1000
1000
,
1001
0000
0010
1000
0010
0000
0001
0010
,
0110
0000
1000
0000
0001
0010
1010
0000
,
1100
0000
1100
0000
0011
0011
0011
0000
,
1010
0000
1010
0000
0101
0101
0000
0000
,
1100
0000
1100
0100
0011
0011
0011
0010
,
1010
0010
1010
0000
0101
0101
0000
0000
,
1100
0000
1100
0100
0011
0011
0011
0010
,
1010
0010
1010
0000
0101
0101
0000
0000
,
1100
0000
1100
0100
0011
0011
0011
0010
,
2000
0000
0000
0000
0000
0000
0000
0200
0000
0000
0000
0000
3300
0000
0000
0000
,
0001
0010
0001
0000
1000
0100
1000
0000
,
0110
0000
0110
0000
1001
0000
0100
1000
,
0100
0000
0001
0010
0100
0000
1000
0000
,
1100
0110
0011
2000
,
3011
0000
0002
0000
1003
0100
1000
0000
,
0001
0010
1000
0100
0100
0000
1000
0000
,
0110
0000
0100
0010
0001
0000
1010
0000
,
1001
0010
0101
1000
,
1100
0000
1000
1000
1000
0001
0100
0000
,
1010
0000
1000
1000
1000
0001
0010
0010
,
1100
0000
1000
1000
1000
0001
0010
0010
,
0001
0010
0100
0010
0001
0001
0010
0000
,
0110
0000
0001
0010
0010
0100
1000
0001
,
1010
0000
1000
1000
0100
0001
0010
0010
,
0001
0000
0001
0000
0001
0000
0100
0001
,
1000
0000
0100
0000
0100
1000
0001
0000
,
0001
0000
0001
0010
0001
0000
0100
0001
,
0001
0000
0010
0000
0100
1000
0000
0000
,
0001
0000
0001
0010
0001
0000
0100
0001
,
1000
0000
0100
0000
0100
1000
0001
0000
,
0001
0000
0001
0010
0001
0000
0100
0001
,
0001
0000
0010
0000
0100
1000
0001
0000
,
1100
0000
1100
0010
0001
0000
0011
0100
,
1000
0000
0100
0000
0100
1000
0001
0000
,
0001
0000
0001
0010
0001
0000
0100
0001
,
1000
0000
0010
0000
0100
1000
0001
0000
,
0001
0000
0001
0000
0001
0000
0100
0001
,
1000
0000
0100
0000
0100
1000
0001
0000
,
0001
0000
0001
0010
0001
0000
0100
0001
,
0001
0000
0010
0000
0100
1000
0000
0000
,
1100
0000
1100
0010
0001
0000
0011
0100
,
2000
0000
0M00
0000
02M0
0000
000M
3300
,
00M0
0000
0000
0000
;

//---------------dance-single - ----------------
#NOTES:
     dance-single:
     :
     Challenge:
     9:
     0.601994,0.736348,0.831847,0.065672,0.002736,770.000000,618.000000,152.000000,12.000000,4.000000,1.000000,0.601994,0.736348,0.831847,0.065672,0.002736,770.000000,618.000000,152.000000,12.000000,4.000000,1.000000:
// measure 0
0000
0000
0000
0000
,  // measure 1
0100
0000
0000
0000
,  // measure 2
0100
0000
0101
0000
,  // measure 3
0010
0000
0000
0000
,  // measure 4
0010
0000
0011
0000
,  // measure 5
1000
0000
0000
0000
,  // measure 6
1000
0000
1001
0000
,  // measure 7
1010
0000
0010
1000
0010
0000
0001
0010
,  // measure 8
0100
0000
1000
0000
0001
0001
1000
0000
,  // measure 9
1100
0000
1000
1000
1000
0001
0100
0000
,  // measure 10
1020
0000
1000
1030
0001
0100
0001
0000
,  // measure 11
1001
0000
0010
1000
0010
0000
0011
0000
,  // measure 12
0210
0000
1000
0300
0011
0000
1000
0000
,  // measure 13
1100
0000
1000
1000
1000
0001
0100
0000
,  // measure 14
1010
0000
1000
1000
0001
0100
0001
0001
,  // measure 15
0011
0000
0001
0001
0001
1000
0010
0000
,  // measure 16
1000
0100
0010
0000
0010
0010
0000
0000
,  // measure 17
1100
0000
1000
1000
1000
0001
0100
0000
,  // measure 18
1020
0000
1000
1030
0001
0100
0001
0000
,  // measure 19
1001
0000
0010
1000
0010
0000
0011
0000
,  // measure 20
0210
0000
1000
0300
0001
0010
1000
0000
,  // measure 21
1100
0000
1000
1000
1000
0001
0100
0000
,  // measure 22
1010
0000
1000
1000
0001
0100
0001
0001
,  // measure 23
1001
0000
0010
1000
0010
0000
0011
0000
,  // measure 24
0110
0000
1000
0000
0001
0010
1000
0000
,  // measure 25
1100
0000
1000
1000
1000
0001
0100
0000
,  // measure 26
1010
0000
1000
1000
1000
0001
0010
0010
,  // measure 27
1001
0000
0010
1000
0100
0000
0101
0000
,  // measure 28
0011
1000
0110
1000
,  // measure 29
1100
0000
1000
1000
1000
0001
0100
0000
,  // measure 30
1010
0000
0001
0001
1000
0010
1000
1000
,  // measure 31
1001
0000
0010
1000
0010
0000
0001
0010
,  // measure 32
0110
0000
1000
0000
0001
0010
1010
0000
,  // measure 33
1100
0000
1000
1000
1000
0001
0100
0000
,  // measure 34
1010
0000
1000
1000
1000
0001
0010
0010
,  // measure 35
1001
0000
0010
1000
0100
0000
0101
0000
,  // measure 36
0011
1000
0110
1000
,  // measure 37
1100
0000
1000
1000
1000
0001
0100
0000
,  // measure 38
1010
0000
0001
0001
1000
0010
1000
1000
,  // measure 39
1001
0000
0010
1000
0010
0000
0001
0010
,  // measure 40
0110
1000
0010
1000
,  // measure 41
1100
0000
1100
0000
0011
0011
0011
0000
,  // measure 42
1010
0000
1010
0000
0101
0101
0000
0000
,  // measure 43
1100
0000
1100
1000
0011
0011
0011
0010
,  // measure 44
1010
0000
1010
0000
0101
0101
0000
0000
,  // measure 45
1100
0000
1000
1000
1000
0001
0100
0000
,  // measure 46
1010
0000
1000
1000
0001
0100
0001
0000
,  // measure 47
1001
0000
0010
1000
0010
0000
0011
0000
,  // measure 48
0110
1000
0011
1000
,  // measure 49
1100
0000
1000
1000
1000
0001
0100
0000
,  // measure 50
1100
0000
1000
1000
1000
0001
0100
0000
,  // measure 51
1000
0100
0010
0000
0100
0100
0000
0000
,  // measure 52
0011
0000
0001
0001
0001
1000
0010
0000
,  // measure 53
0101
0000
0010
0100
0010
0000
1000
0000
,  // measure 54
1000
0000
0100
0000
1000
0000
0100
0000
0010
0000
0200
0300
0100
0000
0000
0000
,  // measure 55
1010
0000
0100
0010
0100
0000
0001
0000
,  // measure 56
0001
0000
0010
0000
0001
0000
0010
0000
0100
0000
0020
0030
0010
0000
0000
0000
,  // measure 57
1100
0000
0010
0100
0010
0000
1000
1000
,  // measure 58
1000
0100
1000
0100
0010
0100
0010
0000
,  // measure 59
1001
0000
0100
0010
0100
0000
0001
0001
,  // measure 60
0001
0010
0001
0010
0100
0010
0100
0000
,  // measure 61
1100
0000
1000
1000
1000
0001
0100
0000
,  // measure 62
1010
0000
1000
1000
1000
0001
0010
0000
,  // measure 63
1001
0000
0010
1000
0010
0000
0011
0000
,  // measure 64
0110
1000
0011
1000
,  // measure 65
1100
0000
1000
1000
1000
0001
0100
0000
,  // measure 66
0101
0000
0001
0001
0001
1000
0100
0000
,  // measure 67
1001
0000
0010
1000
0010
0000
0011
0000
,  // measure 68
0110
1000
0011
1000
,  // measure 69
1100
0000
1000
1000
1000
0001
0100
0000
,  // measure 70
1010
0000
1000
1000
1000
0001
0010
0010
,  // measure 71
1001
0000
0010
1000
0100
0000
0101
0000
,  // measure 72
0011
1000
0110
1000
,  // measure 73
1100
0000
1000
1000
1000
0001
0100
0000
,  // measure 74
1010
0000
0001
0001
1000
0010
1000
1000
,  // measure 75
1001
0000
0010
1000
0010
0000
0001
0010
,  // measure 76
0110
0000
1000
0000
0001
0010
1010
0000
,  // measure 77
1100
0000
1100
0000
0011
0011
0011
0000
,  // measure 78
1010
0000
1010
0000
0101
0101
0000
0000
,  // measure 79
1100
0000
1100
0100
0011
0011
0011
0010
,  // measure 80
1010
0010
1010
0000
0101
0101
0000
0000
,  // measure 81
1100
0000
1100
0100
0011
0011
0011
0010
,  // measure 82
1010
0010
1010
0000
0101
0101
0000
0000
,  // measure 83
1100
0000
1100
0100
0011
0011
0011
0010
,  // measure 84
2000
0000
0000
0000
0000
0000
0000
0200
0000
0000
0000
0000
3300
0000
0000
0000
,  // measure 85
0001
0010
0001
0000
1000
0100
1000
0000
,  // measure 86
0110
0000
0110
0000
1001
0000
0100
1000
,  // measure 87
0100
0000
0001
0010
0100
0000
1000
0000
,  // measure 88
1100
0110
0011
2000
,  // measure 89
3011
0000
0002
0000
1003
0100
1000
0000
,  // measure 90
0001
0010
1000
0100
0100
0000
1000
0000
,  // measure 91
0110
0000
0100
0010
0001
0000
1010
0000
,  // measure 92
1001
0010
0101
1000
,  // measure 93
1100
0000
1000
1000
1000
0001
0100
0000
,  // measure 94
1010
0000
1000
1000
1000
0001
0010
0010
,  // measure 95
1100
0000
1000
1000
1000
0001
0010
0010
,  // measure 96
0001
0010
0100
0010
0001
0001
0010
0000
,  // measure 97
0110
0000
0001
0010
0010
0100
1000
0001
,  // measure 98
1010
0000
1000
1000
0100
0001
0010
0010
,  // measure 99
0001
0000
0001
0000
0001
0000
0100
0001
,  // measure 100
1000
0000
0100
0000
0100
1000
0001
0000
,  // measure 101
0001
0000
0001
0010
0001
0000
0100
0001
,  // measure 102
0001
0000
0010
0000
0100
1000
0000
0000
,  // measure 103
0001
0000
0001
0010
0001
0000
0100
0001
,  // measure 104
1000
0000
0100
0000
0100
1000
0001
0000
,  // measure 105
0001
0000
0001
0010
0001
0000
0100
0001
,  // measure 106
0001
0000
0010
0000
0100
1000
0001
0000
,  // measure 107
1100
0000
1100
0010
0001
0000
0011
0100
,  // measure 108
1000
0000
0100
0000
0100
1000
0001
0000
,  // measure 109
0001
0000
0001
0010
0001
0000
0100
0001
,  // measure 110
1000
0000
0010
0000
0100
1000
0001
0000
,  // measure 111
0001
0000
0001
0000
0001
0000
0100
0001
,  // measure 112
1000
0000
0100
0000
0100
1000
0001
0000
,  // measure 113
0001
0000
0001
0010
0001
0000
0100
0001
,  // measure 114
0001
0000
0010
0000
0100
1000
0000
0000
,  // measure 115
1100
0000
1100
0010
0001
0000
0011
0100
,  // measure 116
2000
0000
0M00
0000
02M0
0000
000M
3300
,  // measure 117
00M0
0000
0000
0000
;
