#VERSION:0.83;
#TITLE:How You Like That;
#SUBTITLE:(Dylon Maycel Remix);
#ARTIST:BLACKPINK;
#TITLETRANSLIT:;
#SUBTITLETRANSLIT:;
#ARTISTTRANSLIT:;
#GENRE:;
#ORIGIN:;
#CREDIT:DubStepManiac;
#BANNER:How You Like That (Dylon Maycel Remix).png;
#BACKGROUND:How You Like That (Dylon Maycel Remix)-bg.png;
#PREVIEWVID:;
#JACKET:jacket.png;
#CDIMAGE:;
#DISCIMAGE:;
#LYRICSPATH:;
#CDTITLE:cdtitle.png;
#MUSIC:How You Like That (Dylon Maycel Remix).mp3;
#OFFSET:-0.401270;
#SAMPLESTART:41.475601;
#SAMPLELENGTH:31.000000;
#SELECTABLE:YES;
#BPMS:0.000=260.024;
#STOPS:;
#DELAYS:;
#WARPS:;
#TIMESIGNATURES:0.000=4=4;
#TICKCOUNTS:0.000=4;
#COMBOS:0.000=1;
#SPEEDS:0.000=1.000=0.000=0;
#SCROLLS:0.000=1.000;
#FAKES:;
#LABELS:0.000=Song Start;
#BGCHANGES:0.000=How You Like That (Dylon Maycel Remix).mp4=1.000=0=0=0=StretchNoLoop====,
99999=-nosongbg-=1.000=0=0=0 // don't automatically add -songbackground-
;
#KEYSOUNDS:;
#ATTACKS:
;

//---------------dance-single - ----------------
#NOTEDATA:;
#CHARTNAME:;
#STEPSTYPE:dance-single;
#DESCRIPTION:;
#CHARTSTYLE:;
#DIFFICULTY:Easy;
#METER:3;
#RADARVALUES:0.197857,0.337385,0.055400,0.110800,0.000000,250.000000,240.000000,10.000000,20.000000,0.000000,0.000000,0.000000,0.000000,0.000000,0.197857,0.337385,0.055400,0.110800,0.000000,250.000000,240.000000,10.000000,20.000000,0.000000,0.000000,0.000000,0.000000,0.000000;
#CREDIT:;
#NOTES:
0000
0000
0000
0000
,
0000
0000
0000
0000
,
0000
0000
0000
1000
,
0000
0000
0000
1000
,
0000
0000
0001
0000
,
0200
0000
0000
0000
,
0000
0000
0300
0000
,
0001
0000
0000
0000
,
0001
0000
0000
0000
,
0000
0000
0000
0001
,
0000
0000
0000
0001
,
0000
0000
0000
0001
,
0000
0000
0001
0000
,
0000
0000
0000
1000
,
0000
0000
1000
0000
,
0000
0000
0001
0000
,
0000
0000
0001
0000
,
0000
0000
0002
0000
,
0000
0000
0003
1000
,
0000
0000
0001
0000
,
0000
0000
2000
0000
,
0000
0000
3000
0000
,
0000
0000
0001
0000
,
0000
0000
0001
0000
,
0000
0000
0200
0000
,
0000
0000
0300
0000
,
0000
0000
0001
0000
,
0000
0000
0001
0000
,
0001
0000
0000
0000
,
0000
0000
0000
1000
,
0000
0000
2000
0000
,
0000
0000
3000
0000
,
0001
0000
1000
0000
,
1000
0000
0010
0000
,
0001
0000
0200
0000
,
0000
0000
0300
0000
,
0001
0000
0100
0000
,
1000
0000
2000
0000
,
0000
0000
3000
0000
,
0001
0000
0000
0000
,
0020
0000
0000
0000
,
0030
0000
0001
0000
,
1000
0000
0020
0000
,
0000
0000
0000
0000
,
0030
0000
0100
0000
,
1000
0000
0100
0000
,
0002
0000
0003
0000
,
1000
0000
0010
0000
,
1000
0000
0000
0000
,
0000
0000
0001
0000
,
0001
0000
0100
0000
,
0002
0000
0000
0000
,
0003
0000
0000
0001
,
0001
0000
1000
0000
,
1000
0010
0100
0000
,
1000
0000
0010
0000
,
1000
0000
0000
0000
,
0000
0000
0001
0000
,
0001
0000
0100
0000
,
0001
0000
0000
0000
,
0001
0000
0100
0000
,
1000
0000
0101
0000
,
1000
0000
0100
0000
,
0001
0000
0000
0000
,
0000
0000
1000
0000
,
0000
0000
1000
0000
,
0001
0000
0000
0001
,
0001
0000
0000
0000
,
1000
1000
0000
0000
,
1000
0000
0010
0000
,
0000
0000
1000
0000
,
0001
0000
0000
0000
,
0000
0000
0000
1000
,
0001
0000
0000
0000
,
0000
0000
0001
0000
,
0000
0000
0000
1000
,
1000
1000
0000
0000
,
0000
1000
0010
0000
,
0000
0000
1000
0000
,
0000
0001
0000
0000
,
0000
0000
0001
0000
,
0000
0000
1000
0000
,
0001
0000
0000
0000
,
1000
0002
0000
0000
,
0000
0003
0000
0000
,
0000
0000
0001
0000
,
0000
0000
0001
0000
,
1000
0000
0000
0000
,
1000
0000
0010
0000
,
0001
0000
0000
0000
,
0000
0000
0001
0000
,
0000
0000
0001
0000
,
1000
0000
0000
0000
,
1000
0000
0000
0000
,
0000
0000
0001
0000
,
0000
0000
0001
0000
,
1000
0000
0100
0000
,
1000
0000
0100
0000
,
1000
0000
2000
0000
,
0000
0000
3000
0000
,
0001
0000
0010
0010
,
1000
0000
0100
0000
,
0001
1000
0010
0000
,
1000
0000
0010
0000
,
1000
0000
0010
0000
,
0000
0000
0001
0000
,
1000
0000
0020
0000
,
0000
0000
0000
0030
,
0001
0000
0010
0010
,
1000
0000
0100
0000
,
0002
0000
0003
0000
,
0001
0001
0000
0000
,
1000
0000
0000
0000
,
0000
0000
0001
0000
,
0001
0000
0002
0000
,
0000
0000
0000
0003
,
0001
0000
0010
0010
,
1000
0000
0100
0000
,
0001
1000
0010
0000
,
0001
0001
0000
0000
,
1000
0000
0000
0000
,
0000
0000
0001
0000
,
1000
0011
0001
0000
,
0000
0000
0001
0000
,
1000
0000
1010
0000
,
0000
0000
2000
0000
,
0000
0000
3000
0020
,
0000
0000
0000
0000
,
0030
0000
0000
0000
,
0000
0001
0000
0000
,
1000
0000
0000
0000
,
1000
0000
0010
0000
,
0000
0000
0001
0000
,
0000
0001
0000
0000
,
0000
1000
0000
0000
,
0001
2000
0000
0000
,
0000
0000
3000
0000
,
0000
0000
0001
0000
,
0000
1000
0000
0000
,
0000
0000
0002
0000
,
0000
0000
0000
0000
,
0003
0000
0001
0000
,
0000
0000
1000
0010
,
0001
0000
0100
0000
,
1000
0000
0101
0000
,
1000
0000
0100
0000
,
0001
0000
0100
0000
,
1000
0000
1010
0000
,
0001
0000
0100
0000
,
0001
0000
0100
0000
,
1000
0000
0100
0000
,
0001
0000
0010
0000
,
1000
0000
0101
0000
,
1000
0000
0100
0000
,
0001
0000
0100
0000
,
1000
0000
1010
0000
,
0001
0000
0100
0000
,
0101
0000
0000
0001
,
0000
0000
1000
0010
,
0001
0000
0100
0000
,
1000
0000
0101
0000
,
1000
0000
0100
0000
,
0001
0000
0100
0000
,
0001
0000
0100
0000
,
1000
0000
0010
0000
,
0001
0000
0100
0000
,
0001
0000
0010
0000
,
1000
0000
0010
0000
,
1000
0000
0010
0000
,
1000
0000
0100
0000
,
1000
0000
0100
0000
,
1000
0000
1010
0000
,
0001
0000
0100
0000
,
0001
0000
0000
0000
,
1000
0000
0000
0000
;

//---------------dance-single - ----------------
#NOTEDATA:;
#CHARTNAME:;
#STEPSTYPE:dance-single;
#DESCRIPTION:;
#CHARTSTYLE:;
#DIFFICULTY:Medium;
#METER:6;
#RADARVALUES:0.353767,0.627472,0.282539,0.088640,0.000000,447.000000,396.000000,51.000000,16.000000,0.000000,0.000000,0.000000,0.000000,0.000000,0.353767,0.627472,0.282539,0.088640,0.000000,447.000000,396.000000,51.000000,16.000000,0.000000,0.000000,0.000000,0.000000,0.000000;
#CREDIT:DubStepManiac;
#NOTES:
0000
0000
0000
0000
,
0000
0000
0000
0000
,
0000
0000
0000
0001
,
0000
0000
0000
0001
,
0000
0000
0001
0000
,
0000
0000
0000
1000
,
0000
0000
0000
0000
,
0001
0000
0000
0000
,
0001
0000
0000
0000
,
0000
0000
0000
1000
,
0000
0000
0000
0001
,
0000
0000
0000
0001
,
0000
0000
0001
0000
,
0000
0000
0000
0001
,
0000
0000
0001
0000
,
0000
0000
0001
0000
,
0000
0000
0001
0000
,
0000
0000
2000
0001
,
0000
0000
3000
1000
,
0000
0000
0001
0000
,
0000
0000
0002
0000
,
0000
0000
0003
0000
,
0000
0000
0001
0000
,
0000
0000
1000
0000
,
0000
0000
2000
0000
,
0000
0000
3000
0000
,
0000
0000
1000
0000
,
0001
0000
0100
0000
,
0001
1000
0000
0000
,
0000
0000
0000
0001
,
0000
0000
0002
1000
,
0000
0000
0003
0000
,
0001
0000
0010
0000
,
1000
1000
0100
0000
,
1000
0100
0000
0000
,
0000
0001
0000
0000
,
0001
0100
0000
0000
0001
0000
0001
0000
,
1000
0000
0002
0100
,
0000
0010
0003
0001
,
1000
0000
0001
0000
,
0002
0000
0000
0010
,
0003
0000
1000
0100
,
1000
0001
0200
0000
,
0000
0001
0000
0000
,
0300
1000
1010
0001
,
1000
0000
0010
0100
,
2000
0000
3000
0100
,
0001
0010
0100
0000
,
0101
0001
0000
0000
,
0000
0000
1000
1000
,
1000
0100
1001
0000
,
0000
0001
0000
0000
,
0000
0000
0010
0010
,
0001
0000
0100
0001
,
0101
0000
0001
0100
1000
0000
0000
0000
,
0001
0010
0100
0000
,
0101
0001
0000
0000
,
0000
0000
1000
1000
,
1000
0100
1001
0000
,
1000
0000
0001
0000
,
0001
1000
1010
0001
,
1000
0001
0011
0000
,
1000
0001
1000
1000
,
0001
0000
0000
0100
,
0000
0000
1000
0010
,
0000
0001
0100
0000
,
1000
0000
0010
0010
,
0001
0000
0000
0000
,
0001
0001
0000
0100
,
0001
0010
0100
0000
,
0000
0000
1000
0010
,
0001
0000
0000
0000
,
0000
0000
1000
0100
,
0001
0000
0000
0100
,
0000
0000
1000
1000
,
0000
0000
0000
0001
,
0001
0001
0000
0100
,
0000
1000
0100
0000
,
0000
0001
0100
0000
,
1000
0010
0000
0000
,
0000
0000
0001
0000
,
0000
0000
0001
0000
,
1000
0000
0001
0000
,
0001
2000
0000
0000
,
0000
3010
0000
0000
,
0001
0000
0100
0000
,
1000
0000
0001
0000
,
1000
0001
0000
0000
,
0001
0010
0100
0000
,
1000
0000
0001
0000
,
1000
0000
0001
0000
,
0001
0000
0100
0000
,
0001
0010
0000
0000
,
0001
0000
0000
0000
,
0000
0000
1000
0100
,
0000
0000
0001
0000
,
1000
0001
1000
1000
,
1000
0001
1000
1000
,
0001
1000
0200
0001
,
0000
0010
0300
0000
,
0110
0001
1010
0001
,
1000
0000
0010
0100
,
1100
0001
1000
0001
,
0001
0010
0100
0000
,
1000
1000
0100
0000
,
0000
0000
1000
0100
,
1000
0001
0000
0000
,
0000
0001
0000
0000
,
0110
0001
1010
0001
,
1000
0000
0010
0100
,
2000
0000
3000
0100
,
0001
0001
0001
0000
,
0101
0001
0000
0000
,
0000
0000
1000
1000
,
1000
0100
0020
0000
,
0000
0001
0000
0030
,
0110
0001
1010
0001
,
1000
0000
0010
0100
,
1100
0001
1000
0001
,
0001
0001
0001
0000
,
0101
0001
0000
0000
,
0000
0000
1000
1000
,
1000
1010
0001
0000
,
0001
0000
0100
0000
,
0110
1000
0110
0000
,
0001
0000
0002
0000
,
0000
0000
0003
0020
,
0000
0000
0000
0000
,
0030
0100
0000
0000
0000
0000
0000
0000
,
0000
0000
1000
0000
0000
0000
0000
0010
,
1000
0001
0000
0000
,
0001
0010
0100
0000
,
1000
0000
0001
0000
,
0000
0000
1000
0000
0000
0000
0000
0010
,
0000
1000
0001
0000
,
1000
0200
0000
0000
,
0000
0000
0300
0000
,
0001
0000
0100
0000
,
0000
1000
0001
0000
,
0000
0000
0002
1000
,
0000
0000
0000
0000
,
0003
0000
1000
1000
,
0001
0000
1001
1000
,
0001
1000
1010
0001
,
1000
0001
0011
0000
,
1000
0001
1000
1000
,
0001
1000
1010
0001
,
0110
1000
0110
0000
,
0001
1000
1010
0001
,
1000
0001
0101
1000
,
1000
0001
0101
1000
,
1000
0001
0011
1000
,
1000
0001
0011
0000
,
1000
0001
1000
1000
,
0001
1000
1010
0001
,
0110
1000
0110
0000
,
0001
1000
1010
0001
,
1100
0000
0000
1000
,
0001
0000
1001
1000
,
0001
1000
1010
0001
,
1000
0001
0011
0000
,
1000
0001
1000
1000
,
0001
1000
1010
0001
,
0001
1000
1100
0001
,
0001
1000
1100
0001
,
1000
0001
0101
1000
,
0001
1000
1010
0001
,
1000
0001
0011
1000
,
1001
0010
0110
0000
,
1000
0001
1000
1000
,
0001
1000
0001
0001
,
0110
1000
0110
0000
,
0001
1000
1010
0001
,
0001
0001
0000
0000
0000
0000
0000
0000
,
1000
0001
0000
0000
;

//---------------dance-single - ----------------
#NOTEDATA:;
#CHARTNAME:;
#STEPSTYPE:dance-single;
#DESCRIPTION:;
#CHARTSTYLE:;
#DIFFICULTY:Hard;
#METER:8;
#RADARVALUES:0.558747,0.738757,0.725738,0.144040,0.000000,706.000000,575.000000,131.000000,26.000000,0.000000,0.000000,0.000000,0.000000,0.000000,0.558747,0.738757,0.725738,0.144040,0.000000,706.000000,575.000000,131.000000,26.000000,0.000000,0.000000,0.000000,0.000000,0.000000;
#CREDIT:;
#NOTES:
0000
0000
0000
0000
,
0000
0000
0000
0000
,
0000
0000
1000
0000
,
0000
0000
0000
1000
,
1000
0000
0001
0000
,
0200
0000
0000
1000
,
1000
0000
0301
0000
,
1000
0000
0000
0000
,
0001
0000
0000
0000
,
0000
0000
0001
0000
,
0000
0000
0001
0000
,
0000
0000
0000
1000
,
1000
0000
0001
0000
,
0000
0000
0000
1000
,
0000
0000
0001
0000
,
1000
0000
0001
0000
,
1000
0000
0001
0000
,
0000
0000
0200
1000
,
0000
0000
0301
0000
,
1000
0000
0001
0000
,
1000
0000
0200
0000
,
0001
0000
1300
0000
,
1000
0000
0001
0000
,
0001
0000
1000
0000
,
0001
0000
2000
0000
,
0010
0000
3001
1000
,
0000
0000
0001
1000
,
0001
0000
0010
0010
,
0001
0000
0100
0000
,
0100
0000
1000
0000
,
0000
0000
1002
1000
,
0000
0000
1000
0000
,
0010
0103
0001
0000
,
0011
0000
1000
0000
0001
0100
0000
0000
,
1000
0001
2000
0000
,
0001
0001
0010
3000
,
0110
0000
0100
0100
,
1000
0000
0200
0001
,
0001
0000
1000
0000
0000
0301
0000
0000
,
1000
0000
1000
0000
0100
0000
0000
0100
,
0000
0100
0010
0010
,
1000
0000
0011
0001
,
1000
0100
0010
0000
0010
0000
0000
0000
,
0001
0001
0010
0000
,
1000
0000
1010
0000
,
1000
0000
0000
0000
0001
0100
0001
0000
,
1000
0001
0020
0100
,
1000
0130
1000
0000
,
1001
0000
0000
0001
0000
0000
0001
0000
,
0100
0010
0100
0000
1000
0000
1000
0000
,
1000
0001
0011
0000
,
0200
0001
0001
1000
,
1300
0100
0010
0010
,
1000
0000
0010
0100
,
0011
0000
1000
0100
1000
0000
0020
0000
,
1000
0100
1030
0000
,
1001
0001
0010
0100
,
0000
0000
1000
1000
,
1000
0001
0011
0000
,
1200
0000
0000
0300
0100
0000
0000
0000
,
0110
0000
1010
0000
,
1000
0100
0010
0000
0101
0000
0000
0000
,
1001
0001
0101
1000
,
0001
0000
0010
0000
,
0100
0000
1000
0001
,
0000
0001
0010
0000
,
1000
0100
0010
0010
,
1000
0000
0010
0000
,
0001
0001
0000
1000
,
1000
0100
1000
0000
,
0101
0000
0000
0000
1000
0000
0001
0010
,
1000
0000
0100
0000
,
2000
0000
0000
3000
1000
0000
0010
0000
,
0001
0010
0000
0000
0010
0000
0000
0000
,
0100
0000
1000
1000
,
1000
0000
1000
0000
,
0001
0001
0000
1000
,
1000
0001
0010
0000
,
0000
0001
0010
0000
,
1000
0100
0000
0100
,
1000
0000
0001
0000
,
1000
0000
0000
0000
0001
0010
0001
0000
,
1000
0000
0100
0000
,
1000
0002
0010
0000
,
1000
0103
0010
0100
,
0001
0000
0010
0010
,
1000
0000
0000
0000
0100
1000
0000
0000
,
0001
0010
0110
0000
,
1000
0100
1000
0000
,
1000
0100
0101
0000
,
1000
0000
0000
0000
0100
1000
0000
0000
,
0001
0000
0010
0100
0010
0000
0010
0000
,
1000
0100
0100
0000
0010
0000
0001
0000
,
0000
0001
0100
0000
,
1000
0000
0011
0001
,
0000
0000
0000
0000
0001
1000
0000
0000
,
1001
0001
0101
0000
,
0001
1001
0101
0000
,
0001
0001
1002
0000
,
1000
0100
0013
0000
,
0110
0001
0101
1000
,
1000
0000
0000
0000
0001
0100
0001
0000
,
0011
0000
1000
0000
0001
0000
0100
0001
,
1000
0100
1000
0000
,
0011
0000
1000
0000
0001
0100
0000
0000
,
1000
0000
0011
0001
,
1000
0100
0010
0000
0010
0001
0000
0000
,
0001
0010
0001
0000
0010
0000
0000
0000
,
0110
0001
0101
1000
,
1000
0000
0000
0000
0001
0100
0001
0000
,
1000
0001
0020
0100
,
1000
0130
1000
0000
,
1001
0000
0000
0001
0000
0000
0001
0000
,
0100
0010
0100
0000
1000
0000
1000
0000
,
1000
0001
0011
0000
,
0200
0001
0001
1000
,
1300
0100
0010
0010
,
1000
0000
0010
0100
,
0011
0000
1000
0100
1000
0000
0020
0000
,
1000
0100
1030
0000
,
1001
0000
0001
0010
0001
0000
0100
1000
,
0100
0000
1000
1000
,
1000
0001
0011
0000
,
1200
0000
0000
0300
0100
0000
0000
0000
,
0110
0000
1010
0000
,
1000
0100
0010
0000
0101
0000
0000
0000
,
1001
0001
0101
1000
,
0001
0010
0001
0000
0010
0000
0000
0000
,
0100
0000
0000
0000
1000
0000
0001
0010
,
0001
0001
0010
0000
,
1000
0000
0100
0000
0010
0000
0010
0100
,
1000
0100
0010
0000
,
0001
0000
0001
0000
0100
1000
0100
0000
,
1000
0000
0100
0000
,
1001
0001
0101
1000
,
0001
0010
0001
0000
0100
0000
0000
0000
,
1000
0000
0001
0010
0001
0000
0001
0000
,
0010
0000
1000
0100
1000
0000
0100
0000
,
0010
0000
0010
0100
1000
0000
0000
0000
,
0010
0000
0001
0010
0001
0000
0100
0000
,
1000
0100
1000
0000
0100
0000
0100
0010
,
0100
0001
1000
0000
,
0001
0000
1010
0010
,
0110
0000
1010
0000
,
1000
0100
0010
0000
0101
0000
0000
0000
,
1001
0001
0101
1000
,
0110
0000
1010
0000
,
0101
1000
1001
0000
,
0110
0000
1010
0000
,
0110
0000
1010
0000
,
0110
0000
0101
0000
,
0110
0000
0011
0000
,
1000
0100
0010
0000
0101
0000
0000
0000
,
1001
0001
0101
1000
,
0110
0010
1010
0100
,
0101
1000
1001
0001
,
0101
0100
1100
0000
,
1001
0000
0000
0000
0020
0030
0010
0000
,
0001
0000
1010
0010
,
0110
0000
1010
0000
,
1000
0100
0010
0000
0101
0000
0000
0000
,
1001
0001
0101
1000
,
0110
0000
1010
0000
,
0110
0000
1010
0000
,
0110
0010
0101
0100
,
1010
0000
1010
0000
,
0110
0000
1010
0000
,
0110
0000
1010
0000
,
1100
0001
1100
0100
,
1001
0001
0101
1000
,
1001
1000
1010
0001
,
0101
1000
2002
3003
,
0110
0000
1010
0000
,
0001
0001
0010
0000
0000
0000
0001
0000
,
0020
0030
1100
0000
,
1010
0010
0011
0000
,
0101
0100
1100
0100
,
0110
0100
1001
0000
,
1010
0000
0011
0010
,
1010
0000
1100
0100
,
0101
0100
0110
0100
,
1001
0000
1020
0100
,
0002
0033
1100
0100
,
0101
0000
0011
0010
,
1010
0010
0110
0100
,
1001
0000
1020
0100
,
0001
0130
1100
0100
,
0101
0000
0011
0010
,
1010
0010
0110
0100
,
1001
0000
1020
0000
,
0031
0000
0110
0000
;

//---------------dance-single - ----------------
#NOTEDATA:;
#CHARTNAME:;
#STEPSTYPE:dance-single;
#DESCRIPTION:;
#CHARTSTYLE:;
#DIFFICULTY:Challenge;
#METER:9;
#RADARVALUES:0.585655,0.738757,0.786677,0.177279,0.000000,740.000000,598.000000,142.000000,32.000000,0.000000,0.000000,0.000000,0.000000,0.000000,0.585655,0.738757,0.786677,0.177279,0.000000,740.000000,598.000000,142.000000,32.000000,0.000000,0.000000,0.000000,0.000000,0.000000;
#CREDIT:;
#NOTES:
// measure 0
0000
0000
0000
0000
,  // measure 1
0000
0000
0000
0000
,  // measure 2
0000
0000
0001
0000
,  // measure 3
0000
0000
0000
0001
,  // measure 4
0001
0000
1000
0000
,  // measure 5
0020
0000
0000
0001
,  // measure 6
0001
0000
1030
0000
,  // measure 7
0001
0000
0000
0000
,  // measure 8
1000
0000
0000
0000
,  // measure 9
0000
0000
1000
0000
,  // measure 10
0000
0000
1000
0000
,  // measure 11
0000
0000
0000
0001
,  // measure 12
0001
0000
1000
0000
,  // measure 13
0000
0000
0000
1000
,  // measure 14
0000
0000
0012
0000
,  // measure 15
1000
0000
0013
0000
,  // measure 16
1000
0000
0102
0000
,  // measure 17
1000
0000
0000
0000
0103
0000
1000
0100
,  // measure 18
1000
0100
0012
0000
,  // measure 19
1000
0000
0013
0000
,  // measure 20
1000
0000
0200
0000
,  // measure 21
0001
0000
1300
0000
,  // measure 22
1000
0000
0012
0000
,  // measure 23
0100
0000
0013
0000
,  // measure 24
1000
0000
0102
0000
,  // measure 25
1000
0000
0000
0000
0103
0000
1000
0100
,  // measure 26
1000
0100
0012
0000
,  // measure 27
1000
0000
0013
0010
,  // measure 28
0001
0000
1200
0000
,  // measure 29
0010
0000
1300
0000
,  // measure 30
0100
0000
0102
0100
,  // measure 31
0010
0000
0100
0000
,  // measure 32
1000
0103
0001
0000
,  // measure 33
0011
0000
1000
0000
0001
0010
0100
0000
,  // measure 34
1000
0001
2000
0000
,  // measure 35
0010
0010
0100
3000
,  // measure 36
0011
0000
0100
0100
,  // measure 37
1000
0000
0200
0000
0001
0010
0001
0000
,  // measure 38
0001
0000
1000
0000
0000
0310
0000
0000
,  // measure 39
1000
0000
1000
0000
0100
0000
0000
0010
,  // measure 40
0000
0000
0100
0000
0010
0001
0010
0000
,  // measure 41
1000
0000
0011
0001
,  // measure 42
1000
0100
0010
0000
0010
0000
0000
0000
,  // measure 43
0001
0001
0010
0000
,  // measure 44
1000
0000
1010
0000
,  // measure 45
1000
0000
0000
0000
0001
0100
0001
0000
,  // measure 46
1000
0001
0020
0100
,  // measure 47
1000
0130
1000
0000
,  // measure 48
1001
0000
0000
0001
0000
0000
0001
0000
,  // measure 49
0100
0010
0100
0000
1000
0000
1000
0000
,  // measure 50
1000
0001
0011
0000
,  // measure 51
0200
0001
0001
1000
,  // measure 52
1300
0100
0010
0010
,  // measure 53
1000
0000
0010
0100
,  // measure 54
0011
0000
1000
0100
1000
0000
0020
0000
,  // measure 55
1000
0100
1030
0000
,  // measure 56
1001
0001
0010
0100
,  // measure 57
0000
0000
1000
1000
,  // measure 58
1000
0001
0011
0000
,  // measure 59
1200
0000
0000
0300
0100
0000
0000
0000
,  // measure 60
0110
0000
1010
0000
,  // measure 61
1000
0100
0010
0000
0101
0000
0000
0000
,  // measure 62
1001
0001
0101
1000
,  // measure 63
0001
0000
0010
0000
,  // measure 64
0100
0000
1000
0001
,  // measure 65
0000
0001
0010
0000
,  // measure 66
1000
0100
0010
0010
,  // measure 67
1000
0000
0010
0000
,  // measure 68
0001
0001
0000
1000
,  // measure 69
1000
0100
1000
0000
,  // measure 70
0101
0000
0000
0000
1000
0000
0001
0010
,  // measure 71
1000
0000
0100
0000
,  // measure 72
2000
0000
0000
3000
1000
0000
0010
0000
,  // measure 73
0001
0010
0000
0000
0010
0000
0000
0000
,  // measure 74
0100
0000
1000
1000
,  // measure 75
1000
0000
1000
0000
,  // measure 76
0001
0001
0000
1000
,  // measure 77
1000
0001
0010
0000
,  // measure 78
0000
0001
0010
0000
,  // measure 79
1000
0100
0000
0100
,  // measure 80
1000
0000
0001
0000
,  // measure 81
1000
0000
0000
0000
0001
0010
0001
0000
,  // measure 82
1000
0000
0100
0000
,  // measure 83
1000
0002
0010
0000
,  // measure 84
1000
0103
0010
0100
,  // measure 85
0001
0000
0010
0010
,  // measure 86
1000
0000
0000
0000
0100
1000
0000
0000
,  // measure 87
0001
0010
0110
0000
,  // measure 88
1000
0100
1000
0000
,  // measure 89
1000
0100
0101
0000
,  // measure 90
1000
0000
0000
0000
0100
1000
0000
0000
,  // measure 91
0001
0000
0010
0100
0010
0000
0010
0000
,  // measure 92
1000
0100
0100
0000
0010
0000
0001
0000
,  // measure 93
0000
0001
0100
0000
,  // measure 94
1000
0000
0000
0000
0001
0010
0001
0000
,  // measure 95
0101
0000
0001
0010
0001
0000
0001
0000
,  // measure 96
1100
1000
1010
0000
,  // measure 97
0001
1001
0101
0000
,  // measure 98
0001
0010
0001
0000
1002
0000
0000
0000
,  // measure 99
1000
0100
0013
0000
,  // measure 100
0100
0010
0001
0000
0101
0000
1000
0000
,  // measure 101
2000
0000
3100
0000
0001
0100
0001
0000
,  // measure 102
0011
0000
1000
0000
0001
0000
0100
0001
,  // measure 103
1000
0100
1000
0100
,  // measure 104
0011
0000
1000
0000
0001
0100
0001
0000
,  // measure 105
1000
0100
0010
0000
0011
0000
0001
0000
,  // measure 106
1000
0100
0010
0000
0010
0001
0000
0000
,  // measure 107
0001
0010
0001
0000
0010
0000
0000
0000
,  // measure 108
0110
0001
0101
1000
,  // measure 109
1000
0000
0000
0000
0001
0100
0001
0000
,  // measure 110
1000
0001
0020
0100
,  // measure 111
1000
0130
1100
0000
,  // measure 112
1001
0000
0000
0001
0000
0000
0011
0000
,  // measure 113
0100
0010
0100
0000
1010
0000
1000
0000
,  // measure 114
1001
0001
0011
0000
,  // measure 115
0200
0001
0001
1000
,  // measure 116
1300
0100
0010
0010
,  // measure 117
1100
0000
0010
0100
,  // measure 118
0011
0000
1000
0100
1000
0000
0020
0000
,  // measure 119
1000
0100
1030
0000
,  // measure 120
1001
0000
0001
0010
0001
0000
0100
1000
,  // measure 121
0100
0000
1000
1000
,  // measure 122
1000
0001
0011
0000
,  // measure 123
1200
0000
0000
0300
0100
0000
0000
0000
,  // measure 124
0110
0000
1010
0000
,  // measure 125
1000
0100
0010
0000
0101
0000
0000
0000
,  // measure 126
1001
0001
0101
1000
,  // measure 127
0001
0010
0001
0000
0010
0000
0000
0000
,  // measure 128
0100
0000
0000
0000
1000
0000
0001
0010
,  // measure 129
0001
0001
0010
0000
,  // measure 130
1000
0000
0100
0000
0010
0000
0010
0100
,  // measure 131
1000
0100
0010
0000
,  // measure 132
0001
0000
0001
0000
0100
1000
0100
0000
,  // measure 133
1000
0000
0100
0000
,  // measure 134
1001
0001
0101
1000
,  // measure 135
0001
0010
0001
0000
0100
0000
0000
0000
,  // measure 136
1000
0000
0001
0010
0001
0000
0001
0000
,  // measure 137
0010
0000
1000
0100
1000
0000
0100
0000
,  // measure 138
0010
0000
0010
0100
1000
0000
0000
0000
,  // measure 139
0010
0000
0001
0010
0001
0000
0100
0000
,  // measure 140
1000
0100
1000
0000
0100
0000
0100
0010
,  // measure 141
0100
0001
1000
0000
,  // measure 142
0001
0000
1010
0010
,  // measure 143
0110
0000
1010
0000
,  // measure 144
1000
0100
0010
0000
0101
0000
0000
0000
,  // measure 145
1001
0001
0101
1000
,  // measure 146
0110
0000
1010
0000
,  // measure 147
0101
1000
1001
0000
,  // measure 148
0110
0000
1010
0000
,  // measure 149
0110
0000
1010
0000
,  // measure 150
0110
0000
0101
0000
,  // measure 151
0110
0000
0011
0000
,  // measure 152
1000
0100
0010
0000
0101
0000
0000
0000
,  // measure 153
1001
0001
0101
1000
,  // measure 154
0110
0010
1010
0100
,  // measure 155
0101
1000
1001
0001
,  // measure 156
0101
0100
1100
0000
,  // measure 157
1001
0000
0000
0000
0020
0030
0010
0000
,  // measure 158
0001
0000
1010
0010
,  // measure 159
0110
0000
1010
0000
,  // measure 160
1000
0100
0010
0000
0101
0000
0000
0000
,  // measure 161
1001
0001
0101
1000
,  // measure 162
0110
0000
1010
0000
,  // measure 163
0110
0000
1010
0000
,  // measure 164
0110
0010
0101
0100
,  // measure 165
1010
0000
1010
0000
,  // measure 166
0110
0000
1010
0000
,  // measure 167
0110
0000
1010
0000
,  // measure 168
1100
0001
1100
0100
,  // measure 169
1001
0001
0101
1000
,  // measure 170
1001
1000
1010
0001
,  // measure 171
0101
1000
2002
3003
,  // measure 172
0110
0000
1010
0000
,  // measure 173
0001
0001
0010
0000
0000
0000
0001
0000
,  // measure 174
0020
0030
1100
0000
,  // measure 175
1010
0010
0011
0000
,  // measure 176
0101
0100
1100
0100
,  // measure 177
0110
0100
1001
0000
,  // measure 178
1010
0000
0011
0010
,  // measure 179
1010
0000
1100
0100
,  // measure 180
0101
0100
0110
0100
,  // measure 181
1001
0000
1020
0100
,  // measure 182
0002
0033
1100
0100
,  // measure 183
0101
0000
0011
0010
,  // measure 184
1010
0010
0110
0100
,  // measure 185
1001
0000
1020
0100
,  // measure 186
0001
0130
1100
0100
,  // measure 187
0101
0000
0011
0010
,  // measure 188
1010
0010
0110
0100
,  // measure 189
1001
0000
1020
0000
,  // measure 190
0031
0000
0110
0000
;
