#VERSION:0.83;
#TITLE:Helicopter;
#SUBTITLE:;
#ARTIST:CLC;
#TITLETRANSLIT:;
#SUBTITLETRANSLIT:;
#ARTISTTRANSLIT:;
#GENRE:;
#ORIGIN:;
#CREDIT:DubStepManiac;
#BANNER:Helicopter.png;
#BACKGROUND:Helicopter-bg.png;
#PREVIEWVID:;
#JACKET:jacket.png;
#CDIMAGE:;
#DISCIMAGE:;
#LYRICSPATH:;
#CDTITLE:cdtitle.png;
#MUSIC:Helicopter.mp3;
#OFFSET:-1.556281;
#SAMPLESTART:40.270565;
#SAMPLELENGTH:12.000000;
#SELECTABLE:YES;
#BPMS:0.000=154.982;
#STOPS:;
#DELAYS:;
#WARPS:;
#TIMESIGNATURES:0.000=4=4;
#TICKCOUNTS:0.000=4;
#COMBOS:0.000=1;
#SPEEDS:0.000=1.000=0.000=0;
#SCROLLS:0.000=1.000;
#FAKES:;
#LABELS:0.000=Song Start;
#BGCHANGES:0.000=Helicopter.mp4=1.000=0=0=0=StretchNoLoop====,
99999=-nosongbg-=1.000=0=0=0 // don't automatically add -songbackground-
;
#KEYSOUNDS:;
#ATTACKS:
;

//---------------dance-single - ----------------
#NOTEDATA:;
#CHARTNAME:;
#STEPSTYPE:dance-single;
#DESCRIPTION:;
#CHARTSTYLE:;
#DIFFICULTY:Easy;
#METER:4;
#RADARVALUES:0.274392,0.410593,0.102800,0.059516,0.000000,355.000000,336.000000,19.000000,11.000000,7.000000,0.000000,0.000000,0.000000,0.000000,0.274392,0.410593,0.102800,0.059516,0.000000,355.000000,336.000000,19.000000,11.000000,7.000000,0.000000,0.000000,0.000000,0.000000;
#CREDIT:DubStepManiac;
#NOTES:
000M
0000
00M0
0000
,
0M00
0000
M000
0000
,
0M00
0000
00M0
0000
,
100M
1100
0001
0000
,
0000
0001
1000
0000
,
1000
0010
1000
0100
,
1000
0000
0000
0000
,
1000
1100
0001
0000
,
0000
0001
1000
0000
,
0001
0110
1000
0010
,
0000
1000
0000
1000
,
0001
0100
0010
0000
,
0000
1000
0000
1000
,
0000
0000
0101
0000
0001
1000
0100
0000
,
0101
0001
1100
0001
,
0001
0100
0000
0001
,
1000
0000
1000
0100
0010
0000
0001
0000
,
1000
0010
1000
0100
,
1000
1000
0010
0200
,
0000
0010
0000
0300
,
1000
1000
0010
0001
,
1000
0010
0100
0010
,
1001
1000
1100
0001
,
0001
0100
0000
0001
,
1000
0000
1000
0100
0010
0000
0001
0000
,
1000
0010
1000
0100
,
1000
1000
0010
0001
,
1000
0000
0000
0100
,
0020
1000
0000
0000
,
0000
1000
0030
1000
,
0020
0001
0000
0001
,
0030
0001
0000
0001
,
0000
0001
1000
0000
,
0000
1000
0000
0000
,
0000
0200
0000
1000
,
0000
0300
1000
0010
,
0000
0001
1000
0000
,
0000
1000
0000
1000
,
0000
0001
0100
0000
,
0000
0001
0100
0000
,
0000
0002
0000
1000
,
0000
0003
0100
0000
,
0001
0000
0010
0000
,
0001
0110
1000
0010
,
0000
0001
1000
0000
,
0001
0110
1000
0010
,
0000
1000
0000
1000
,
1000
1100
1000
0010
,
0001
1000
0100
0001
,
1000
0010
1000
0100
,
1000
1000
0010
0001
,
1000
0001
0000
1000
,
0001
0010
0100
1000
,
1000
0001
0010
0001
,
1001
1000
1100
0001
,
0001
0010
0100
0010
,
1000
0000
1000
0100
0010
0000
0001
0000
,
1000
0010
1000
0100
,
1000
1000
0010
0001
,
1000
0010
0000
1000
,
0000
0000
0011
0000
0001
1000
0100
0000
,
0000
0000
0101
0000
0001
1000
0100
0000
,
0001
1000
0100
0001
,
0001
0100
0000
0001
,
1000
0000
1000
0100
0010
0000
0001
0000
,
1000
0010
1000
0100
,
1000
1000
0010
0001
,
1000
0010
2000
3000
,
1000
0000
1000
0100
0010
0000
0001
0000
,
1000
1100
1000
0010
,
0001
1000
0100
0001
,
0001
0100
0000
0001
,
1000
0000
1000
0100
0010
0000
0001
0000
,
1000
0010
1000
0100
,
1000
1000
0010
0001
,
1000
0010
1000
0200
,
0000
1000
0000
0010
,
0000
0301
0100
0000
,
0000
1000
0000
1000
,
0000
0001
0002
0000
,
0000
1000
0003
0100
,
0000
1000
0010
0000
,
0000
1000
0000
0100
,
0000
1000
0010
0000
,
0000
0001
0001
0000
,
0000
0001
0100
0000
,
0000
0001
0100
0000
,
0000
0001
0100
0000
,
0000
1000
0010
0000
,
0000
0001
0100
0000
,
0001
0000
0010
0000
,
1000
0010
1000
0000
,
0000
1000
0000
1000
,
0000
0001
1000
0000
,
0000
1000
0000
0000
,
0000
0001
1000
0000
,
0000
1000
0000
1000
,
0000
0001
1000
0000
,
0000
1000
0000
0000
,
0000
1000
0010
0000
,
0000
1000
0010
0100
,
0001
0100
0100
0000
,
0000
1000
0010
0100
,
0001
0100
0100
0000
,
0000
1000
0010
0100
,
0001
0100
0100
0000
,
1000
0000
0000
0000
,
1000
0010
1000
0100
,
0000
1000
0000
1000
,
0001
0110
1000
0010
,
0000
1000
0000
1000
,
1000
0001
0010
0001
,
0001
1000
0100
1000
,
1000
0001
0010
0001
,
1000
0001
0100
0110
,
0001
0100
0200
0000
,
0310
2002
0000
3003
;

//---------------dance-single - ----------------
#NOTEDATA:;
#CHARTNAME:;
#STEPSTYPE:dance-single;
#DESCRIPTION:;
#CHARTSTYLE:;
#DIFFICULTY:Medium;
#METER:6;
#RADARVALUES:0.365599,0.474776,0.281349,0.043284,0.000000,473.000000,421.000000,52.000000,8.000000,4.000000,0.000000,0.000000,0.000000,0.000000,0.365599,0.474776,0.281349,0.043284,0.000000,473.000000,421.000000,52.000000,8.000000,4.000000,0.000000,0.000000,0.000000,0.000000;
#CREDIT:DubStepManiac;
#NOTES:
MMMM
0000
0000
0001
,
0000
0000
0000
0001
,
0000
0000
0000
0001
,
0001
1001
0100
0000
,
0000
0001
0010
0000
,
1000
1100
0100
0001
,
0001
0000
0000
0000
,
0001
1001
0100
0000
,
0000
0001
0010
0000
,
0001
1100
0010
0100
,
0000
0001
0000
0001
,
1000
0000
0010
0001
0000
0000
0000
0000
,
0000
0001
0000
0001
,
0000
0000
0101
0000
0001
0100
0010
0000
,
1100
0000
1000
0000
1001
0000
1000
0010
,
0001
0000
0010
0100
0000
0000
0010
0000
,
0110
1000
0101
0001
,
0001
0000
0110
0000
1000
0100
1000
0000
,
1001
0000
0001
0100
0010
0000
0020
0000
,
0000
1000
0000
0030
,
1001
0000
0001
0100
0010
0000
1000
0001
,
1000
0000
0100
0000
0010
0001
0010
0000
,
0101
0000
1000
0000
0011
0000
0010
1000
,
0001
0000
0010
0100
0000
0000
0010
0000
,
0110
1000
0101
0001
,
0001
0000
0110
0000
1000
0100
1000
0000
,
1001
0000
0001
0100
0010
0000
1000
0001
,
1000
0010
0000
0100
,
0020
0100
0000
0000
,
0000
0001
0030
0001
,
2000
0001
0000
0001
,
3000
1000
0000
1000
,
0000
0001
0010
0001
,
0000
0001
0000
0100
,
0000
0010
0000
0001
,
0000
0000
1000
0100
,
0001
0001
0010
0000
,
0001
0001
1000
0001
,
0010
0001
0200
0300
,
0001
0010
0001
0000
0100
0000
0010
0000
,
0100
1000
0010
0001
,
0100
0000
0100
0010
,
1000
0001
0000
0000
0010
0000
0000
0000
,
0001
1100
0010
0100
,
0000
0001
0010
0000
,
0001
1100
0010
0100
,
0000
0001
0000
0001
,
0001
0000
0110
0000
0001
0100
0001
0000
,
1010
0000
0001
0100
0001
0000
0100
0001
,
0001
0000
0110
0000
1000
0100
1000
0000
,
1001
0000
0001
0100
0010
0000
1000
0001
,
0001
0010
0100
0010
,
1000
0000
0100
1000
0001
0000
0100
0001
,
1000
0010
1000
0000
0100
1000
0001
0000
,
0101
1000
0011
0010
,
1010
0000
1000
1000
0001
0000
0100
0000
,
0110
1000
0101
0001
,
0001
0000
0110
0000
1000
0100
1000
0000
,
1001
0000
0001
0100
0010
0000
1000
0001
,
0001
0000
1000
0000
0010
0100
1000
0000
,
0100
0010
0001
0000
0100
0010
0001
0000
,
1010
0000
0101
0000
0001
0100
0010
0000
,
1010
0000
0001
0100
0001
0000
0100
0001
,
0001
0000
0010
0100
0000
0000
0010
0000
,
0110
1000
0101
0001
,
0001
0000
0110
0000
1000
0100
1000
0000
,
1001
0000
0001
0100
0010
0000
1000
0001
,
0001
1000
0100
0110
,
0100
1000
0001
0101
,
0001
0000
0100
0000
0001
0100
0011
0000
,
1000
0000
0001
0100
0001
0000
0110
0001
,
0001
0000
0010
0100
0000
0000
0010
0000
,
0110
1000
0101
0001
,
0001
0000
0110
0000
1000
0100
1000
0000
,
1001
0000
0001
0100
0010
0000
1000
0001
,
0001
1000
0000
1002
,
0000
1000
0000
1000
,
0000
1003
0100
2010
,
0000
0001
0000
0001
,
0000
3001
0100
0010
,
0000
0001
0000
0100
,
0000
1000
0010
1000
,
0000
0001
0000
0100
,
0000
1000
0010
1000
,
0000
0000
1000
0000
1000
0010
0000
0000
,
0000
0001
0100
0010
,
0000
1000
0010
0100
,
0000
0001
0100
0010
,
0000
1000
0010
0100
,
0000
1000
0010
0100
,
1000
0001
0000
0000
0010
0000
0000
0000
,
0001
1000
0100
0000
,
0000
0001
0000
0001
,
0000
0001
0010
0000
,
0000
0001
0000
0100
,
0000
0001
0010
0000
,
0000
0001
0000
0001
,
0000
0001
0010
0000
,
0000
0001
0000
0100
,
0000
1000
0010
1000
,
0000
0000
0001
0000
0100
0001
0100
0000
,
1000
0001
0001
1000
,
0000
0000
0001
0000
0100
0001
0100
0000
,
1000
0001
0001
1000
,
0000
0000
0001
0000
0100
0001
0100
0000
,
1000
0001
0001
1000
,
0001
0000
0000
0000
,
1000
1100
0100
0001
,
0000
0001
0000
0001
,
0001
1100
0010
0100
,
0000
0001
0000
0001
,
1000
0010
1000
0000
0100
1000
0001
0000
,
1000
0100
1000
0000
0010
1000
0001
0000
,
0001
0010
0001
0000
0100
0001
1000
0000
,
0001
0010
0001
0000
0100
0000
1100
0000
,
1000
0001
0001
1000
,
0001
0220
0000
0000
,
0330
0000
0000
0000
;

//---------------dance-single - ----------------
#NOTEDATA:;
#CHARTNAME:;
#STEPSTYPE:dance-single;
#DESCRIPTION:;
#CHARTSTYLE:;
#DIFFICULTY:Hard;
#METER:8;
#RADARVALUES:0.516321,0.542678,0.275938,0.113622,0.000000,668.000000,617.000000,51.000000,21.000000,18.000000,0.000000,0.000000,0.000000,0.000000,0.516321,0.542678,0.275938,0.113622,0.000000,668.000000,617.000000,51.000000,21.000000,18.000000,0.000000,0.000000,0.000000,0.000000;
#CREDIT:DubStepManiac;
#NOTES:
MMMM
0000
0000
0000
,
2000
3000
0000
0M00
,
0000
00M0
0000
000M
,
1000
0000
1001
0000
0001
0010
0100
0000
,
1000
0001
0010
0000
,
1000
0000
1100
0000
0010
0100
1000
0000
,
1000
1000
0100
0010
,
1000
0000
1001
0000
0001
0010
0100
0000
,
1000
0000
0001
0000
0010
0000
0100
0010
,
0001
0010
0001
0000
1000
0100
0020
0000
,
0032
0000
0203
0000
0310
0001
0010
0000
,
0011
0100
0001
0010
0100
0000
1000
0010
,
0001
0010
0100
0010
0001
0100
0010
0000
,
1000
0100
1010
0000
0001
0010
0001
0000
,
1001
0000
0001
0100
1010
0100
0001
0010
,
0001
1000
0001
0100
0010
0000
1000
0000
,
1100
0000
1000
0000
0011
0000
0010
0100
,
0001
0000
0101
0000
0100
0010
0001
0000
,
1100
0010
0001
0100
0001
0010
0100
0000
,
1000
0000
1000
0100
0200
0000
0300
0000
,
1100
0010
0002
0100
0013
0000
1000
0010
,
0001
0010
0200
0000
0301
0010
0001
0000
,
1010
0000
0001
0000
0110
0000
0001
0010
,
0001
1000
0001
0100
0010
0000
1000
0000
,
1100
0000
1000
0100
0011
0000
0010
0100
,
0001
0000
0101
0000
0100
0010
0001
0000
,
1100
0000
0001
0100
0001
0010
1000
0010
,
1000
0100
0001
0000
0001
0000
0010
0100
,
0020
1000
0001
0001
,
0001
0100
0130
0100
,
0020
0100
1000
0100
,
1030
0200
0001
0010
,
1000
0301
0010
1000
,
0001
0000
1000
0000
0001
0010
1000
0000
,
0001
1000
0010
0200
,
1300
0000
0001
0000
0010
0100
1000
0000
,
1000
0100
0001
0000
0010
0000
0010
0000
,
0001
0010
0100
0000
0010
0100
1000
0000
,
1000
0100
1000
0000
0100
1000
0010
0000
,
0010
0000
0001
0001
0010
0001
0100
0000
,
0001
0000
0002
0010
0100
1000
0100
0000
,
0010
0000
1003
0000
0100
1000
0010
0000
,
0001
1000
0010
0000
0100
0000
0000
0000
,
0001
0000
0011
0000
1000
0100
0010
0000
,
1000
0001
0010
0101
,
0001
0010
0001
0000
1000
0100
0010
0000
,
0001
0100
0010
0101
,
1000
0000
1100
0000
0001
1000
0100
0000
,
0101
0000
1000
0100
0001
0100
1000
0100
,
0001
0000
0101
0000
0100
0010
0001
0000
,
1100
0000
0001
0100
0001
0000
1000
0010
,
1000
0010
1000
0001
1000
0000
0001
0000
,
1000
0010
0100
0001
0010
1000
0010
0001
,
0001
0010
0001
0010
0001
0100
0010
0000
,
1010
0001
0110
0001
,
1010
0000
0001
0001
0100
0001
0010
0000
,
1100
0000
1000
0000
0011
0000
0010
0100
,
0001
0000
0101
0000
0100
0010
0001
0000
,
1100
0000
0001
0100
0001
0000
1000
0010
,
1000
0100
2000
0000
3100
0001
1000
0000
,
0010
0001
0100
0000
0001
0010
1000
0100
,
1000
0000
1010
0000
0001
0010
0001
0000
,
0001
0100
1000
0100
0001
0100
1000
0100
,
0001
1000
0001
0100
0010
0000
1000
0000
,
1100
0000
1000
0100
0001
0000
0011
0100
,
0001
0000
0101
0000
0100
0010
0001
0000
,
1100
0000
0001
0100
0001
0000
1000
0010
,
1000
0100
1000
0000
0100
0000
1001
0000
,
1000
0100
1000
0010
0001
0010
0001
0100
,
1000
0000
1100
0000
0001
1000
0100
0000
,
0101
0000
1000
0010
0001
0010
1100
0000
,
0001
0000
0001
0100
0010
0000
1100
0000
,
1000
0100
1000
0100
0001
0010
0100
0010
,
0001
0000
0101
0000
0100
0010
0001
0000
,
1100
0000
0001
0100
0001
0000
1000
0010
,
1000
0100
1000
0000
0200
0000
0001
0000
,
0001
1000
1000
0301
,
0001
0000
1000
0000
0100
1000
0010
0000
,
0001
0200
0001
0010
,
1000
0000
0301
0000
0010
0100
1000
0000
,
0010
0001
1000
0000
0100
0010
1000
0000
,
0100
0000
1000
0001
0100
0000
0010
0000
,
0100
0000
1000
0000
0100
0010
1000
0000
,
0001
0000
1000
0001
0100
0000
0010
0000
,
0001
0000
0010
0100
0100
0000
0002
0000
,
0013
0100
1000
0000
0100
1000
0010
0000
,
0001
0100
1000
0000
0100
1000
0010
0000
,
0010
0100
0001
0000
0100
0001
0010
0000
,
1000
0000
0001
0000
0010
0001
0100
0000
,
0010
0000
0001
0000
0010
0001
0100
0000
,
0001
1000
0020
0200
0000
0000
0330
0000
,
1000
0100
1000
0000
0100
0000
1000
0000
,
0001
0100
0100
0100
,
1000
0001
0010
0010
,
1000
0100
1000
0000
0001
0010
0001
0000
,
1000
0001
0010
0010
,
0001
0001
0100
0100
,
1000
0001
0010
0010
,
0100
0010
0100
0000
0001
0010
1000
0000
,
0001
0000
1000
0001
0100
0000
0010
0000
,
1000
0000
0001
0000
0010
0001
0100
0010
,
1000
1000
0100
0010
0010
0000
0100
0000
,
1000
0100
0001
0000
0010
0001
0100
0010
,
1000
1000
0100
0010
0010
0000
0100
0000
,
1000
0000
0001
0100
0010
0001
0100
0010
,
1000
1000
0100
0010
0010
0000
0100
0000
,
1000
0100
2000
0M00
0000
00M0
0000
000M
,
0000
00M0
0000
3M00
0000
0000
0100
0001
,
0000
0100
1000
0101
,
0001
0010
0001
0010
1000
0000
0011
0000
,
0001
0010
1100
0000
1000
0010
0100
0000
,
0001
0010
0001
0010
0001
0100
0010
0100
,
1000
0000
1000
0010
1000
0100
0010
0100
,
1000
0100
1000
0100
1000
0010
0100
0010
,
1000
0000
0101
0010
0001
0010
1000
0000
,
1000
1000
0100
0010
0010
0000
0110
0000
,
1001
0000
2002
0000
0000
0000
0000
3003
,
0000
0000
M00M
0000
0000
M00M
0000
0000
,
M00M
0000
0000
0000
;

//---------------dance-single - ----------------
#NOTEDATA:;
#CHARTNAME:;
#STEPSTYPE:dance-single;
#DESCRIPTION:;
#CHARTSTYLE:;
#DIFFICULTY:Challenge;
#METER:9;
#RADARVALUES:0.529461,0.574601,0.340865,0.124443,0.000000,685.000000,622.000000,63.000000,23.000000,18.000000,0.000000,0.000000,0.000000,0.000000,0.529461,0.574601,0.340865,0.124443,0.000000,685.000000,622.000000,63.000000,23.000000,18.000000,0.000000,0.000000,0.000000,0.000000;
#CREDIT:;
#NOTES:
// measure 0
MMMM
0000
0000
0000
,  // measure 1
0002
0003
0000
00M0
,  // measure 2
0000
0M00
0000
M000
,  // measure 3
0001
0000
1001
0000
1000
0100
0010
0000
,  // measure 4
0001
1000
0100
0000
,  // measure 5
1000
0000
1100
0000
0010
0100
1000
0000
,  // measure 6
1000
1000
0100
0010
,  // measure 7
1000
0000
1001
0000
0001
0010
0100
0000
,  // measure 8
1000
0000
0001
0000
0010
0000
0100
0010
,  // measure 9
0001
0010
0001
0000
1000
0100
0020
0000
,  // measure 10
0032
0000
0203
0000
0310
0001
0010
0000
,  // measure 11
0011
0100
0001
0010
0100
0000
1000
0010
,  // measure 12
0001
0010
0100
0010
0001
0100
0010
0000
,  // measure 13
1000
0100
1010
0000
0001
0010
0001
0000
,  // measure 14
1001
0000
0001
0100
1010
0100
0001
0010
,  // measure 15
0001
1000
0001
0100
0010
0000
1000
0000
,  // measure 16
1100
0000
1000
0000
0011
0000
0010
0100
,  // measure 17
0001
0000
0101
0000
0100
0010
0001
0000
,  // measure 18
1100
0010
0001
0100
0001
0010
0100
0000
,  // measure 19
1000
0000
1000
0100
0200
0000
0300
0000
,  // measure 20
1100
0010
0002
0100
0013
0000
1000
0010
,  // measure 21
0001
0010
0200
0000
0301
0010
0001
0000
,  // measure 22
1010
0000
0001
0000
0110
0000
0001
0010
,  // measure 23
0001
1000
0001
0100
0010
0000
1000
0000
,  // measure 24
1100
0000
1000
0100
0011
0000
0010
0100
,  // measure 25
0001
0000
0101
0000
0100
0010
0001
0000
,  // measure 26
1100
0000
0001
0100
0001
0010
1000
0010
,  // measure 27
1000
0100
0001
0000
0001
0000
0010
0100
,  // measure 28
0020
1000
0001
0100
,  // measure 29
0001
1000
0130
1000
,  // measure 30
0020
0100
0001
0100
,  // measure 31
0031
0200
1000
0010
,  // measure 32
0001
1300
0100
0001
,  // measure 33
1000
0000
0001
0000
1000
0010
0001
0000
,  // measure 34
1000
0001
0010
0200
,  // measure 35
1300
0000
0001
0000
0010
0100
1000
0000
,  // measure 36
1000
0100
0001
0000
0010
0000
0010
0000
,  // measure 37
0001
0010
0100
0000
0010
0100
1000
0000
,  // measure 38
1000
0100
1000
0000
0100
1000
0010
0000
,  // measure 39
0010
0000
0001
0001
0010
0001
0100
0000
,  // measure 40
0001
0000
0002
0010
0100
1000
0100
0000
,  // measure 41
0010
0000
1003
0000
0100
1000
0010
0100
,  // measure 42
0001
1000
0010
0000
0100
0000
0000
0000
,  // measure 43
0001
0000
0011
0000
1000
0100
0010
0000
,  // measure 44
1000
0001
0010
0101
,  // measure 45
0001
0010
0001
0000
1000
0100
0010
0000
,  // measure 46
0001
0100
0010
0101
,  // measure 47
1000
0000
1100
0000
0001
1000
0100
0000
,  // measure 48
0101
0000
1000
0100
0001
0100
1000
0100
,  // measure 49
0001
0000
0101
0000
0100
0010
0001
0000
,  // measure 50
1100
0000
0001
0100
0001
0000
1000
0010
,  // measure 51
1000
0010
1000
0001
1000
0000
0001
0000
,  // measure 52
1000
0010
0100
0001
0010
1000
0010
0001
,  // measure 53
0001
0010
0001
0010
0001
0100
0010
0000
,  // measure 54
1010
0001
0110
0001
,  // measure 55
1010
0000
0001
0001
0100
0001
0010
0000
,  // measure 56
1100
0000
1000
0000
0011
0000
0010
0100
,  // measure 57
0001
0000
0101
0000
0100
0010
0001
0000
,  // measure 58
1100
0000
0001
0100
0001
0000
1000
0010
,  // measure 59
1000
0100
2000
0000
3100
0001
1000
0000
,  // measure 60
0010
0001
0100
0000
0001
0010
1000
0100
,  // measure 61
1000
0000
1010
0000
0001
0010
0001
0000
,  // measure 62
0001
0100
1000
0100
0001
0100
1000
0100
,  // measure 63
0001
1000
0001
0100
0010
0000
1000
0000
,  // measure 64
1100
0000
1000
0100
0002
0003
0011
0100
,  // measure 65
0001
0000
0101
0010
0100
0010
0001
0000
,  // measure 66
1100
0000
0001
0100
0002
0000
1003
0010
,  // measure 67
1000
0100
1000
0000
0100
0000
1001
0000
,  // measure 68
1000
0100
1000
0010
0001
0010
0001
0100
,  // measure 69
1000
0000
1100
0000
0001
1000
0100
0000
,  // measure 70
0101
0000
1000
0010
0001
0010
1100
0000
,  // measure 71
0001
0000
0001
0100
0010
0000
1100
0000
,  // measure 72
1000
0100
1000
0100
0001
0010
0100
0010
,  // measure 73
0001
0000
0101
0000
0100
0010
0001
0000
,  // measure 74
1100
0000
0001
0100
0001
0000
1000
0010
,  // measure 75
1000
0100
1000
0000
0200
0000
0001
0000
,  // measure 76
0010
1000
0010
1300
,  // measure 77
0001
0000
1000
0000
0100
1000
0010
0000
,  // measure 78
0001
0200
0001
0010
,  // measure 79
1000
0000
0301
0000
0010
0100
1000
0000
,  // measure 80
0010
0001
1000
0000
0100
0010
1000
0000
,  // measure 81
0100
0000
1000
0001
0100
0000
0010
0000
,  // measure 82
0100
0000
1000
0000
0100
0010
1000
0000
,  // measure 83
0001
0000
1000
0000
0001
0100
0010
0000
,  // measure 84
0001
0010
0100
0000
0100
0000
0002
0000
,  // measure 85
0013
0100
1000
0000
0100
1000
0010
0000
,  // measure 86
0001
0100
1000
0000
0100
1000
0010
0000
,  // measure 87
0010
0100
0001
0000
0100
0001
0010
0000
,  // measure 88
1000
0000
0001
0000
0010
0001
0100
0000
,  // measure 89
0010
0000
0001
0010
0001
0100
1000
0010
,  // measure 90
0001
1000
0020
0200
0000
0000
0330
0000
,  // measure 91
1000
0100
1000
0000
0100
0000
1010
0000
,  // measure 92
0001
0010
0010
0110
,  // measure 93
1000
0001
0100
0101
,  // measure 94
1000
0100
1000
0000
0001
0010
0001
0000
,  // measure 95
1000
0001
0010
1010
,  // measure 96
0001
0001
0100
0110
,  // measure 97
1000
0001
0100
0101
,  // measure 98
0010
0100
0010
0000
0001
0010
1000
0000
,  // measure 99
0001
0000
1000
0001
0100
0000
1010
0000
,  // measure 100
1000
0000
0001
0000
0010
0001
0110
0010
,  // measure 101
1000
1000
0100
0010
0010
0000
0101
0000
,  // measure 102
1000
0100
0001
0000
0010
0001
0100
0010
,  // measure 103
1000
1000
0100
0001
0001
0000
1010
0000
,  // measure 104
1000
0010
0001
0100
0010
0001
0110
0010
,  // measure 105
1000
1000
0100
0010
0010
0000
0101
0000
,  // measure 106
1000
0100
2000
0M00
0000
00M0
0000
000M
,  // measure 107
0000
00M0
0000
3M00
0000
0000
0100
0001
,  // measure 108
0000
0100
1000
0101
,  // measure 109
0001
0010
0001
0010
1000
0000
0011
0000
,  // measure 110
0001
0010
1100
0000
1000
0010
0100
0000
,  // measure 111
0001
0010
0001
0010
0001
0100
0010
0100
,  // measure 112
1000
0000
1000
0010
1000
0100
0010
0100
,  // measure 113
1000
0100
1000
0100
1000
0010
0100
0010
,  // measure 114
1000
0000
0101
0010
0001
0010
1000
0000
,  // measure 115
1000
1000
0100
0010
0010
0000
0110
0000
,  // measure 116
1001
0000
2002
0000
0000
0000
0000
3003
,  // measure 117
0000
0000
M00M
0000
0000
M00M
0000
0000
,  // measure 118
M00M
0000
0000
0000
;
