#TITLE:God's Menu;
#SUBTITLE:;
#ARTIST:Stray Kids;
#TITLETRANSLIT:;
#SUBTITLETRANSLIT:;
#ARTISTTRANSLIT:;
#GENRE:;
#CREDIT:DubStepManiac;
#BANNER:God's Menu.png;
#BACKGROUND:God's Menu-bg.png;
#LYRICSPATH:;
#CDTITLE:cdtitle.png;
#MUSIC:Gods Menu.mp3;
#OFFSET:-0.278503;
#SAMPLESTART:53.057499;
#SAMPLELENGTH:26.495001;
#SELECTABLE:YES;
#BPMS:0.000000=313.990997
;
#STOPS:
;
#BGCHANGES:0.000=God's Menu.mp4=1.000=0=0=0=StretchNoLoop=God's Menu-bg.jpg===,
99999=-nosongbg-=1.000=0=0=0 // don't automatically add -songbackground-
;
#KEYSOUNDS:;
#ATTACKS:;

//---------------dance-single - ----------------
#NOTES:
     dance-single:
     :
     Easy:
     3:
     0.212528,0.443110,0.083311,0.398703,0.000000,250.000000,236.000000,14.000000,67.000000,0.000000,1.000000,0.212528,0.443110,0.083311,0.398703,0.000000,250.000000,236.000000,14.000000,67.000000,0.000000,1.000000:
0000
0000
0000
0000
,
0000
0000
0000
0000
,
0000
0000
0000
0000
,
0000
0000
0000
0000
,
0000
0000
0000
0000
,
0000
0000
0000
0000
,
0000
0000
0000
0000
,
0000
0000
0000
0000
,
2000
0000
0000
0100
,
0000
0000
3002
0000
,
0000
0000
0003
0000
,
1000
0000
0000
0100
,
1000
0002
0000
0100
,
0000
0000
0203
0000
,
0000
1000
0300
0000
,
1000
0001
0000
0000
,
0200
0000
0000
0000
,
0000
0000
0300
0010
,
1000
0000
0001
0000
,
1000
0000
0000
0100
,
1000
0002
0000
0100
,
0000
0000
0013
0000
,
1000
0000
0010
0000
,
0002
0000
0000
0003
,
0000
0000
1000
0000
,
0000
0000
0200
0010
,
0000
0000
0300
0100
,
0200
0001
0000
0000
,
0000
0000
0000
1000
,
0000
0000
0300
0010
,
0000
0000
0100
0000
,
0000
1000
0000
0000
,
0020
0000
0000
0100
,
0000
0000
0030
0010
,
1000
0000
0001
0000
,
1000
0000
0001
0000
,
1000
0002
0000
0100
,
0000
0000
0003
0000
,
0000
1000
0010
0000
,
0001
0000
0000
0000
,
1000
0020
0000
0000
,
0000
0000
0000
0000
,
0000
0000
0000
0000
,
0100
0000
0000
0000
,
0001
0000
0000
0000
,
0100
0000
0032
0000
,
0000
0000
0000
0000
,
0010
0000
0100
0000
,
0100
0000
0000
0000
,
0000
0000
0000
0000
,
0010
0000
0000
0000
,
0200
0000
0000
0000
,
0000
0000
0000
0000
,
0000
0320
0000
0000
,
0000
0000
0000
0000
,
0000
0000
0000
0033
,
1000
0000
0000
0000
,
0002
0000
0000
0003
,
1100
0000
0000
0000
,
0012
0000
0000
0003
,
0011
0000
0000
0000
,
0020
0000
0000
0030
,
0100
0000
0000
0000
,
2100
0000
0000
3000
,
1000
0000
0000
0000
,
1000
0000
1010
0000
,
1000
0000
0000
0000
,
1000
0000
1010
0000
,
0001
0000
0010
0000
,
1000
0000
0001
0000
,
0000
0000
0000
0000
,
0001
0000
0000
0000
,
0002
0000
0000
0000
,
0000
0000
0203
0010
,
0000
0000
0300
0000
,
1000
0000
0001
0000
,
1000
0002
0000
0100
,
0000
0000
0000
0000
0003
0000
0000
1000
,
0000
1000
0000
1000
,
0000
0001
0000
0000
0010
0000
1000
0000
,
2000
0000
0000
0000
,
0000
0000
3200
0020
,
0000
0000
0330
0000
,
1000
0000
0001
0000
,
1000
2000
0000
0100
,
0000
0000
3000
0010
,
0000
1000
0010
0000
,
0001
0000
0000
0000
,
0002
0000
0000
0000
,
0000
0000
2003
0000
,
0000
0000
3000
0000
,
1000
0000
0001
0000
,
0001
0020
0000
0000
,
0000
0000
0030
0000
,
0000
1000
0000
0000
,
1000
0001
0000
0000
,
0020
0000
0000
0000
,
0000
0000
0032
0000
,
0000
0000
0003
0000
,
0001
0000
1000
0000
,
1000
0020
0000
0100
,
0000
0000
0030
0000
,
0000
1000
0010
0000
,
0002
0000
0000
0003
,
0200
0000
0000
0000
,
0000
0000
0320
0000
,
0000
0000
0030
0000
,
1000
0000
0000
0000
,
0001
0002
0000
0000
,
0000
0000
2003
0000
,
0000
0000
3000
0000
,
1000
0000
0000
0000
,
0000
0001
0000
0000
,
0000
0000
0200
0000
,
0000
0000
0300
0000
,
0001
0000
0000
0000
,
0001
0002
0000
0000
,
0000
0000
0203
0000
,
0000
0000
0300
0000
,
0000
0000
0001
0000
,
0200
0000
0000
1000
,
0000
0000
0000
0010
,
0000
0000
0300
0100
,
0000
0001
0000
0000
,
0002
0000
0000
0100
,
0000
0000
0003
0010
,
1000
0000
0000
0000
,
0000
0001
0000
0000
,
2000
0000
0000
0000
,
0000
0000
3002
0000
,
0000
0000
0003
0000
,
1000
0000
0000
0100
,
1000
2000
0000
0100
,
0000
0000
3000
0000
,
0000
1000
0010
0000
,
0000
0000
0000
0000
,
0000
0000
0000
0000
,
0000
0000
0000
0000
,
0000
0000
0000
0000
,
0000
0000
0000
0000
,
0000
0000
0000
0000
,
0000
0000
0000
0000
,
0000
0000
0000
0000
,
0000
0000
0000
0000
,
0000
0000
0000
0000
,
0000
0000
0000
0000
,
0000
0000
0000
0000
,
0000
0000
0000
0000
,
0000
0200
0000
0000
,
0000
0000
0000
0000
,
0000
0000
0000
0300
,
1100
0000
0000
0000
,
0101
0000
0000
0000
,
0101
0000
0000
0000
,
2000
0000
0000
3000
,
1100
0000
0000
0000
,
0200
0000
0000
0000
,
0300
0000
0000
0000
,
1100
0000
0000
0000
,
1000
0000
1010
0000
,
1000
0000
1100
0000
,
0001
0000
0100
0000
,
1000
0000
1010
0000
,
1000
0001
0000
0000
,
0001
0000
0010
0000
,
1000
0000
0000
0000
,
0000
0000
0000
0000
,
0000
0000
0002
0000
,
0000
0000
0003
0000
,
0001
0000
0000
0000
,
0001
0000
0000
0000
,
0000
0000
0200
0000
,
0000
0000
0300
0000
,
0001
0000
0000
0000
,
0020
0000
0000
0000
,
0000
0000
2030
0000
,
0000
0000
3000
0000
,
0001
0000
0000
0000
,
1000
2000
0000
0000
,
0000
0000
3000
0000
,
1000
0000
0000
0000
,
0200
0000
0000
0000
,
0000
0000
0302
0010
,
0000
0000
0003
0000
,
1000
0000
0000
0100
,
0001
0020
0000
0100
,
0000
0030
0002
0000
,
0000
1000
0003
0000
,
1000
0000
0001
0000
,
1000
0020
0000
0000
,
0000
0030
0200
0010
,
0000
0000
0300
0000
,
1000
0000
0000
0100
,
0001
2000
0000
0100
,
0000
0000
3000
0000
,
0000
1000
0010
0000
,
0001
0000
0000
0000
,
0200
0000
0000
0000
,
0000
0000
0302
0000
,
0000
0000
0003
0000
,
0001
0000
1000
0000
,
0001
0002
0000
0000
,
0000
0000
0023
0000
,
0000
1000
0030
0000
,
1000
0001
0000
0000
,
2000
0000
0000
0000
,
0000
0000
3000
0010
,
1000
0000
0001
0000
,
1000
0000
0001
0000
,
1000
0020
0000
0100
,
0000
0000
0030
0010
,
0000
1000
0010
0000
,
0002
0000
0000
0003
;

//---------------dance-single - ----------------
#NOTES:
     dance-single:
     :
     Medium:
     5:
     0.242282,0.568375,0.142819,0.339195,0.000000,285.000000,261.000000,24.000000,57.000000,0.000000,0.000000,0.242282,0.568375,0.142819,0.339195,0.000000,285.000000,261.000000,24.000000,57.000000,0.000000,0.000000:
0000
0000
0000
0000
,
0000
0000
0000
0000
,
0000
0000
0000
0000
,
0000
0000
0000
0000
,
0000
0000
0000
0000
,
0000
0000
0000
0000
,
0000
0000
0000
0000
,
0000
0000
0000
0000
,
0000
0010
0000
0100
,
0000
0000
0002
0000
,
0000
0000
0003
0000
,
1000
0010
0000
0100
,
0001
0000
0000
0010
,
0000
0000
0200
0000
,
0000
0010
0300
0000
,
1000
0100
0000
0000
,
2000
0000
0000
0000
,
0000
0000
3000
0010
,
0001
0000
0010
0000
,
1000
0010
0000
0100
,
0001
2000
0000
0100
,
0000
0000
3000
0010
,
0001
0010
0100
0200
,
0000
1000
0000
0000
,
0300
0000
0000
0010
,
0000
0000
0200
0010
,
0000
0000
0300
0010
,
0002
1000
0000
0000
,
0000
0000
0000
0010
,
0000
0000
0003
0010
,
0000
0000
0000
0000
,
0000
1000
0010
0000
,
2000
0010
0000
0100
,
0000
0000
3000
0010
,
0001
0000
0010
0000
,
1000
0000
0100
0000
,
1000
0002
0000
0100
,
0000
0000
0003
0000
,
0001
0010
0100
0000
,
1000
0000
0000
0000
,
1000
0200
0000
0000
,
0000
0000
0000
0000
,
0000
0000
0000
0000
,
0000
0000
0000
0000
,
0000
0000
0000
0000
,
0000
0000
0302
0000
,
0000
0000
0000
0000
,
0000
0000
0000
0000
,
0000
0000
0000
0000
,
0000
0000
0000
0000
,
0000
0000
0000
0000
,
0000
0000
0000
0000
,
0000
0000
0000
0000
,
0000
0023
0000
0000
,
0000
0000
0000
0000
,
0000
0000
0000
0030
,
0110
0000
0001
0000
,
0002
0010
0000
0003
,
1001
0000
1000
0000
,
1001
0000
1000
0000
,
1001
0000
1000
0000
,
0002
0000
0000
0000
,
0003
0010
0000
0000
,
1001
0000
1000
0000
,
0110
0000
0001
0000
,
1010
0000
1100
0000
,
0110
0000
0001
0000
,
1010
0000
1100
0000
,
1000
0000
0001
0000
,
1000
0100
0000
0000
,
0000
0000
0000
0000
,
1000
0000
0000
0000
,
0002
0000
0000
0000
,
0000
0000
0203
0010
,
0000
0000
0300
0000
,
0001
0000
0010
0000
,
1000
0000
0000
0100
,
0000
0000
0000
0000
,
0000
0010
0000
0000
,
0000
0011
1000
0000
,
2000
0000
0000
0000
,
0000
0000
3200
0010
,
0000
0000
0300
0000
,
1000
0000
0010
0000
,
1000
0020
0000
0100
,
0000
0000
0030
0010
,
0001
0010
0100
0000
,
1000
0000
0000
0000
,
0020
0000
0000
0000
,
0000
0000
0230
0000
,
0000
0000
0300
0000
,
0001
0000
0100
0000
,
1000
0000
0000
0000
,
0000
0000
0002
0000
,
0000
0010
0003
0000
,
1000
0100
0000
0000
,
0000
0000
0000
0000
,
0000
0000
0020
0000
,
0000
0000
0030
0000
,
0001
0000
0010
0000
,
1000
0020
0000
0100
,
0000
0000
0030
0000
,
0001
0010
0100
0000
,
0000
1000
0000
0000
,
0002
0000
0000
0000
,
0000
0000
2003
0000
,
0000
0000
3000
0000
,
0001
0000
0001
0000
,
0001
2000
0000
0000
,
0000
0000
3002
0000
,
0000
0000
0003
0000
,
1000
0000
1000
0000
,
0000
1000
0000
0000
,
0000
0000
2000
0000
,
0000
0000
3000
0000
,
1000
0000
1000
0000
,
0001
2000
0000
0000
,
0000
0000
3002
0000
,
0000
0000
0003
0000
,
0000
0000
0001
0000
,
0002
0000
0000
0010
,
0000
0000
0000
0010
,
0000
0000
0003
0010
,
0000
1000
0001
0000
,
2000
0010
0000
0100
,
0000
0000
3000
0010
,
1000
0000
0100
0000
,
0000
1000
0001
0000
,
0002
0000
0000
0000
,
0000
0000
0023
0000
,
0000
0000
0030
1000
,
1000
0010
0000
0100
,
0001
2000
0000
0010
,
0000
0000
3000
0000
,
0001
0010
0100
0000
,
2000
0000
0000
0000
,
0000
0000
0000
0000
,
0000
0000
0000
0000
,
0000
0000
0000
0000
,
0000
0000
0000
0000
,
0000
0000
0000
0000
,
0000
0000
0000
0000
,
0000
0000
0000
0000
,
0000
0000
0000
0000
,
0000
0000
0000
0000
,
0000
0000
0000
0000
,
0000
0000
0000
0000
,
0000
0000
0000
0000
,
0000
3020
0000
0000
,
0000
0000
0000
0000
,
0000
0000
0000
0030
,
1001
0000
1000
0000
,
1001
0000
0001
0000
,
1001
0000
0001
0000
,
0002
0000
0000
0003
,
1001
0000
1000
0000
,
2000
0000
0000
0000
,
3000
0000
0001
0000
,
1001
0000
1000
0000
,
1010
0000
1100
0000
,
1010
0000
1100
0000
,
1000
0000
0011
0000
,
1010
0000
1100
0000
,
1000
0100
0000
0000
,
1000
0000
0001
0000
,
1000
0000
0000
0000
,
0002
0000
0000
0000
,
0000
0000
0023
0000
,
0000
0000
0030
0000
,
1000
0000
1000
0000
,
1000
0000
0000
0000
,
0000
0000
0020
0000
,
0000
0000
0030
0000
,
1000
0000
1000
0000
,
0200
0000
0000
0000
,
0000
0000
2300
0000
,
0000
0000
3000
0000
,
0001
0000
0001
0000
,
0001
0020
0000
0000
,
0000
0000
0030
0000
,
1000
0000
0000
0000
,
0000
0000
0000
0000
,
0000
0000
2000
0010
,
0000
0000
3000
0000
,
1000
0010
0000
0100
,
0001
0200
0000
0010
,
0000
0300
0002
0000
,
0000
0010
0003
0000
,
0001
0000
0010
0000
,
0001
0002
0000
0000
,
0000
0003
0002
0010
,
0000
0000
0003
0000
,
1000
0010
0000
0100
,
0001
0200
0000
0010
,
0000
0000
0300
0000
,
0001
0010
0100
0000
,
1000
0000
0000
0000
,
0200
0000
0000
0000
,
0000
0000
0302
0000
,
0000
0000
0003
0000
,
0001
0000
0100
0000
,
1000
0000
0000
0000
,
0000
0000
0200
0000
,
0000
0010
0300
0000
,
1000
0100
0000
0000
,
0002
0000
0000
0000
,
0000
0000
0003
0010
,
0001
0000
0010
0000
,
0001
0000
0100
0000
,
1000
0020
0000
0100
,
0000
0000
0030
0010
,
0001
0010
0100
0000
,
0000
1000
0000
0000
;

//---------------dance-single - ----------------
#NOTES:
     dance-single:
     :
     Hard:
     7:
     0.518569,0.900800,0.255884,0.184474,0.000000,610.000000,567.000000,43.000000,31.000000,0.000000,0.000000,0.518569,0.900800,0.255884,0.184474,0.000000,610.000000,567.000000,43.000000,31.000000,0.000000,0.000000:
0000
0000
0000
0000
,
0000
0000
0000
0000
,
0000
0000
0000
0000
,
0000
0000
0000
0000
,
0000
0000
0000
0000
,
0000
0000
0000
0000
,
0000
0000
0000
0000
,
0000
0000
0000
0000
,
0200
0000
0000
0010
,
0001
0000
0302
1000
,
1000
0000
0000
0000
0103
0010
0001
0000
,
0011
0000
0000
1000
0000
0000
0010
0000
,
1010
0200
0000
0010
,
0001
0000
0300
1000
,
0001
1000
0000
0100
,
0001
0010
0001
0001
,
0002
0000
0010
1000
,
1000
0000
0000
0000
0013
0010
1000
0000
,
0001
0000
0000
0000
0010
0100
1000
0000
,
0011
0000
0000
1000
0000
0000
0010
0000
,
1010
0000
0000
0010
,
1000
0000
0000
0000
0010
0010
1000
0000
,
0001
1000
0001
0000
,
0000
0001
0000
0000
,
0020
0000
0000
0100
,
1000
0000
0230
1000
,
0001
0000
0000
0000
0310
0010
0001
0000
,
0000
1000
0001
0000
,
0001
0000
0000
0100
,
1000
0000
0020
1000
,
0001
0000
1030
0100
,
0000
0000
0001
0010
0001
0000
0000
0000
,
0000
0000
0000
0010
,
1000
0000
0000
0000
0010
0010
1000
0000
,
0001
0000
0000
0000
0010
0100
1000
0000
,
1000
0000
0000
0000
0010
0100
0001
0000
,
0011
0200
0000
0010
,
0001
0000
0000
0000
0310
0100
1000
0000
,
0001
1000
0001
0100
,
0001
0000
0000
0000
,
0001
0000
0100
0000
,
1000
0000
0100
0000
,
0001
0000
0010
0000
,
0001
0000
0010
0000
,
0001
0000
0010
0000
,
0001
0000
0000
0000
,
1000
0000
0010
0000
,
1000
0000
0100
0000
,
1000
0000
0100
0000
,
0001
0000
0010
0000
,
0000
0001
0001
0000
,
0001
0000
0100
0000
,
1000
0000
0100
0000
,
0001
0000
0010
0000
,
0000
0001
0001
0000
,
0001
0000
0100
0000
,
0110
0000
0100
0000
,
0002
0100
0000
0003
,
1100
0000
0000
0000
,
0101
0000
0000
0000
,
1010
0000
0000
0000
0000
0000
0000
0010
,
0002
0000
0000
0000
,
0003
0100
0000
0000
,
1100
0000
0000
0000
,
0110
0000
0100
0000
,
0110
0000
1100
0000
,
0110
0000
0100
0000
,
0110
0000
1100
0000
,
0001
1000
0010
0000
0100
0000
0000
0000
,
0001
0010
0001
0001
,
0000
0000
0000
0000
,
0001
0000
0000
0000
,
0000
0000
0010
1000
,
1000
0000
0000
1000
,
0001
0000
0000
0000
0010
0100
1000
0000
,
0001
0000
0000
0000
0100
0010
1000
0000
,
0011
2000
0000
0010
,
0001
0000
3020
1000
,
0001
1000
0031
0100
,
1000
0011
0001
1000
,
0000
0000
0010
1000
,
1000
0000
0200
1000
,
0001
0000
0000
0000
0310
0100
1000
0000
,
1000
0000
0000
0000
0100
0010
0001
0000
,
0011
0200
0000
0010
,
1000
0000
0000
0000
0310
0010
1000
0000
,
0001
1000
0001
0100
,
0001
0000
0000
0000
,
0000
0000
0010
1000
,
0001
0000
0000
1000
,
0001
0000
0000
0000
0100
0010
1000
0000
,
0001
0000
0000
0000
0100
0010
1000
0000
,
0001
0000
0010
1000
,
1000
0000
0020
0001
,
0001
1000
0031
0100
,
0001
0010
0001
0001
,
0000
0000
0010
1000
,
1000
0000
0000
0001
,
1000
0000
0000
0000
0100
0010
0001
0000
,
1000
0000
0000
0000
0100
0010
0001
0000
,
0011
0000
0000
0010
,
0001
0000
0000
0000
0010
0100
1000
0000
,
0001
1000
0001
0100
,
0000
0001
0000
0000
,
0000
0000
0001
0010
,
1000
0000
0200
1000
,
0001
0000
0301
0010
,
0001
0000
0001
0100
,
0001
0000
0001
0010
,
1000
0000
0000
0010
,
0001
0000
0000
0100
,
1000
0000
1000
0100
,
0200
1000
0001
0000
,
0001
0000
0302
0010
,
1000
0000
1003
0100
,
0001
0000
0001
0100
,
1000
0000
1000
0100
,
0001
0000
0000
0010
,
0001
0000
0001
0100
,
0001
0000
1010
0000
,
0000
0000
0000
0100
,
1000
0000
0010
1000
,
0001
0000
0000
0000
0100
0100
0001
0000
,
0000
0000
1000
1000
0001
0000
0000
0000
,
0002
0000
0000
0010
,
1000
0000
0000
0000
0013
0010
1000
0000
,
1000
0000
0010
1000
,
0000
0000
1000
1000
0001
0000
0000
0000
,
0000
0000
0010
1000
,
1000
0000
0000
0001
,
0001
0000
0000
0000
0100
0010
0100
0000
,
0011
0000
0000
1000
0000
0000
0010
0000
,
1100
0000
0000
0100
,
0001
0000
0000
0000
0010
0100
1000
0000
,
0001
1000
0001
0100
,
0000
0000
0100
0000
,
0001
0000
0100
0000
,
0001
0000
0100
0000
,
0001
0000
0010
0000
,
0001
0000
0010
0000
,
0001
0000
0010
0000
,
1000
0000
0100
0000
,
0001
0000
0100
0000
,
1000
0000
0010
0000
,
1000
0000
0010
0000
,
0000
0001
0001
0000
,
0001
0000
0100
0000
,
0001
0000
0010
0000
,
0001
0000
0010
0000
,
1000
0000
0010
1000
,
0001
0000
0100
0000
,
1100
0000
0000
0000
,
0011
0000
0000
0000
,
1100
0000
0000
0000
0000
0000
0000
0100
,
0002
0000
1000
0003
,
1100
0000
0000
0000
0000
0000
0000
0100
,
0020
0000
0000
0000
,
0030
0001
0000
0000
0100
0000
0000
0000
,
1100
0000
0000
0000
,
0110
0000
1100
0000
,
0110
0000
0101
0000
,
0110
0000
1100
0000
,
0110
0000
1100
0000
,
0001
0010
0001
0001
,
0001
1000
0010
0000
0100
0000
0000
0000
,
0001
0000
0100
0000
,
0000
0000
0001
0010
,
1000
0000
0200
1000
,
0001
0000
0301
0010
,
1000
0000
1000
0010
,
0001
0000
0001
0010
,
0001
0000
0200
0010
,
1000
0000
1300
0010
,
0001
0000
0001
0100
,
0200
0000
0001
0010
,
0001
0000
2300
0010
,
0001
0000
3001
0010
,
0001
0000
0001
0010
,
1000
0000
1000
0100
,
0001
0000
0001
0010
,
0001
0000
0100
0000
,
0002
0000
0010
1000
,
1000
0000
0003
1000
,
0001
0000
0000
0000
0010
0100
1000
0000
,
0011
0000
0000
1000
0000
0000
0010
0000
,
1010
0000
0000
0010
,
0001
0000
0000
1000
,
0001
1000
0001
0100
,
0001
0000
0000
0000
0010
0100
1000
0000
,
1000
0000
0100
0001
,
1000
0000
0000
1000
,
0001
0000
0000
0000
0010
0100
1000
0000
,
0011
0000
0000
1000
0000
0000
0010
0000
,
1010
2000
0000
0010
,
0001
0000
0000
0000
3010
0100
1000
0000
,
0001
1000
0001
0100
,
0001
0000
0000
0000
,
0000
0000
0010
1000
,
1000
0000
0000
0001
,
0001
0000
0000
0000
0010
0100
1000
0000
,
0001
0000
0000
0000
0100
0010
1000
0000
,
1000
2000
0010
0001
,
0001
0000
3200
1000
,
0001
1000
0301
0100
,
0001
0010
0001
0001
,
0000
0000
0010
1000
,
1000
0000
0000
0000
0000
0010
1000
0000
,
0001
0000
0000
0000
0010
0100
1000
0000
,
1000
0000
0000
0000
0010
0100
0001
0000
,
0011
0000
0010
0010
,
1000
0000
0100
0000
0001
0010
1000
0000
,
0001
1000
0001
0100
,
0000
0010
0001
0000
0100
0000
0100
1000
,
0100
0000
0001
0010
1000
0000
0010
0000
,
0001
0010
0001
0000
0100
1000
0100
0000
,
0100
0010
0100
0000
0110
0000
0220
0000
,
0000
0330
0000
0000
;

//---------------dance-single - ----------------
#NOTES:
     dance-single:
     :
     Challenge:
     9:
     0.669889,0.901321,0.428457,0.315392,0.000000,788.000000,716.000000,72.000000,53.000000,0.000000,4.000000,0.669889,0.901321,0.428457,0.315392,0.000000,788.000000,716.000000,72.000000,53.000000,0.000000,4.000000:
0000
0000
0000
0000
,
0000
0000
0000
0000
,
0000
0000
0000
0000
,
0000
0000
0000
0000
,
0000
0000
0000
0000
,
0000
0000
0000
0000
,
0000
0000
0000
0000
,
0000
0000
0000
0000
,
0200
0000
0000
0010
,
0001
0000
0302
1000
,
1000
0000
0000
0000
0103
0010
0001
0000
,
0011
1000
0100
0010
,
1010
0200
0000
0010
,
0001
0000
0300
1000
,
0001
1000
0000
0100
,
0001
0010
0001
0001
,
0002
0000
0010
1000
,
1000
0000
0000
0000
0013
0010
1000
0000
,
0001
0000
0000
0000
0010
0100
1000
0000
,
0011
0000
0000
1000
0000
0000
0010
0000
,
1010
0000
0000
0010
,
1000
0000
0000
0000
0010
0010
1000
0000
,
0001
1000
0001
0000
,
0001
0001
0001
0000
0010
0000
0000
0000
,
0020
0000
0000
0100
,
1000
0000
0230
1000
,
0001
0000
0000
0000
0310
0010
0001
0000
,
0100
1000
0001
0000
,
0001
0000
0100
0100
,
1000
0000
0020
1000
,
0001
0100
0000
0000
1030
0000
0100
0010
,
0000
0000
0001
0010
0001
0000
0000
0000
,
0002
0010
0000
0013
,
1000
0000
0000
0000
0010
0010
1000
0000
,
0001
0000
0000
0000
0010
0100
1000
0000
,
1000
0000
0000
0000
0010
0100
0001
0000
,
0011
0200
0000
0010
,
0001
0000
0000
0000
0310
0100
1000
0000
,
0001
1000
0001
0001
,
0100
1000
0100
0010
,
0002
0003
0100
2000
,
0000
3000
0100
0000
,
0002
0000
0000
0003
,
0001
0000
0000
0010
,
0002
0003
0010
0000
,
0001
0000
0100
1000
,
0100
0000
0010
0000
,
1000
0100
0010
0100
,
1000
0000
0100
0010
,
0001
0001
0010
0000
,
0000
0001
0001
0000
,
0001
0000
0100
0000
,
1000
0000
0100
0000
,
0001
0010
0000
0000
0020
0000
0000
0000
,
0002
0000
0000
0000
,
0000
0033
0000
0000
0100
0000
0000
0000
,
0110
0000
0100
0000
,
0001
0101
0000
0100
,
1100
0000
0100
0000
,
0101
0000
0010
0000
,
1010
0000
0100
0010
,
0002
0000
0010
0000
,
0103
0000
1000
0000
,
1100
0000
0010
0000
,
0110
0000
0100
0000
,
0110
0000
1100
0000
,
0110
0000
0100
0000
,
0110
0000
1100
0000
,
0001
1000
0010
0000
0100
1000
0010
0001
,
0010
0100
0001
0001
,
1100
0000
0000
1100
0000
0000
1100
0000
,
0011
0000
0000
0101
0000
0000
0101
0000
,
0020
0000
1030
0000
,
1000
0100
1000
0100
,
0001
0000
0000
0000
0010
0100
1000
0000
,
0001
0000
0000
0000
0100
0010
1000
0000
,
0011
2000
0000
0010
,
0001
0000
3020
1000
,
0001
1000
0031
0100
,
1000
0011
0001
1000
,
0200
0000
0310
1000
,
1000
0000
0200
1000
,
0001
0000
0000
0000
0310
0100
1000
0000
,
1000
0000
0010
0000
0100
0010
0001
0000
,
0011
0200
0000
0010
,
1000
0000
0010
0000
0310
0010
1000
0000
,
0001
1000
0001
0100
,
0001
0010
1000
0100
,
0020
0000
0031
1000
,
0001
0010
0001
0000
,
0001
0000
1000
0000
0100
0010
1000
0000
,
0001
0000
0010
0000
0100
0010
1000
0000
,
0001
0000
0010
1000
,
1000
0000
0020
0001
,
0001
1000
0031
0100
,
0001
0010
0001
0001
,
0200
0000
0310
1000
,
1000
0100
0001
0000
,
1000
0000
0001
0000
0100
0010
0001
0000
,
1000
0000
0010
0000
0100
0010
0001
0000
,
0011
0100
0010
0000
0001
0000
0010
0000
,
0001
0000
1000
0000
0010
0100
1000
0000
,
0001
1000
0011
0100
,
0011
1000
0010
1100
,
0020
0000
0031
0010
,
1000
0000
0200
1000
,
0001
0000
0301
0010
,
0001
0000
0001
0100
,
0001
0000
0001
0010
,
1000
0000
0100
0010
,
0001
0000
0001
0100
,
1000
0000
0000
0000
1000
0000
0100
0010
,
0200
1000
0001
0000
,
0001
0000
0302
0010
,
1000
0000
1003
0100
,
0001
0000
0001
0100
,
1000
0000
1000
0100
,
0001
0000
0010
0010
,
0001
0000
0001
0100
,
0001
0000
1010
0000
,
0100
0000
0010
0000
0000
0100
0100
0000
,
1000
0001
0010
1000
,
0001
0000
0000
0000
0100
0100
0001
0000
,
0100
1000
0001
0000
,
0002
0000
0000
0010
,
1000
0000
0000
0000
0013
0010
1000
0000
,
1000
0000
0010
1000
,
0000
0000
1000
1000
0001
0000
0000
0000
,
0020
0000
0031
1000
,
1000
0100
1000
0001
,
0001
0010
0100
0000
0100
0010
0100
0000
,
0011
0000
0000
1000
0000
0000
0010
0000
,
1100
0100
0000
0000
0000
0100
0100
0000
,
0001
0000
0000
0000
0010
0100
1000
0000
,
0001
1000
0001
0100
,
0200
0010
0301
0010
,
0002
0000
0103
0010
,
0001
0000
2000
0000
,
3001
0000
0020
0000
,
0031
0000
0010
0000
,
0002
0000
0013
0000
,
2000
0000
3100
0010
,
0002
0000
0103
0000
,
1000
0100
0010
0100
,
2000
0000
3010
0002
,
0000
0013
0001
0000
,
0001
0000
0100
0000
,
0001
0000
0010
0000
,
0001
0000
0010
0000
,
1000
0100
0010
1000
,
0001
0000
0100
0000
,
1100
0000
0010
0001
,
0101
0000
0100
0000
,
1100
0000
0010
0100
,
0002
0000
1000
0003
,
1100
0000
0100
0010
,
0200
0000
0010
0001
,
0300
0001
0100
0000
,
1100
0000
0010
0000
,
0110
0000
1100
0000
,
0110
0100
0101
0000
,
0110
0010
1010
0000
,
0110
0100
1100
0000
,
0001
0010
0001
0001
,
0001
1000
0010
0000
0100
0001
0010
0100
,
0001
0000
0010
0100
0010
0000
0010
0000
,
1100
0000
0000
1100
0000
0000
1100
0000
,
0011
0000
0000
0001
0200
0000
1000
0000
,
0011
0000
0301
0010
,
1100
0000
1000
0010
,
0001
0000
0001
0010
,
0011
0000
0200
0010
,
1010
0000
1300
0010
,
0011
0000
0001
0100
,
0200
0000
0001
0010
,
0011
0000
2300
0010
,
0101
0000
3001
0010
,
0011
0000
0001
0010
,
1100
1000
1000
0110
,
0001
0010
0001
0010
,
0001
0010
1010
0000
,
0002
0010
0100
1000
,
1000
0000
0000
0100
0013
0000
1000
0000
,
0001
0000
0001
0010
0100
0000
1000
0000
,
0011
0000
0100
1000
0100
0000
0010
0000
,
1010
0100
0010
0010
,
0001
0000
0100
0000
1000
0100
1000
0000
,
0001
1000
0001
0100
,
0001
0010
0100
0000
0010
0100
1000
0000
,
1000
0100
0100
0001
,
1000
0000
0100
0000
0001
0010
1000
0000
,
0001
0010
0100
0000
0010
0100
1000
0000
,
0011
0000
0100
1000
0100
0000
0010
0000
,
1010
0000
2000
0000
0010
0001
0010
0000
,
0001
0000
0000
0000
3010
0100
1000
0000
,
0001
1000
0001
0100
,
0002
0000
0013
0000
0100
0000
1000
0100
,
1000
0100
0011
1000
,
1100
0000
0000
1000
0000
0000
1001
0000
,
0000
0001
0000
0000
0110
0000
1000
0010
,
0001
0000
0010
0000
0100
0010
1000
0000
,
1000
0000
2000
0000
0010
0000
0001
0010
,
0001
0010
3200
1000
,
0001
1000
0301
0100
,
0001
0000
0010
0000
0001
0010
0001
0000
,
0010
0000
0100
0000
0010
0000
1000
0100
,
1000
0000
0001
0010
0001
0010
1000
0000
,
0001
0000
0100
0000
0010
0100
1000
0000
,
1000
0001
0010
0000
0010
0100
0001
0000
,
0011
0000
0100
1000
0100
0000
0010
0000
,
1000
0000
0100
0001
0010
0100
1000
0000
,
0001
0100
1000
0000
0001
0010
0100
0000
,
0010
0001
0010
1000
,
0100
0000
0001
0010
1000
0000
0010
0000
,
0001
0010
0001
0000
0100
1000
0100
0000
,
0100
0010
0100
0000
0110
0000
0220
0000
,
0000
0000
0000
0330
0000
0000
0000
0000
;

//---------------dance-double - ----------------
#NOTES:
     dance-double:
     :
     Challenge:
     9:
     0.681790,1.416362,0.511768,0.315392,0.000000,802.000000,708.000000,86.000000,53.000000,0.000000,7.000000,0.681790,1.416362,0.511768,0.315392,0.000000,802.000000,708.000000,86.000000,53.000000,0.000000,7.000000:
// measure 0
00000000
00000000
00000000
00000000
,  // measure 1
00000000
00000000
00000000
00000000
,  // measure 2
00000000
00000000
00000000
00000000
,  // measure 3
00000000
00000000
00000000
00000000
,  // measure 4
00000000
00000000
00000000
00000000
,  // measure 5
00000000
00000000
00000000
00000000
,  // measure 6
00000000
00000000
00000000
00000000
,  // measure 7
00000000
00000000
00000000
00000000
,  // measure 8
02000000
00000000
00000000
00100000
,  // measure 9
00010000
00000000
03020000
10000000
,  // measure 10
10000000
00000000
00000000
00000000
01030000
00100000
00010000
00000000
,  // measure 11
00110000
10000000
01000000
00100000
,  // measure 12
00001010
00000200
00000000
00000010
,  // measure 13
00000001
00000000
00000300
00001000
,  // measure 14
00000001
00001000
00000000
00000100
,  // measure 15
00000001
00000010
00001000
00001000
,  // measure 16
00020000
00000000
00100000
10000000
,  // measure 17
10000000
00000000
00000000
00000000
00130000
00100000
10000000
00000000
,  // measure 18
00010000
00000000
00000000
00000000
00100000
01000000
10000000
00000000
,  // measure 19
00110000
00000000
00000000
10000000
00000000
00000000
00100000
00000000
,  // measure 20
00001010
00000000
00000000
00000010
,  // measure 21
00001000
00000000
00000000
00000000
00000010
00000010
00001000
00000000
,  // measure 22
00000001
00001000
00000001
00000000
,  // measure 23
00000001
00000001
00000001
00000000
00000010
00000000
00000000
00000000
,  // measure 24
00200000
00000000
00000000
01000000
,  // measure 25
10000000
00000000
02300000
10000000
,  // measure 26
00010000
00000000
00000000
00000000
03100000
00100000
00010000
00000000
,  // measure 27
01000000
10000000
00010000
00000000
,  // measure 28
00001000
00000000
00000010
00000010
,  // measure 29
00000001
00000000
00000200
00000001
,  // measure 30
00001000
00000010
00000000
00000000
00000301
00000000
00000010
00000100
,  // measure 31
00000000
00000000
00001000
00000100
00001000
00000000
00000000
00000000
,  // measure 32
00020000
00100000
00000000
00130000
,  // measure 33
10000000
00000000
00000000
00000000
00100000
00100000
10000000
00000000
,  // measure 34
00010000
00000000
00000000
00000000
00100000
01000000
10000000
00000000
,  // measure 35
10000000
00000000
00000000
00000000
00100000
01000000
00010000
00000000
,  // measure 36
00001100
00000020
00000000
00000100
,  // measure 37
00001000
00000000
00000000
00000000
00000130
00000010
00000001
00000000
,  // measure 38
00001000
00000001
00001000
00001000
,  // measure 39
00000100
00000001
00000010
00000100
,  // measure 40
00020000
00030000
01000000
20000000
,  // measure 41
00000000
30000000
01000000
00000000
,  // measure 42
00020000
00000000
00000000
00030000
,  // measure 43
00010000
00000000
00000000
00100000
,  // measure 44
00020000
00030000
00100000
00000000
,  // measure 45
00010000
00000000
01000000
10000000
,  // measure 46
01000000
00000000
00100000
00000000
,  // measure 47
10000000
01000000
00100000
00010000
,  // measure 48
00001000
00000000
00000100
00000010
,  // measure 49
00000001
00000001
00000010
00000000
,  // measure 50
00000000
00000001
00000001
00000000
,  // measure 51
00000001
00000000
00000100
00000000
,  // measure 52
10010000
00000000
01000000
00000000
,  // measure 53
00010000
00100000
00000000
00000000
00200000
00000000
00000000
00000000
,  // measure 54
00020000
00000000
00000000
00000000
,  // measure 55
00000000
00330000
00000000
00000000
01000000
00000000
00000000
00000000
,  // measure 56
01100000
00000000
01000000
00000000
,  // measure 57
00010000
01010000
00000000
01000000
,  // measure 58
11000000
00000000
01000000
00000000
,  // measure 59
01010000
00000000
00100000
00000000
,  // measure 60
00001010
00000000
00000100
00000010
,  // measure 61
00000002
00000000
00000010
00000000
,  // measure 62
00000103
00000000
00001000
00000000
,  // measure 63
00001100
00000000
00000010
00000000
,  // measure 64
01100000
00000000
01000000
00000000
,  // measure 65
01100000
00000000
11000000
00000000
,  // measure 66
01100000
00000000
01000000
00000000
,  // measure 67
01100000
00000000
11000000
00000000
,  // measure 68
00001000
00000001
00000100
00000000
00000010
00000001
00000100
00001000
,  // measure 69
00000100
00000010
00001000
00001000
,  // measure 70
11000000
00000000
00000000
11000000
00000000
00000000
11000000
00000000
,  // measure 71
00000011
00000000
00000000
00000101
00000000
00000000
00000101
00000000
,  // measure 72
00000020
00000000
10000030
00000000
,  // measure 73
10000000
01000000
10000000
01000000
,  // measure 74
00010000
00000000
00000000
00000000
00100000
01000000
10000000
00000000
,  // measure 75
00010000
00000000
00000000
00000000
01000000
00100000
10000000
00000000
,  // measure 76
00110000
20000000
00000000
00100000
,  // measure 77
00010000
00000000
30200000
10000000
,  // measure 78
00010000
10000000
00310000
01000000
,  // measure 79
10000000
00110000
00010000
10000000
,  // measure 80
00000200
00000000
00000310
00001000
,  // measure 81
00001000
00000000
00000200
00001000
,  // measure 82
00000010
00000000
00000000
00000000
00000310
00000100
00001000
00000000
,  // measure 83
00001000
00000000
00000010
00000000
00000100
00000010
00000001
00000000
,  // measure 84
00000011
00000200
00000000
00000010
,  // measure 85
00001000
00000000
00000010
00000000
00000310
00000010
00001000
00000000
,  // measure 86
00010000
10000000
00010000
01000000
,  // measure 87
00010000
00100000
10000000
01000000
,  // measure 88
00200000
00000000
00310000
10000000
,  // measure 89
00010000
00100000
00010000
00000000
,  // measure 90
00010000
00000000
10000000
00000000
01000000
00100000
10000000
00000000
,  // measure 91
00010000
00000000
00100000
00000000
01000000
00100000
10000000
00000000
,  // measure 92
00010000
00000000
00100000
10000000
,  // measure 93
10000000
00000000
00200000
00010000
,  // measure 94
00010000
10000000
00310000
01000000
,  // measure 95
00010000
00100000
00010000
00010000
,  // measure 96
00000200
00000000
00000310
00001000
,  // measure 97
00001000
00000100
00000001
00000000
,  // measure 98
00000001
00000000
00001000
00000000
00000100
00000010
00001000
00000000
,  // measure 99
00000001
00000000
00000010
00000000
00000100
00000010
00001000
00000000
,  // measure 100
00001100
00000010
00000010
00000000
00001000
00000000
00000010
00000000
,  // measure 101
00001000
00000000
00000001
00000000
00000010
00000100
00001000
00000000
,  // measure 102
00010000
10000000
00011000
00100000
,  // measure 103
00000110
00010000
01000000
00010100
,  // measure 104
00200000
00000000
00310000
00100000
,  // measure 105
10000000
00000000
02000000
10000000
,  // measure 106
00010000
00000000
03010000
00100000
,  // measure 107
00010000
00000000
00010000
01000000
,  // measure 108
00001000
00000000
00001000
00000100
,  // measure 109
00000001
00000000
00000010
00000100
,  // measure 110
00001000
00000000
00001000
00000100
,  // measure 111
00000001
00000000
00000000
00000000
00000001
00000000
00000100
00010000
,  // measure 112
02000000
10000000
00010000
00000000
,  // measure 113
00010000
00000000
03020000
00100000
,  // measure 114
10000000
00000000
10030000
01000000
,  // measure 115
00010000
00000000
00010000
01000000
,  // measure 116
10000000
00000000
10000000
01000000
,  // measure 117
00010000
00000000
00100000
00100000
,  // measure 118
00010000
00000000
00010000
01000000
,  // measure 119
00010000
00000000
01001000
00000000
,  // measure 120
00000100
00000000
00000010
00000000
00000000
00000100
00000100
00000000
,  // measure 121
00001000
00000001
00000010
00001000
,  // measure 122
00000001
00000000
00000000
00000000
00000100
00000100
00000001
00000000
,  // measure 123
00000100
00001000
00000001
00000000
,  // measure 124
00020000
00000000
00000000
00100000
,  // measure 125
10000000
00000000
00000000
00000000
00130000
00100000
10000000
00000000
,  // measure 126
10000000
00000000
00100000
10000000
,  // measure 127
00000000
00000000
10000000
10000000
00010000
00000000
00000000
00000000
,  // measure 128
00000200
00000000
00001300
00000001
,  // measure 129
00000001
00000010
00000001
00001000
,  // measure 130
00001000
00000100
00000010
00000000
00000010
00000100
00000010
00000000
,  // measure 131
00001100
00000000
00000000
00010000
00000000
00000000
00100000
00000000
,  // measure 132
11000000
01000000
00000000
00000000
00000000
01000000
01000000
00000000
,  // measure 133
00010000
00000000
00000000
00000000
00100000
01000000
10000000
00000000
,  // measure 134
00010000
10000000
00010000
01000000
,  // measure 135
02000000
00100000
03010000
00100000
,  // measure 136
00002000
00000000
00003010
00000100
,  // measure 137
00001000
00000000
00000002
00000000
,  // measure 138
00001003
00000000
00000200
00000000
,  // measure 139
00001300
00000000
00000100
00000000
,  // measure 140
00002000
00000000
00003100
00000000
,  // measure 141
00000002
00000000
00000013
00000100
,  // measure 142
00002000
00000000
00003010
00000000
,  // measure 143
10000000
01000000
00100000
01000000
,  // measure 144
20000000
00000000
30100000
00020000
,  // measure 145
00000000
00130000
00010000
00000000
,  // measure 146
00010000
00000000
01000000
00000000
,  // measure 147
00010000
00000000
00100000
00000000
,  // measure 148
00010000
00000000
00100000
00000000
,  // measure 149
10000000
01000000
00100000
10000000
,  // measure 150
00020000
00000000
01000000
00000000
,  // measure 151
10030000
00000000
00100000
00010000
,  // measure 152
00001010
00000000
00000010
00000000
,  // measure 153
00000011
00000000
00000100
00000010
,  // measure 154
00002000
00000000
00000001
00003000
,  // measure 155
00000011
00000000
00000010
00000100
,  // measure 156
02000000
00000000
00100000
00010000
,  // measure 157
03000000
00010000
01000000
00000000
,  // measure 158
11000000
00000000
00100000
00000000
,  // measure 159
01100000
00000000
11000000
00000000
,  // measure 160
00000110
00000010
00001010
00000000
,  // measure 161
01100110
00100010
10100101
00000000
,  // measure 162
01100110
01000010
11000011
00000000
,  // measure 163
00001000
00000100
00001000
00001000
,  // measure 164
00001000
10010000
00100000
00000000
01000000
00010000
00100000
01000000
,  // measure 165
00010000
00000000
00100000
01000000
00100000
00000000
00100000
00000000
,  // measure 166
00001100
00000000
00000000
00001100
00000000
00000000
00001100
00000000
,  // measure 167
00110000
00000000
00000000
01010000
00000000
00000000
01010000
00000000
,  // measure 168
00001000
00000100
00001000
00000100
,  // measure 169
00000011
00000000
10000000
00100000
,  // measure 170
00010000
00000000
00010000
00100000
,  // measure 171
00110000
00000000
00000020
00000100
,  // measure 172
00000101
00000000
00000031
00000100
,  // measure 173
00001100
00000000
00010000
01000000
,  // measure 174
02000000
00000000
00010000
00100000
,  // measure 175
00110000
00000000
03000002
00000100
,  // measure 176
00001010
00000000
00001003
00001000
,  // measure 177
00001100
00000000
00010000
00100000
,  // measure 178
11000000
10000000
10000000
01100000
,  // measure 179
00010000
00001000
00010000
00001000
,  // measure 180
00010000
00001000
00001010
00000000
,  // measure 181
00020000
00100000
01000000
10000000
,  // measure 182
10000000
00000000
00000000
01000000
00130000
00000000
10000000
00000000
,  // measure 183
00001100
00000000
00000000
00001010
00000000
00000000
00001010
00000000
,  // measure 184
00110000
00000000
01000000
10000000
01000000
00000000
00100000
00000000
,  // measure 185
10100000
01000000
00100000
00100000
,  // measure 186
00010000
00000000
01000000
00000000
10000000
01000000
10000000
00000000
,  // measure 187
00010000
10000000
00010000
01000000
,  // measure 188
00001000
00000100
00000010
00000000
00000100
00000010
00000001
00000000
,  // measure 189
00000001
00000010
00000010
00001000
,  // measure 190
10000000
00000000
01000000
00000000
00010000
00100000
10000000
00000000
,  // measure 191
00010000
00100000
01000000
00000000
00100000
01000000
10000000
00000000
,  // measure 192
00001100
00000000
00000010
00000001
00000010
00000000
00000100
00000000
,  // measure 193
00000101
00000000
00000002
00000000
00000100
00001000
00000100
00000000
,  // measure 194
00001000
00000000
00000000
00000000
00000103
00000010
00000001
00000000
,  // measure 195
00001000
00000001
00001000
00000100
,  // measure 196
00002000
00000000
00003100
00000000
00000010
00000000
00000001
00000010
,  // measure 197
00000001
00000010
00001100
00000001
,  // measure 198
11000000
00000000
00000000
11000000
00000000
00000000
10100000
00000000
,  // measure 199
00000000
01010000
00000000
00000000
10100000
00000000
00000000
10100000
,  // measure 200
00001000
00000000
00000100
00000000
00000010
00000100
00000001
00000000
,  // measure 201
00000001
00000000
00000002
00000000
00000100
00000000
00001000
00000010
,  // measure 202
00001000
00000100
00000023
00000001
,  // measure 203
00001000
00000001
00001030
00000010
,  // measure 204
00010000
00000000
00100000
00000000
00010000
00100000
00010000
00000000
,  // measure 205
00100000
00000000
01000000
00000000
00100000
00000000
10000000
01000000
,  // measure 206
10000000
00000000
00010000
00100000
00010000
00100000
10000000
00000000
,  // measure 207
00010000
00000000
01000000
00000000
00100000
01000000
10000000
00000000
,  // measure 208
00001000
00000001
00000010
00000000
00000010
00000100
00000001
00000000
,  // measure 209
00000011
00000000
00000100
00001000
00000100
00000000
00000010
00000000
,  // measure 210
00001000
00000000
00000100
00000001
00000010
00000100
00001000
00000000
,  // measure 211
00000001
00000100
00001000
00000000
00000001
00000010
00000100
00000000
,  // measure 212
00100000
00010000
00100000
10000000
,  // measure 213
01000000
00000000
00010000
00100000
10000000
00000000
00100000
00000000
,  // measure 214
01000100
00000000
00000000
01000100
00000000
00000000
01000010
00000000
,  // measure 215
00011000
00000000
00000000
00011000
00000000
00000000
00200200
00000000
,  // measure 216
00000000
00000000
00000000
00300300
00000000
00000000
00000000
00000000
;
