#TITLE:GO LIVE;
#SUBTITLE:;
#ARTIST:Stray Kids;
#TITLETRANSLIT:;
#SUBTITLETRANSLIT:;
#ARTISTTRANSLIT:;
#GENRE:;
#CREDIT:DubStepManiac;
#BANNER:Go Live.png;
#BACKGROUND:Go Live-bg.png;
#LYRICSPATH:;
#CDTITLE:cdtitle.png;
#MUSIC:GO LIVE.mp3;
#OFFSET:-0.451519;
#SAMPLESTART:81.315201;
#SAMPLELENGTH:11.684800;
#SELECTABLE:YES;
#BPMS:0.000000=153.988998
;
#STOPS:
;
#BGCHANGES:0.000=GO LIVE.mp4=1.000=0=0=1=====,
99999=-nosongbg-=1.000=0=0=0 // don't automatically add -songbackground-
;
#KEYSOUNDS:;
#ATTACKS:;

//---------------dance-single - ----------------
#NOTES:
     dance-single:
     :
     Easy:
     3:
     0.225768,0.329057,0.000000,0.009031,0.000000,175.000000,175.000000,0.000000,1.000000,0.000000,0.000000,0.225768,0.329057,0.000000,0.009031,0.000000,175.000000,175.000000,0.000000,1.000000,0.000000,0.000000:
0000
0000
0000
0000
,
0000
0000
0000
0000
,
0000
0000
0000
0000
,
0000
0000
0000
0000
,
0000
0000
0000
0000
,
0000
0000
0000
0000
,
0000
0000
0000
0000
,
0000
0000
0000
0000
,
1000
0000
0000
0001
,
0000
0001
0000
1000
,
1000
0010
0000
0001
,
0000
0001
0000
1000
,
1000
0000
0000
0001
,
0000
0001
0000
1000
,
1000
0010
0000
0001
,
0000
0001
0000
1000
,
1000
0010
1000
0100
,
0001
1000
0010
0100
,
0001
0001
1000
0001
,
0001
0001
1000
0001
,
1000
0010
1000
0100
,
0001
0001
1000
0001
,
1000
1000
0100
0001
,
1000
0000
0010
0000
0010
0000
1000
0010
,
1000
0000
0001
0100
,
1000
0000
0001
0010
,
0001
0000
1000
0010
,
1000
0010
0000
0100
,
0000
0000
0000
0000
,
0000
0000
0000
0100
,
0000
0000
0001
0100
,
1000
0010
1000
0100
,
0001
1000
0100
0010
,
1000
0100
0000
0010
,
1000
0010
0000
0001
,
0000
0001
0000
1000
,
1000
0000
0001
0100
,
0001
0001
0000
0000
,
0000
0000
0000
0100
,
0000
0001
0000
0000
,
0000
0000
0000
0000
,
1000
0000
0010
0000
0010
0000
1000
0010
,
0001
1000
0100
0010
,
1000
0100
0000
0010
,
1000
0010
0000
0001
,
0001
0000
0010
0000
0001
0100
0001
0010
,
0001
1000
0100
0010
,
1000
0100
0000
0010
,
1000
0010
0000
0001
,
0000
0001
0000
1000
,
1000
0000
0001
0100
,
0001
0000
1000
0010
,
0001
0000
1000
0010
,
1000
0010
0020
0100
,
0000
0000
0000
0130
,
1000
0000
0001
0100
,
0001
0000
1000
0010
,
1000
0010
1000
0100
,
0001
1000
0100
0010
,
1000
0100
0000
0010
,
1000
0000
0000
0001
,
0000
0001
0000
1000
,
0001
1000
0100
0010
,
1000
0100
0000
0010
,
1000
0010
0000
0001
,
0001
0000
0010
0000
0001
0100
0001
0010
,
0001
1000
0000
0000
;

//---------------dance-single - ----------------
#NOTES:
     dance-single:
     :
     Medium:
     6:
     0.384451,0.478629,0.063215,0.018061,0.000000,298.000000,291.000000,7.000000,2.000000,0.000000,0.000000,0.384451,0.478629,0.063215,0.018061,0.000000,298.000000,291.000000,7.000000,2.000000,0.000000,0.000000:
0000
0000
0000
0000
,
0000
0000
0000
0000
,
0000
0000
0000
0000
,
0000
0000
0000
0000
,
0000
0000
0000
0000
,
0000
0000
0000
0000
,
0000
0000
0000
0000
,
0000
0000
0000
0000
,
0001
0000
0001
1000
0000
0000
0001
0000
,
0000
0001
1000
0000
0000
0000
0100
0000
,
0001
0000
0010
0010
0001
0000
0010
0000
,
0000
0001
1000
0000
0000
0000
0100
0000
,
0001
0000
0001
1000
0000
0000
0001
0000
,
0000
0001
1000
0000
0000
0000
0100
0000
,
0001
0000
0010
0010
0001
0000
0010
0000
,
0000
0001
1000
0000
0000
0000
0100
0000
,
1000
0001
1000
0000
0001
0010
1000
0010
,
0001
0000
0100
0010
0001
0100
0000
0010
,
1000
1000
1000
0100
1000
0100
0001
0000
,
0001
0001
0001
0100
0001
0100
1000
0000
,
1000
0001
1000
0000
0001
0010
1000
0010
,
1000
1000
1000
0100
1000
0100
0001
0000
,
1000
0000
1000
0010
1000
1000
0010
0100
,
0001
0001
1000
0010
0010
1000
0010
0100
,
1000
0000
1000
0000
0001
0000
0010
0100
,
0001
0000
0001
0000
1000
0000
0010
0100
,
0001
0000
0001
0000
1000
0000
0010
0100
,
1000
0001
1000
0000
0000
0000
1000
0000
,
1000
1000
0001
0020
,
1000
1000
0001
0100
,
1030
0000
1000
0000
0001
0000
0010
0100
,
1000
0001
1000
0000
0001
0010
1000
0000
,
0110
0000
0100
0010
1000
1000
0001
0000
,
0001
0010
0001
0000
0100
0000
0010
0000
,
0001
0000
0010
0010
0001
0000
0010
0000
,
0000
0001
1000
0000
0000
0000
0100
0000
,
1000
0000
1000
0000
0001
0000
0010
0100
,
0001
0010
0010
0000
0000
0000
0000
0000
,
0200
1000
0001
0010
,
0001
0010
0000
0000
,
0001
0000
0000
0000
0000
0000
0300
0100
,
0001
0001
1000
0010
0010
1000
0010
0000
,
0110
0000
0100
0010
1000
1000
0001
0000
,
0001
0010
0001
0000
0100
0000
0010
0000
,
0001
0000
0010
0010
0001
0000
0010
0000
,
0110
0000
0010
1000
0100
1000
0010
0000
,
0110
0000
0100
0010
1000
1000
0001
0000
,
0001
0010
0001
0000
0100
0000
0010
0000
,
0001
0000
0010
0010
0001
0000
0010
0000
,
0000
0001
1000
0000
0000
0000
0100
0000
,
1000
0000
1000
0000
0001
0000
0010
0100
,
1000
0000
1000
0000
0001
0000
0010
0100
,
0001
0000
0001
0000
1000
0000
0010
0100
,
1000
0001
1000
0000
0000
0000
1000
0000
,
1000
0000
1000
0000
0001
0000
0010
0100
,
0001
0000
0001
0000
1000
0000
0010
0100
,
1000
0000
1000
0000
0001
0000
0100
0010
,
1000
0001
1000
0000
0001
0010
1000
0000
,
0110
0000
0100
0010
1000
1000
0001
0000
,
0001
0010
0001
0000
0100
0000
0010
0000
,
0001
0000
0001
1000
0000
0000
0001
0000
,
0000
0001
1000
0000
0000
0000
0100
0000
,
0110
0000
0100
0010
1000
1000
0001
0000
,
0001
0010
0001
0000
0100
0000
0010
0000
,
0001
0000
0010
0010
0001
0000
0010
0000
,
0110
0000
0010
1000
0100
1000
0010
0100
,
1000
0010
0001
0000
0000
0000
0000
0000
;

//---------------dance-single - ----------------
#NOTES:
     dance-single:
     :
     Hard:
     8:
     0.526363,0.510462,0.063215,0.000000,0.000000,408.000000,401.000000,7.000000,0.000000,0.000000,0.000000,0.526363,0.510462,0.063215,0.000000,0.000000,408.000000,401.000000,7.000000,0.000000,0.000000,0.000000:
0001
0000
0000
0000
,
1000
0000
0000
0000
,
1000
0000
0000
0000
,
1000
0000
0000
0000
,
0001
0000
0000
0000
,
1000
0000
0000
0000
,
0001
0000
0000
0000
,
0001
0000
0000
0000
,
1000
0100
0100
1000
0010
0000
0001
0100
,
0001
0100
0001
0100
0000
0000
0010
1000
,
0001
0010
0001
0001
0100
0001
0100
0010
,
0001
0100
0001
0100
0000
0000
0010
1000
,
1000
0100
0100
1000
0010
0000
0001
0100
,
0001
0100
0001
0100
0000
0000
0010
1000
,
0001
0010
0001
0001
0100
0001
0100
0010
,
0001
0100
0001
0100
0000
0000
0010
1000
,
0001
0010
0100
0100
1000
0100
0010
0100
,
0001
0001
0010
0100
1000
0001
0100
0010
,
1000
1000
1000
0100
0010
0100
0010
0000
,
1000
1000
1000
0100
0010
0100
0010
0000
,
0001
0010
0100
0100
1000
0100
0010
0100
,
1000
1000
1000
0100
0010
0100
0010
0000
,
0001
0010
0010
0001
0010
0010
0100
0010
,
1000
1000
0001
1000
1000
0100
1000
0001
,
0001
0100
0100
0010
0100
0010
1000
0010
,
1000
0010
0010
0100
0010
0100
0001
0100
,
1000
0100
0100
0010
0100
0010
0001
0010
,
0001
0010
0100
0100
0000
0000
0010
0000
,
0001
0100
0100
0000
,
1000
0010
0010
0001
,
0001
0010
0010
0100
0010
0100
1000
0100
,
0001
0010
0100
0100
1000
0100
0010
0000
,
1100
0000
0100
0001
0100
0100
0001
0010
,
0001
1000
0100
0010
0001
0000
0100
0010
,
0001
0010
0001
0001
0100
0001
0100
0010
,
0001
0100
0001
0100
0000
0000
0010
1000
,
0001
0100
0100
0010
0100
0010
1000
0010
,
1000
0100
0100
0010
0001
0000
0000
0000
,
0000
0100
0100
1000
,
1000
0100
0001
0000
,
1000
0000
0000
0000
0000
0000
0000
1000
,
1000
1000
0001
1000
1000
0100
1000
0000
,
1100
0000
0100
0001
0100
0100
0001
0010
,
0001
1000
0100
0010
0001
0000
0100
0010
,
0001
0010
0001
0001
0100
0001
0100
0000
,
1010
0000
0001
0100
0001
1000
0010
0000
,
1100
0000
0100
0001
0100
0100
0001
0010
,
0001
1000
0100
0010
0001
0000
0100
0010
,
0001
0010
0001
0001
0100
0001
0100
0010
,
0001
0100
0001
0100
0000
0000
0010
1000
,
0001
0100
0100
0010
0100
0010
1000
0010
,
1000
0100
0100
0010
0100
0010
0001
0010
,
0001
0010
0010
0100
0010
0100
1000
0100
,
0001
0010
0100
0100
0000
0000
0010
0000
,
0001
0000
0100
0000
0100
0000
1000
0010
,
1000
0100
0100
0010
0100
0010
0001
0010
,
1000
0100
0100
0010
0100
0010
0001
0010
,
0001
0010
0100
0100
1000
0100
0010
0000
,
1100
0000
0100
0001
0100
0100
0001
0010
,
0001
1000
0100
0010
0001
0000
0100
0010
,
1000
0100
0100
1000
0010
0000
0001
0100
,
0001
0100
0001
0100
0000
0000
0010
0000
,
1100
0000
0100
0001
0100
0100
0001
0010
,
0001
1000
0100
0010
0001
0000
0100
0010
,
0001
0010
0001
0001
0100
0001
0100
0000
,
1010
0000
0001
0100
0001
1000
0010
0100
,
0001
1000
0001
0100
0010
0000
0000
0000
;

//---------------dance-single - ----------------
#NOTES:
     dance-single:
     :
     Challenge:
     9:
     0.601189,0.583385,0.171584,0.018061,0.000000,466.000000,447.000000,19.000000,2.000000,0.000000,0.000000,0.601189,0.583385,0.171584,0.018061,0.000000,466.000000,447.000000,19.000000,2.000000,0.000000,0.000000:
0000
0000
0000
0000
,
0000
0000
1000
0100
,
1000
0000
0000
0100
,
1000
0000
0100
0010
,
0001
0000
0000
0100
,
1000
0000
1000
0100
,
0001
0000
0000
0100
,
0001
0001
0001
0011
,
1000
0100
0100
1000
0010
0000
0001
0100
,
0001
0100
0001
0100
0010
0000
0010
1000
,
0001
0010
0001
0001
0100
0001
0100
0010
,
0001
0100
0001
0100
0010
0000
0010
1000
,
1000
0100
0100
1000
0010
0100
0001
0100
,
0001
0100
0001
0100
0010
0001
0010
1000
,
0001
0010
0001
0001
0100
0001
0100
0010
,
0001
0100
0001
0100
1000
0000
0010
1000
,
0001
0010
0100
0100
1000
0100
0010
0100
,
0001
0001
0010
0100
1000
0001
0100
0010
,
1000
1000
1000
0100
0010
0100
0010
0100
,
1000
1000
1000
0100
0010
0100
0010
0100
,
0001
0010
0100
0100
1000
0100
0010
0100
,
1000
1000
1000
0100
0010
0100
0010
0100
,
0001
0010
0010
0001
0010
0010
0100
0010
,
1000
1000
0001
1000
1000
0100
1000
0001
,
0001
0100
0100
0010
0100
0010
1000
0010
,
1000
0010
0010
0100
0010
0100
0001
0100
,
1000
0100
0100
0010
0100
0010
0001
0010
,
0001
0010
0100
0100
0000
0000
0100
0010
,
0001
0010
0100
0010
0100
0010
1000
0100
,
1000
0100
0010
0001
0010
0100
0001
0010
,
0001
0010
0010
0100
0010
0100
1000
0100
,
0001
0010
0100
0100
1000
0100
0010
0000
,
1100
0000
0100
0001
0100
0100
0001
0010
,
0001
1000
0100
0010
0001
0000
0100
0010
,
0001
0010
0001
0001
0100
0001
0100
0010
,
0001
0100
0001
0100
0010
1000
0010
1000
,
0000
0000
0000
0000
0100
0010
1000
0010
,
1000
0100
0001
0011
,
0000
0000
0110
1000
,
1000
0100
0001
0001
,
1100
0000
0000
0100
1000
0100
1000
0000
,
1000
1000
0001
1000
1000
0100
1000
0000
,
1100
0000
0100
0001
0100
0100
0001
0000
,
0010
0000
0100
0010
0001
0000
0100
0010
,
0001
0010
0001
0001
0100
0001
0100
0010
,
1000
0100
0001
0100
0001
1000
0010
0001
,
1010
0000
1000
0010
0100
0100
0001
0010
,
0001
1000
0100
0010
0001
0000
0100
0010
,
0001
0010
0001
0001
0100
0001
0100
0010
,
0001
0100
0001
0100
0010
0000
0010
1000
,
0001
0100
0100
0010
0100
0010
1000
0010
,
1000
0100
0100
0010
0100
0010
0001
0010
,
0001
0010
0010
0100
0010
0100
1000
0100
,
0001
0010
0100
0100
0010
0001
0010
0100
,
0001
0010
0100
0010
0100
0010
1000
0010
,
1000
0100
0100
0010
0100
0010
0001
0010
,
1000
0100
0100
0001
0010
0100
0001
0100
,
0001
0010
0100
0100
1000
0100
0010
0001
,
1100
0010
0100
0001
0100
0100
0001
0010
,
0001
1000
0100
0010
0001
0000
0100
0000
,
1000
0100
0100
1000
0101
0000
0001
0100
,
0001
0100
0001
0100
0011
0000
0010
0000
,
1100
0000
0100
0001
0110
0100
0001
0010
,
0001
1000
0100
0010
1001
0000
0100
0010
,
0001
0000
0001
0001
1100
0001
0100
0000
,
1010
0000
0001
0100
0011
1000
0010
0100
,
0001
1000
0001
0100
0011
0100
0000
0100
,
0010
0100
0001
0010
1100
0000
2002
0000
,
3003
0000
0000
0000
;

//---------------dance-double - ----------------
#NOTES:
     dance-double:
     :
     Challenge:
     9:
     0.601189,0.583385,0.171584,0.018061,0.000000,466.000000,447.000000,19.000000,2.000000,0.000000,0.000000,0.601189,0.583385,0.171584,0.018061,0.000000,466.000000,447.000000,19.000000,2.000000,0.000000,0.000000:
// measure 0
00000000
00000000
00000000
00000000
,  // measure 1
00000000
00000000
10000000
01000000
,  // measure 2
10000000
00000000
00000000
00000100
,  // measure 3
00001000
00000000
01000000
00100000
,  // measure 4
00010000
00000000
00000000
00000100
,  // measure 5
00001000
00000000
10000000
01000000
,  // measure 6
00001000
00000000
00000000
00000100
,  // measure 7
00000001
00000001
00000001
00000011
,  // measure 8
10000000
01000000
01000000
10000000
00100000
00000000
00010000
01000000
,  // measure 9
00010000
01000000
00010000
01000000
00100000
00000000
00100000
10000000
,  // measure 10
00010000
00100000
00010000
00010000
01000000
00010000
01000000
00100000
,  // measure 11
00010000
01000000
00010000
01000000
00100000
00000000
00100000
10000000
,  // measure 12
00001000
00000100
00000100
00001000
00000010
00000100
00000001
00000100
,  // measure 13
00000001
00000100
00000001
00000100
00000010
00000001
00000010
00001000
,  // measure 14
00000001
00000010
00000001
00000001
00000100
00000001
00000100
00000010
,  // measure 15
00000001
00000100
00000001
00000100
00001000
00000000
00000010
00001000
,  // measure 16
00010000
00100000
01000000
01000000
10000000
01000000
00100000
01000000
,  // measure 17
00010000
00010000
00100000
01000000
10000000
00010000
01000000
00100000
,  // measure 18
10000000
10000000
10000000
01000000
00100000
01000000
00100000
01000000
,  // measure 19
10000000
10000000
10000000
01000000
00100000
01000000
00100000
01000000
,  // measure 20
00001000
00000100
00000010
00000010
00000001
00000010
00000001
00000010
,  // measure 21
00000001
00000001
00000001
00000010
00000100
00000010
00000100
00000010
,  // measure 22
00001000
00000100
00000100
00000010
00000100
00000100
00000010
00000100
,  // measure 23
00000001
00000001
00001000
00000001
00000001
00000010
00000001
00010000
,  // measure 24
00010000
01000000
01000000
00100000
01000000
00100000
10000000
00100000
,  // measure 25
10000000
00100000
00100000
01000000
00100000
01000000
00010000
01000000
,  // measure 26
10000000
01000000
01000000
00100000
01000000
00100000
00010000
00100000
,  // measure 27
00010000
00100000
01000000
01000000
00000000
00000000
01000000
00100000
,  // measure 28
00001000
00000100
00000010
00000100
00000010
00000100
00000001
00000010
,  // measure 29
00000001
00000010
00000100
00001000
00000100
00000010
00001000
00000100
,  // measure 30
00010000
00100000
00100000
01000000
00100000
01000000
10000000
01000000
,  // measure 31
00010000
00100000
01000000
01000000
10000000
01000000
00100000
00000000
,  // measure 32
00001100
00000000
00000100
00000001
00000100
00000100
00000001
00000010
,  // measure 33
00000001
00001000
00000100
00000010
00000001
00000000
00000010
00000100
,  // measure 34
00010000
00100000
00010000
00010000
01000000
00010000
01000000
00100000
,  // measure 35
00010000
01000000
00010000
01000000
00100000
10000000
00100000
10000000
,  // measure 36
00000000
00000000
00000000
00000000
01000000
00100000
10000000
00100000
,  // measure 37
10000000
01000000
00010000
00110000
,  // measure 38
00000000
00000000
00000110
00000001
,  // measure 39
00000001
00000010
00001000
00001000
,  // measure 40
00000011
00000000
00000000
01000000
10000000
01000000
10000000
00000000
,  // measure 41
10000000
10000000
00010000
10000000
10000000
01000000
00000000
10000000
,  // measure 42
00001100
00000000
00000100
00000001
00000100
00000100
00000001
00000000
,  // measure 43
00000100
00000000
00000010
00000100
00001000
00000000
00000010
00000100
,  // measure 44
00010000
00100000
00010000
00010000
01000000
00010000
01000000
00100000
,  // measure 45
10000000
01000000
00010000
01000000
00010000
10000000
00100000
00010000
,  // measure 46
10100000
00000000
10000000
00100000
01000000
01000000
00010000
00100000
,  // measure 47
00010000
10000000
01000000
00100000
00010000
00000000
01000000
00100000
,  // measure 48
00001000
00000100
00001000
00001000
00000010
00001000
00000010
00000100
,  // measure 49
00001000
00000010
00001000
00000010
00000100
00000000
00000100
00000001
,  // measure 50
00001000
00000010
00000010
00000100
00000010
00000100
00000001
00000010
,  // measure 51
00000001
00000100
00000100
00000010
00000100
00000010
00001000
00000100
,  // measure 52
00010000
00100000
00100000
01000000
00100000
01000000
10000000
01000000
,  // measure 53
00010000
00100000
01000000
01000000
00100000
00010000
00100000
01000000
,  // measure 54
00010000
00100000
01000000
00100000
01000000
00100000
10000000
00100000
,  // measure 55
10000000
01000000
01000000
00100000
01000000
00100000
00010000
00100000
,  // measure 56
00001000
00000100
00000100
00000001
00000010
00000100
00000001
00000100
,  // measure 57
00000001
00000010
00000100
00000100
00001000
00000100
00000010
00000001
,  // measure 58
00001100
00000010
00000100
00000001
00000100
00000100
00000001
00000010
,  // measure 59
00000001
00001000
00000100
00000010
00000001
00000000
00000100
00000000
,  // measure 60
00010000
00100000
00100000
10000000
01010000
00000000
00010000
01000000
,  // measure 61
00010000
01000000
00010000
01000000
00110000
00000000
00100000
00000000
,  // measure 62
11000000
00000000
01000000
00010000
01100000
01000000
00010000
00100000
,  // measure 63
00010000
10000000
01000000
00100000
10010000
00000000
01000000
00100000
,  // measure 64
00001000
00000000
00001000
00001000
00000011
00001000
00000010
00000000
,  // measure 65
00000101
00000000
00001000
00000010
00001100
00000001
00000100
00000010
,  // measure 66
00001000
00000001
00001000
00000010
00001100
00000010
00000000
00000010
,  // measure 67
00000100
00001000
00010000
00100000
10000100
00000000
20000002
00000000
,  // measure 68
30000003
00000000
00000000
00000000
;
