#TITLE:Fantasia;
#SUBTITLE:;
#ARTIST:MONSTA X;
#TITLETRANSLIT:;
#SUBTITLETRANSLIT:;
#ARTISTTRANSLIT:;
#GENRE:;
#CREDIT:DubStepManiac;
#BANNER:FANTASIA.png;
#BACKGROUND:FANTASIA-bg.png;
#LYRICSPATH:;
#CDTITLE:cdtitle.png;
#MUSIC:FANTASIA.mp3;
#OFFSET:-0.726508;
#SAMPLESTART:55.956001;
#SAMPLELENGTH:18.044001;
#SELECTABLE:YES;
#BPMS:0.000000=251.999985
;
#STOPS:
;
#BGCHANGES:0.000=FANTASIA.mp4=1.000=0=0=0=StretchNoLoop====,
99999=-nosongbg-=1.000=0=0=0 // don't automatically add -songbackground-
;
#KEYSOUNDS:;
#ATTACKS:;

//---------------dance-single - ----------------
#NOTES:
     dance-single:
     :
     Easy:
     4:
     0.223072,0.246478,0.011398,0.017097,0.000000,274.000000,272.000000,2.000000,3.000000,0.000000,0.000000,0.223072,0.246478,0.011398,0.017097,0.000000,274.000000,272.000000,2.000000,3.000000,0.000000,0.000000:
0001
0000
0000
0001
,
1000
0000
0000
0000
,
0000
0000
0001
0000
,
1000
0000
0001
0000
,
0001
0000
1000
0000
,
1000
0000
0100
0000
,
0001
0000
1000
0000
,
1000
0000
0001
0000
,
0001
0000
1000
0000
,
0000
0000
0000
0001
,
0000
1000
0000
0000
,
0001
0000
0000
0000
,
0000
0000
0001
0000
,
0001
0000
0000
0000
,
0000
0000
1000
0000
,
0001
0000
0000
0000
,
0000
0000
1000
0000
,
0001
0000
0000
0000
,
0000
0000
0001
0000
,
1000
0000
0000
0100
,
0000
0000
0001
0000
,
0001
0000
0000
0000
,
0000
0000
0001
0000
,
0001
0000
1000
0000
,
0001
0000
1000
0000
,
0001
0000
0000
0000
,
0000
0000
1000
0000
,
0001
0000
0000
0000
,
0000
0000
1000
0000
,
0001
0000
0000
0000
,
0000
0000
0001
0000
,
1000
0000
0000
0000
,
1000
0000
0000
0000
,
1000
0000
0000
0000
,
0000
0000
0001
0000
,
1000
0000
0000
0000
,
0001
0000
0010
0000
,
0001
0000
0000
0010
,
1000
0100
0000
0000
,
0001
0000
0000
0000
,
1000
0000
0000
0000
,
0001
0000
0010
0000
,
0001
0000
1000
0000
,
1000
0000
0010
0000
,
1000
0000
0001
0000
,
1000
0000
0100
0000
,
0001
0000
1000
0000
,
1000
0000
0010
0000
,
0001
0000
1000
0000
,
1000
0000
0001
0000
,
0001
0000
1000
0000
,
1000
0000
0010
0000
,
0001
0000
1000
0000
,
1000
0000
0100
0000
,
0001
0000
1000
0000
,
1000
0000
0001
0000
,
0001
0000
1000
0000
,
0001
0000
0100
0000
,
0001
0000
0000
0000
,
1000
0000
0001
0000
,
1000
0000
0010
0000
,
1000
0000
0001
0000
,
0001
0000
1000
0000
,
1000
0000
0001
0000
,
0001
0000
0100
0000
,
1000
0000
0001
0000
,
0001
0000
1000
0000
,
1000
0000
0010
0000
,
0001
0000
0000
0010
,
1000
0000
0001
0000
,
0001
0000
1000
0000
,
1000
0000
0010
0000
,
0001
0000
0100
0000
,
1000
0000
0001
0000
,
0001
0000
1000
0200
,
0000
0000
0000
0300
,
0001
0000
0000
0000
,
0001
0000
0000
0000
,
0001
0000
0000
0000
,
0011
0000
0000
1000
,
0000
0000
1000
0000
,
0001
0000
0000
0000
,
1000
0000
0000
0000
,
0011
0000
0000
1000
,
0000
0000
0001
0000
,
1000
0000
0000
0010
,
1000
0000
0000
0000
,
1000
0000
0000
0010
,
0001
0000
0000
0000
,
0001
0000
0000
0000
,
0001
0000
0000
0000
,
0001
0000
0000
0000
,
0001
0000
0000
0000
,
0001
0000
0000
0000
,
1000
0100
0000
0000
,
0001
0000
0000
0000
,
0001
0000
0000
0000
,
1000
0000
0000
0000
,
1000
0000
0000
0000
,
1000
0000
0000
0000
,
0000
0000
0001
0000
,
0001
0000
0000
0000
,
0000
0000
1000
0000
,
1000
0000
0000
0001
,
1000
0100
0000
0000
,
1000
0000
0000
0000
,
1000
0000
0000
0000
,
0001
0000
0010
0000
,
0001
0000
1000
0000
,
1000
0000
0010
0000
,
1000
0000
0001
0000
,
1000
0000
0100
0000
,
1000
0000
0001
0000
,
1000
0000
0010
0000
,
1000
0000
0001
0000
,
1000
0000
0010
0000
,
1000
0000
0001
0000
,
0001
0000
1000
0000
,
1000
0000
0001
0000
,
1000
0000
0100
0000
,
0001
0000
1000
0000
,
1000
0000
0001
0000
,
1000
0000
0001
0000
,
1000
0000
0010
0000
,
0000
0000
1000
0001
,
1000
0100
0000
0000
,
2000
0000
0000
0000
,
3000
0100
0000
0000
,
0000
0000
1000
0000
,
1000
0100
0000
0000
,
0001
0000
0000
0000
,
0001
0000
0000
0010
,
0000
0000
1000
0000
,
0020
0000
0000
0000
,
0030
0000
0001
0000
,
0000
0000
1000
0000
,
0001
0000
1000
0000
,
1000
0000
0010
0000
,
1000
0000
0010
0000
,
0001
0000
0000
0010
,
0001
0000
0000
0000
,
0000
1000
0000
0000
,
0001
0000
1000
0000
,
1000
0000
0000
0000
,
0000
0000
1000
0000
,
1000
0000
0000
0000
,
0001
0000
0000
0000
,
0000
0000
0000
1000
,
0000
0000
1000
0000
,
0001
0000
0000
0000
,
1000
0000
0000
0000
,
1000
0000
0010
0000
,
0001
0000
0000
0000
,
1000
0000
0000
0000
,
0001
0000
0000
0000
,
0001
0000
0010
0000
,
0001
0000
1000
0000
,
1000
0000
0010
0000
,
1000
0000
0001
0000
,
0001
0000
1000
0000
,
0001
0000
1000
0000
,
1000
0000
0010
0000
,
0001
0000
1000
0000
,
1000
0000
0010
0000
,
1000
0000
0001
0000
,
0001
0000
1000
0000
,
1000
0000
0001
0000
,
1000
0000
0100
0000
,
0001
0000
1000
0000
,
1000
0000
0001
0000
,
0001
0000
1000
0000
,
1000
0000
0010
0000
,
1000
0000
0010
0000
,
0001
0000
0000
0000
;

//---------------dance-single - ----------------
#NOTES:
     dance-single:
     :
     Medium:
     6:
     0.322396,0.492956,0.159570,0.017097,0.000000,396.000000,368.000000,28.000000,3.000000,0.000000,0.000000,0.322396,0.492956,0.159570,0.017097,0.000000,396.000000,368.000000,28.000000,3.000000,0.000000,0.000000:
// measure 0
0000
0000
0000
0001
,  // measure 1
1000
0000
0000
0000
,  // measure 2
0000
0000
1000
0000
,  // measure 3
1000
0000
0100
1000
,  // measure 4
1000
0000
0100
0000
,  // measure 5
0001
0000
0100
0000
,  // measure 6
1000
0000
0100
0000
,  // measure 7
1000
0000
0100
1000
,  // measure 8
1000
0000
0100
0000
,  // measure 9
0000
0000
0000
0001
,  // measure 10
0000
0001
0000
1000
,  // measure 11
1000
0100
0000
0000
,  // measure 12
0000
0000
1000
0000
,  // measure 13
1000
0100
0000
0000
,  // measure 14
0000
0000
1000
0000
,  // measure 15
0001
0000
0000
0000
,  // measure 16
0000
0000
1000
0000
,  // measure 17
0001
0000
0000
0010
,  // measure 18
0000
0000
1000
0000
,  // measure 19
1001
0000
0000
1000
,  // measure 20
0000
0000
1000
0000
,  // measure 21
0001
0000
0001
0000
,  // measure 22
0000
0000
1000
0000
,  // measure 23
1000
0000
0100
0000
,  // measure 24
1000
0000
0010
0000
,  // measure 25
0001
0000
0000
0010
,  // measure 26
1000
0000
0001
0000
,  // measure 27
1000
0000
0000
0001
,  // measure 28
1000
0000
0001
0000
,  // measure 29
1000
0100
0000
0000
,  // measure 30
0000
0000
1000
0000
,  // measure 31
0001
0000
0000
0000
,  // measure 32
1000
0000
0000
0000
,  // measure 33
1000
0000
0000
0000
,  // measure 34
0001
0000
1000
0000
,  // measure 35
1000
1000
0000
0000
,  // measure 36
0001
0000
0010
0000
,  // measure 37
0001
0000
0001
0010
,  // measure 38
0001
1000
0000
0000
,  // measure 39
1000
0000
0000
0100
,  // measure 40
0001
0000
0000
0000
,  // measure 41
0001
0000
0100
0000
,  // measure 42
0001
0000
1000
0000
,  // measure 43
0011
0000
0001
1000
,  // measure 44
1000
0000
0100
1000
,  // measure 45
0001
0000
0100
0000
,  // measure 46
0001
0010
0011
0000
,  // measure 47
0011
0000
0001
1000
,  // measure 48
0001
0010
0011
0000
,  // measure 49
1000
0000
0100
1000
,  // measure 50
0001
0000
0100
0001
,  // measure 51
0011
0000
0001
1000
,  // measure 52
0001
0000
1000
0001
,  // measure 53
0001
0000
0100
0000
,  // measure 54
0001
0010
0011
0000
,  // measure 55
1000
0000
0100
1000
,  // measure 56
0001
0010
0011
0000
,  // measure 57
1000
0100
1010
0000
,  // measure 58
1000
0000
0000
0100
,  // measure 59
1000
0000
0100
1000
,  // measure 60
1000
0000
0001
0000
,  // measure 61
1000
0000
0100
1000
,  // measure 62
0001
0010
0011
0000
,  // measure 63
1000
0000
0100
1000
,  // measure 64
1000
0100
1010
0000
,  // measure 65
1000
0000
0100
1000
,  // measure 66
0001
0010
0011
0000
,  // measure 67
0011
0000
0001
1000
,  // measure 68
0001
0000
0001
0010
,  // measure 69
1000
0000
0100
1000
,  // measure 70
0001
0010
0011
0000
,  // measure 71
0011
0000
0001
1000
,  // measure 72
1000
0100
1010
0000
,  // measure 73
1000
0000
0100
1000
,  // measure 74
0001
0010
0011
0002
,  // measure 75
0000
0000
0000
0003
,  // measure 76
1000
0000
0000
0000
,  // measure 77
0001
0000
0000
0010
,  // measure 78
1000
0000
0000
0000
,  // measure 79
0110
0000
0000
0010
,  // measure 80
1000
0000
0100
0000
,  // measure 81
1000
0100
0000
0000
,  // measure 82
1000
0000
0000
0000
,  // measure 83
0110
0000
0000
0010
,  // measure 84
0000
0000
1000
0000
,  // measure 85
1000
0000
0000
0010
,  // measure 86
0001
0000
0000
0000
,  // measure 87
1000
0000
0000
0010
,  // measure 88
1000
0000
0000
0100
,  // measure 89
0001
0000
0000
0010
,  // measure 90
1000
0000
0000
0001
,  // measure 91
0001
0000
0000
0010
,  // measure 92
1000
0000
0000
0001
,  // measure 93
0001
0000
0000
1000
,  // measure 94
0001
1000
0000
0000
,  // measure 95
1000
0100
0000
0000
,  // measure 96
1000
0000
0000
0100
,  // measure 97
0001
0000
0000
0000
,  // measure 98
0001
0000
0000
0000
,  // measure 99
1000
0000
0000
0000
,  // measure 100
0001
0000
1000
0000
,  // measure 101
1000
0100
0000
0000
,  // measure 102
1000
0000
0100
0000
,  // measure 103
0001
0010
0000
1000
,  // measure 104
0001
1000
0000
0000
,  // measure 105
0001
0000
0000
0000
,  // measure 106
1000
1000
0000
0000
,  // measure 107
0001
0000
0100
0000
,  // measure 108
0001
0000
1000
0000
,  // measure 109
0011
0000
0001
1000
,  // measure 110
1000
0000
0100
1000
,  // measure 111
0001
0000
0100
0000
,  // measure 112
1000
0000
0100
1000
,  // measure 113
0011
0000
0001
1000
,  // measure 114
1000
0000
0100
1000
,  // measure 115
1000
0000
0001
0000
,  // measure 116
1000
0000
0100
1000
,  // measure 117
1000
0000
0010
1000
,  // measure 118
1000
0000
0100
1000
,  // measure 119
0001
0000
0100
0000
,  // measure 120
0001
0010
0011
0000
,  // measure 121
1000
0000
0100
1000
,  // measure 122
1000
0000
0100
1000
,  // measure 123
1000
0000
0001
0000
,  // measure 124
0000
0000
0001
0100
,  // measure 125
0001
1000
0000
0000
,  // measure 126
0002
0000
0000
0000
,  // measure 127
0003
1000
0000
0000
,  // measure 128
1000
0000
0100
0000
,  // measure 129
0001
1000
0000
0000
,  // measure 130
1000
0000
0000
0100
,  // measure 131
0001
0000
0001
0010
,  // measure 132
1000
0000
0100
0000
,  // measure 133
0002
0000
0000
0000
,  // measure 134
0003
0000
1000
0000
,  // measure 135
1000
0000
0001
0000
,  // measure 136
0001
0000
1000
0000
,  // measure 137
1000
0000
0001
0000
,  // measure 138
0001
0000
1000
0000
,  // measure 139
0001
0000
0001
0010
,  // measure 140
1000
0000
0000
0100
,  // measure 141
0000
0001
0000
1000
,  // measure 142
0001
0000
1000
0000
,  // measure 143
0001
0000
0000
0000
,  // measure 144
1000
0000
0100
0000
,  // measure 145
0001
0000
0000
0000
,  // measure 146
1000
0000
0000
0100
,  // measure 147
0000
0000
0000
0001
,  // measure 148
1000
0000
0100
0000
,  // measure 149
1000
0000
0000
0100
,  // measure 150
0001
0000
0000
0000
,  // measure 151
1000
0000
0001
0000
,  // measure 152
1000
0000
0000
0100
,  // measure 153
0001
0000
0000
0000
,  // measure 154
0001
0000
0000
0000
,  // measure 155
0001
0000
0100
0000
,  // measure 156
0001
0000
1000
0000
,  // measure 157
0011
0000
0001
1000
,  // measure 158
1000
0000
0100
1000
,  // measure 159
0001
0000
0010
0001
,  // measure 160
0001
0010
0011
0000
,  // measure 161
0011
0000
0001
1000
,  // measure 162
0001
0000
1000
0001
,  // measure 163
1000
0000
0001
0000
,  // measure 164
1000
0000
0100
1000
,  // measure 165
1000
0000
0100
0000
,  // measure 166
1000
0000
0100
1000
,  // measure 167
0001
0000
0100
0000
,  // measure 168
0001
0010
0011
0000
,  // measure 169
1000
0000
0100
1000
,  // measure 170
0001
0010
0011
0000
,  // measure 171
1000
0000
0001
0000
,  // measure 172
0011
0000
0001
1000
,  // measure 173
0001
0000
0000
0000
;

//---------------dance-single - ----------------
#NOTES:
     dance-single:
     :
     Hard:
     7:
     0.634208,0.703104,0.438816,0.188064,0.000000,779.000000,702.000000,77.000000,33.000000,5.000000,2.000000,0.634208,0.703104,0.438816,0.188064,0.000000,779.000000,702.000000,77.000000,33.000000,5.000000,2.000000:
0000
0000
0000
0001
,
1000
0000
0000
0000
,
1000
0000
0100
0000
,
0001
1000
0000
0000
0100
0000
1000
0000
,
0001
0010
0000
0000
1001
0000
0000
0000
,
0001
0000
0110
0010
,
0001
0010
0000
0000
1001
0000
0000
0000
,
0001
1000
0000
0000
0100
0000
1000
0000
,
0001
0010
0000
0000
1001
0000
0000
0000
,
0001
1000
0000
0000
0100
0010
0001
0000
,
0002
0003
0001
0100
,
0001
1000
0010
0000
1000
0000
0100
0010
,
0100
0000
0000
0000
0001
0000
0000
0010
,
0001
1000
0010
0000
1000
0000
0100
0010
,
0100
0000
0001
0001
,
0001
0010
0000
0000
1000
0100
0000
0001
,
0010
0000
1000
0000
0001
1000
0000
0000
,
0001
0100
0000
0000
0100
0010
0001
0000
,
2000
0000
3100
0000
,
1010
0000
0000
0000
0010
0000
1000
0100
,
1000
0100
0000
0000
0110
0000
0000
0000
,
0101
0000
0000
0000
1000
0100
1000
0010
,
1000
0000
0000
0000
0001
0100
0000
0000
,
0101
0000
1001
0000
,
1000
0100
0000
0000
1001
0000
0000
0000
,
0001
0100
0000
0000
0011
0010
1000
0000
,
0001
0010
0001
0010
0100
0000
1000
0000
,
2000
0100
3010
0100
,
0001
0001
0002
0103
,
0001
0010
0100
0100
,
2000
3010
0100
0010
,
1000
0100
0100
1000
,
2000
3100
0001
1000
,
0001
0010
1000
0100
,
0002
1003
0100
0010
,
1000
0001
0001
0000
0001
0000
0001
0010
,
1000
0000
0100
0000
1000
0010
0100
0000
,
0001
0010
0000
0000
0010
0000
0001
0000
,
0001
0010
0100
0000
0010
0100
0010
0000
,
0001
0010
0100
0000
1000
0000
0010
0100
,
1000
0100
0010
0100
,
1000
0000
0100
0010
0001
0000
1000
0000
,
0001
0001
0010
0010
,
0001
0010
0100
0000
1000
0001
0010
0000
,
0001
1000
0000
0000
0100
0000
1000
0000
,
0001
0000
0110
0010
,
0001
1000
0001
0000
1010
0000
0001
0000
,
0101
0000
0000
0000
1000
0001
0010
0000
,
0001
1000
0001
0000
1010
0000
0001
0000
,
0001
1000
0000
0000
0100
0000
1000
0000
,
1000
0001
0000
0000
0010
0000
0001
0000
,
0101
0000
0000
0000
1000
0001
0010
0000
,
0001
1000
0100
0000
0101
0000
1000
0000
,
0001
0000
0110
0010
,
0001
1000
0001
0000
1010
0000
0001
0000
,
0001
1000
0000
0000
0100
0000
1000
0000
,
0001
1000
0001
0000
1010
0000
0001
0000
,
0001
0010
0001
0000
1010
0000
0000
0000
,
0002
0000
1003
0100
,
0001
1000
0000
0000
0100
0000
1000
0000
,
0001
1000
0000
0000
0100
0000
0010
0000
,
0001
1000
0000
0000
0100
0000
1000
0000
,
0001
1000
0001
0000
1010
0000
0001
0000
,
0001
1000
0000
0000
0100
0000
1000
0000
,
0001
0010
0001
0000
1010
0000
0000
0000
,
0001
1000
0000
0000
0100
0000
1000
0000
,
0001
1000
0001
0000
1010
0000
0001
0000
,
0101
0000
0001
0000
1001
0001
0010
0000
,
0001
0010
0000
0000
0010
0000
0001
0000
,
0001
1000
0000
0000
0100
0000
1000
0000
,
0001
1000
0001
0000
1010
0000
0001
0000
,
0101
0000
0000
0000
1000
0001
0010
0000
,
0001
0010
0001
0000
1010
0000
0000
0000
,
1001
1000
1001
1000
,
0001
1000
0001
0000
1010
0000
0200
0000
,
1000
0010
0301
0000
,
0012
0000
0003
0000
,
0001
0100
0000
0000
0001
0000
0000
0100
,
0100
1000
0000
0000
,
0110
0000
0000
1000
0000
0000
0100
0000
,
0001
0000
0010
0001
,
0001
1000
0010
0000
0000
0000
0000
0000
,
1001
0000
0000
0100
0000
0010
0000
0000
,
0110
0000
0000
1000
0000
0000
0100
0000
,
1100
0000
0000
1000
0100
0000
0000
0000
,
1001
0000
1000
0000
0000
0100
0001
0000
,
1010
0000
0100
0000
0100
0100
0100
0000
,
1001
0000
1000
1000
1000
0000
0001
0000
,
0001
0000
1000
0000
0100
0100
0100
0000
,
0001
0100
0000
0000
0001
0010
0002
0000
,
2003
0000
3010
0100
,
0001
0100
0000
0001
0010
0000
0001
0100
,
1000
0100
0001
0000
0010
0000
0100
0000
,
1000
0100
0100
1000
,
0001
0100
1000
0100
,
0011
0010
1000
0010
,
0101
0001
1000
1000
,
0100
0100
0001
0100
,
1001
0010
0100
0100
,
1100
0010
0001
0001
,
1010
0000
0010
0000
0100
0010
0100
0000
,
0001
1000
0020
0000
,
0031
0100
0010
0001
,
1000
0001
0100
0000
0010
0000
0101
0000
,
0001
0010
0100
0000
1000
0100
0010
0000
,
1001
0100
0010
0100
,
1000
0001
0001
0000
1010
0000
0100
0000
,
1100
0101
1001
1000
,
0001
0001
0100
0100
,
0001
0010
0100
0000
1000
0001
0010
0000
,
0001
1000
0000
0000
0101
0000
1000
0000
,
0001
0000
0110
0010
,
0001
1000
0000
0000
1010
0000
1000
0000
,
0101
0000
0000
0000
1000
0001
0010
0000
,
0001
1000
0000
0000
0101
0000
1000
0000
,
0001
1000
0000
0000
0100
0000
0010
0000
,
0001
1000
0000
0000
1010
0000
1000
0000
,
0001
1000
0000
0000
0010
0000
1000
0000
,
0001
1000
0000
0000
0101
0000
1000
0000
,
0001
0000
0110
0010
,
0001
1000
0001
0000
1010
0000
0001
0000
,
0001
1000
0000
0000
0100
0000
1000
0000
,
0001
1000
0000
0000
0101
0000
1000
0000
,
0001
1000
0000
0000
0100
0000
0010
0000
,
1000
0000
0100
0000
0010
0000
0100
0100
,
0001
0010
0100
0000
0002
0000
0000
0000
,
2003
0000
0000
0100
,
3002
0010
0100
0000
0000
0000
0000
0000
,
2013
0000
0010
0001
,
3002
0010
0100
0000
0000
0000
0000
0000
,
2013
0000
0100
0100
,
0001
0010
0000
0000
0010
0000
0001
0000
,
0001
0000
0010
3001
,
2000
0000
0001
0001
,
3002
0000
0000
0000
0100
0010
0000
0000
,
2003
0001
0010
0000
,
3002
0000
0000
0000
0010
0000
1000
0100
,
2003
0100
0000
0000
0100
0000
0010
0000
,
3002
0010
0000
0000
0100
0000
0010
0000
,
2003
0100
0000
0000
0010
0000
0001
0000
,
0001
0000
0100
0010
,
3000
0001
0001
0100
,
0011
0000
0000
0000
0010
0000
0100
1000
,
1000
0000
0000
0010
0000
0000
0100
0000
,
0001
0000
0010
0001
,
1000
0000
0000
0100
0000
0000
0100
0000
,
0001
0000
1000
0100
,
0000
0000
0010
0010
0000
0000
1000
0000
,
0001
0000
0010
0010
0010
0000
0001
0000
,
0001
0000
1000
0100
,
1000
0000
0000
0100
0010
0000
0101
0000
,
0001
1000
0000
0000
0100
0000
0010
0000
,
0001
0000
0100
1000
1010
0000
0100
0000
,
1000
0100
0010
0102
,
1000
0100
1000
0000
0103
0000
1100
0000
,
1001
0100
0001
1000
,
0001
0000
1000
0100
0010
0000
0100
0000
,
0100
0001
0100
0000
1000
0001
0010
0000
,
0001
1000
0000
0000
0100
0000
1000
0000
,
1000
0001
0000
0000
0100
0000
0001
0000
,
0001
1000
0001
0000
1010
0000
0001
0000
,
0001
0100
1000
0000
1000
0001
0010
0000
,
0001
1000
0100
0000
0101
0000
1000
0000
,
0001
1000
0000
0000
0100
0000
0010
0000
,
0001
1000
0000
0000
0100
0000
1000
0000
,
2200
0000
3300
0000
1000
0001
0000
0000
,
0001
1000
0000
0000
0100
0000
1000
0000
,
0001
0010
0100
0000
0110
0000
0010
0000
,
0001
1000
0001
0000
1010
0000
0001
0000
,
0001
1000
0100
0000
0100
0000
1000
0000
,
0001
1000
0001
0000
1010
0000
0001
0000
,
0001
1000
0010
0000
0100
0000
0010
0000
,
0202
0000
0303
0000
1000
0001
0010
0000
,
0001
0010
0100
0000
1000
0100
1000
0000
,
0010
0220
000M
0000
,
M000
0000
000M
0000
,
M000
033M
0000
0000
;

//---------------dance-single - ----------------
#NOTES:
     dance-single:
     :
     Challenge:
     9:
     0.657818,0.753325,0.507203,0.233656,0.000000,808.000000,719.000000,89.000000,41.000000,5.000000,5.000000,0.657818,0.753325,0.507203,0.233656,0.000000,808.000000,719.000000,89.000000,41.000000,5.000000,5.000000:
0000
0100
0000
0001
,
1000
0000
0011
0000
,
1000
0000
0100
0000
,
1000
0001
1000
0000
0110
0000
1000
0000
,
0001
0010
0000
0000
1010
0000
0020
0000
,
0031
0100
0110
0100
,
1000
0010
0000
0000
0101
0000
0200
0000
,
0301
0010
0000
0000
0110
0000
2000
0000
,
3001
0020
0000
0000
1130
0000
0100
0000
,
0001
1000
0000
0000
1000
0010
0001
0000
,
0020
0000
0031
0010
,
0001
1000
0100
0000
1000
0000
0100
0010
,
0200
0000
0000
0000
0311
0000
1000
0100
,
0001
1000
0010
0000
1000
0000
0100
0010
,
0200
0000
0000
0300
0001
0000
0010
0000
,
0001
0010
0000
0000
0100
1000
0000
0010
,
0001
1000
1001
0000
,
0101
0000
0000
0000
1000
0100
0010
0000
,
2000
0000
3001
0000
,
1010
0000
0000
0000
0010
0000
1000
0100
,
1000
0010
0000
0000
0110
0000
0000
0000
,
0101
0000
0000
0000
1000
0010
1000
0001
,
1000
0000
0000
0000
0001
0100
0000
0000
,
0101
0000
1001
0000
,
1000
0100
0000
0000
1001
0000
0000
0000
,
0001
0010
0000
0000
0101
0100
1000
0000
,
0001
0010
0001
0100
1000
0000
0100
0000
,
2100
0010
3001
0010
,
0002
0010
0100
0013
,
1000
0100
0010
0010
,
2000
3010
0100
0010
,
1000
0100
0100
0001
,
0002
0100
0010
1000
,
0103
0010
1000
0100
,
2000
0000
0001
3000
0100
0000
0010
0000
,
1000
0010
0001
0000
0010
0000
0001
0010
,
1000
0000
0100
0000
1000
0001
0010
0000
,
0100
0010
0000
0000
0010
0000
0001
0000
,
0001
0010
1000
0000
0100
0010
0100
0000
,
0001
0010
1000
0000
0100
0000
0010
0100
,
1000
0000
0100
0000
0010
0000
0100
1000
,
0100
0000
0010
0100
0001
0000
1000
0000
,
0001
0001
0100
0100
,
0001
0010
0100
0000
1000
0001
0010
0000
,
1000
0001
1000
0000
0010
0000
1000
0000
,
0001
0000
0110
0100
,
0001
1000
0001
0000
1010
0000
0001
0000
,
0101
0000
0000
0000
1000
0001
0010
0000
,
0001
1000
0001
0000
1010
0000
0001
0000
,
0010
1000
0010
0000
0100
0000
1000
0000
,
1000
0001
0000
0000
0010
0000
0001
0000
,
0101
0000
0000
0000
1000
0001
0010
0000
,
0001
1000
0100
0000
0101
0000
1000
0000
,
0001
0000
0110
0010
,
0001
1000
0001
0000
1010
0000
0001
0000
,
0010
1000
0010
0000
0100
0000
1000
0000
,
0001
1000
0001
0000
1010
0000
0001
0000
,
0001
0010
0001
0000
1010
0000
0000
0000
,
0002
0000
1003
0100
,
0010
1000
0001
0000
0100
0000
1000
0000
,
0021
1000
0001
0000
1000
0000
0100
0000
,
0001
1000
0001
0000
0100
0000
1000
0000
,
0001
1000
0001
0000
1030
0000
0001
0000
,
0010
1000
0010
0000
0100
0000
1000
0000
,
0001
0010
0001
0000
1010
0000
0001
0000
,
0001
1000
0010
0000
0100
0000
1000
0000
,
0001
1000
0001
0000
1010
0000
0001
0000
,
0101
0000
0100
0000
1100
0001
0010
0000
,
0201
0010
0000
0000
0010
0000
0001
0000
,
0001
1000
0001
0000
0010
0000
1000
0000
,
0010
1000
0010
0000
1301
0000
0001
0000
,
0101
0000
0000
0000
1000
0100
0001
0000
,
1000
0010
1000
0000
0110
0000
0000
0000
,
1001
0100
1001
0100
,
0001
0100
0001
0000
1010
0000
0020
0000
,
0001
0100
1030
0000
,
0012
0000
0003
0000
,
0001
0100
0000
0000
0001
0000
0000
0110
,
0100
1010
0000
0000
,
0110
0000
0000
1000
0000
0000
0100
0000
,
0001
0000
0010
0001
,
0001
1000
1010
0000
0000
0000
0000
0000
,
1001
0000
0000
0100
0000
0010
0000
0000
,
0110
0000
0000
1000
0000
0000
0010
0000
,
1010
0000
0000
1000
0100
0000
0000
0000
,
1001
0000
1000
0000
0000
0100
0001
0000
,
1010
0000
1000
0000
0100
0010
0100
0000
,
1001
0000
1000
0100
1000
0000
0001
0000
,
0001
0000
1000
0000
0010
0100
0010
0000
,
1000
0010
0000
0000
1000
0100
2000
0000
,
3002
0000
0103
0010
,
1000
0010
0000
1000
0100
0000
1000
0010
,
0001
0010
1000
0000
0100
0000
0010
0000
,
0001
0010
0010
0001
,
1000
0010
0001
0010
,
1100
0100
1000
0010
,
0101
0001
1000
1000
,
0100
0100
0001
0100
,
1001
0010
0100
0100
,
1100
0010
0001
0001
,
1010
0000
0010
0000
0100
0010
0100
0000
,
0001
1000
0020
0000
,
0031
0100
0010
0001
,
1000
0001
0100
0000
0010
0000
0101
0000
,
0001
0010
0100
0000
1000
0100
0010
0000
,
1001
0100
0010
0100
,
1000
0001
0001
0000
1010
0000
0100
0000
,
1100
0101
1001
1000
,
0001
0001
0100
0100
,
0001
0010
0100
0000
1000
0001
0010
0000
,
0001
1000
0000
0000
0101
0000
1000
0000
,
0001
0000
0110
0010
,
0001
1000
0000
0000
1010
0000
1000
0000
,
0101
0000
0000
0000
1000
0001
0010
0000
,
0001
1000
0000
0000
0101
0000
1000
0000
,
0001
1000
0000
0000
0100
0000
0010
0000
,
0001
1000
0000
0000
1010
0000
1000
0000
,
0001
1000
0000
0000
0010
0000
1000
0000
,
0001
1000
0000
0000
0101
0000
1000
0000
,
0001
0000
0110
0010
,
0001
1000
0001
0000
1010
0000
0001
0000
,
0001
1000
0000
0000
0100
0000
1000
0000
,
0001
1000
0000
0000
0101
0000
1000
0000
,
0001
1000
0000
0000
0100
0000
0010
0000
,
1000
0000
0100
0000
0010
0000
0100
0100
,
0001
0010
0100
0000
0002
0000
0000
0000
,
2003
0000
0000
0100
,
3002
0010
0100
0000
0000
0000
0000
0000
,
2013
0000
0010
0001
,
3002
0010
0100
0000
0000
0000
0000
0000
,
2013
0000
0100
0100
,
0001
0010
0000
0000
0010
0000
0001
0000
,
0001
0000
0010
3001
,
2000
0000
0001
0001
,
3002
0000
0000
0000
0100
0010
0000
0000
,
2003
0001
0010
0000
,
3002
0000
0000
0000
0010
0000
1000
0100
,
2003
0100
0000
0000
0100
0000
0010
0000
,
3002
0010
0000
0000
0100
0000
0010
0000
,
2003
0100
0000
0000
0010
0000
0001
0000
,
0001
0000
0100
0010
,
3000
0001
0001
0100
,
0011
0000
0000
0000
0010
0000
0100
1000
,
1000
0000
0000
0010
0000
0000
0100
0000
,
0001
0000
0010
0001
,
1000
0000
0000
0100
0000
0000
0100
0000
,
0001
0000
1000
0100
,
0000
0000
0010
0010
0000
0000
1000
0000
,
0001
0000
0100
0010
0100
0000
0001
0000
,
0001
0000
1000
0100
,
1000
0000
0000
0100
0010
0000
0011
0000
,
0101
1000
0000
0000
0100
0000
0010
0000
,
0001
0000
0100
1000
1010
0000
0100
0000
,
1000
0010
0100
0012
,
0100
1000
0100
0000
0013
0000
1010
0000
,
1001
0100
0001
1000
,
0001
0000
1000
0001
0010
0000
0100
0000
,
0100
0001
0100
0000
1000
0001
0100
0000
,
0001
1000
0000
0000
1000
0000
0010
0000
,
0010
0001
0000
0000
1000
0000
0001
0000
,
0001
0100
0001
0000
1100
0000
0001
0000
,
0001
0100
1000
0000
1000
0001
0010
0000
,
0001
1000
0010
0000
0011
0000
1000
0000
,
0001
1000
0000
0000
1000
0000
0100
0000
,
0010
1000
0000
0000
0100
0000
1000
0000
,
2200
0000
3300
0000
1000
0001
0000
0000
,
0001
1000
0000
0000
0100
0000
1000
0000
,
1000
0100
0010
0000
0110
0000
0010
0000
,
1000
0001
1000
0000
0101
0000
0001
0000
,
0001
1000
0100
0000
0100
0000
0010
0000
,
1000
0001
1000
0000
1010
0000
0001
0000
,
0001
1000
0010
0000
0100
0000
0010
0000
,
0202
0000
0303
0000
1000
0010
0001
0000
,
0010
0100
1000
0000
0100
0010
0100
0000
,
0010
0220
000M
0000
,
M000
0000
000M
0000
,
M000
033M
0000
0000
;
