#VERSION:0.83;
#TITLE:Dynamite;
#SUBTITLE:;
#ARTIST:BTS;
#TITLETRANSLIT:;
#SUBTITLETRANSLIT:;
#ARTISTTRANSLIT:;
#GENRE:;
#ORIGIN:;
#CREDIT:;
#BANNER:Dynamite.png;
#BACKGROUND:Dynamite-bg.png;
#PREVIEWVID:preview.avi;
#JACKET:jacket.png;
#CDIMAGE:;
#DISCIMAGE:;
#LYRICSPATH:;
#CDTITLE:cdtitle.png;
#MUSIC:Dynamite.ogg;
#OFFSET:-0.526000;
#SAMPLESTART:41.736000;
#SAMPLELENGTH:17.820000;
#SELECTABLE:YES;
#DISPLAYBPM:114.000000;
#BPMS:0.000=114.000;
#STOPS:;
#DELAYS:;
#WARPS:;
#TIMESIGNATURES:0.000=4=4;
#TICKCOUNTS:0.000=0;
#COMBOS:0.000=1;
#SPEEDS:0.000=1.000=0.000=0;
#SCROLLS:0.000=1.000;
#FAKES:;
#LABELS:0.000=Song Start;
#BGCHANGES:-0.526=Dynamite.avi=1.000=1=0=1===CrossFade==,
99999=-nosongbg-=1.000=0=0=0 // don't automatically add -songbackground-
;
#KEYSOUNDS:;
#ATTACKS:
;

//---------------dance-single - ----------------
#NOTEDATA:;
#CHARTNAME:;
#STEPSTYPE:dance-single;
#DESCRIPTION:;
#CHARTSTYLE:;
#DIFFICULTY:Easy;
#METER:3;
#RADARVALUES:0.231218,0.374529,0.265845,0.211112,0.000000,207.000000,173.000000,34.000000,27.000000,0.000000,0.000000,0.000000,0.000000,0.000000,0.231218,0.374529,0.265845,0.211112,0.000000,207.000000,173.000000,34.000000,27.000000,0.000000,0.000000,0.000000,0.000000,0.000000;
#CREDIT:DubStepManiac;
#DISPLAYBPM:114.000000;
#NOTES:
0000
0000
0000
0000
,
0000
0000
0000
0000
,
0000
0000
0000
0000
,
0000
0000
0000
0000
,
1000
0000
1000
0000
,
0001
0000
0001
0000
,
0010
0000
0010
0000
,
0100
0000
0100
0000
,
0001
0000
0100
0000
,
0110
0000
0000
0000
,
1000
1000
0000
0010
,
0000
0000
0000
0010
0100
0000
0000
0000
,
1001
1001
1001
0010
,
1000
0000
0000
0001
1000
0000
0000
0000
,
0110
0000
0110
0000
0110
0000
1000
0001
,
0100
0000
0000
0100
1000
0000
0000
0000
,
0010
0000
0010
0000
0010
1000
0010
0000
,
0100
0000
0100
0001
0100
0000
0020
0030
,
2000
3000
0001
0000
1000
0001
1000
0001
,
0000
0000
0000
0000
,
0110
0000
0110
0000
0110
0000
0001
2000
,
0000
0000
3000
0002
0000
0000
0003
0000
,
1001
0000
1001
0000
1001
0000
0100
0002
,
0000
0000
0003
0200
0000
0000
0000
0300
,
1000
1000
1000
1000
,
0100
0100
0100
0100
,
0011
0110
1100
0110
,
0020
0000
0030
0200
0000
0000
0300
0000
,
0001
0001
1000
1000
,
0100
0000
0000
0000
,
1000
1000
0001
0001
,
0100
0000
0000
0000
,
0100
0100
0010
0010
,
0001
0001
1000
1000
,
1001
0100
0010
0100
,
2002
0000
3003
0000
1000
0001
0000
0000
,
2000
3000
0200
0300
0020
0030
0200
0000
,
0000
0000
0300
0020
0000
0000
0030
0000
,
0020
0030
0200
0300
2000
3000
0002
0000
,
0000
0000
0003
0200
0000
0000
0000
0300
,
0000
0100
0000
0001
,
0000
0010
0000
1000
,
0010
0100
0010
0100
,
1000
0001
1000
0001
1000
0001
2000
3000
,
1001
0000
1001
0000
1001
0000
0001
0010
,
0100
0000
0100
0020
0000
0000
0000
0030
,
0100
0010
0001
0010
,
1000
0000
0000
0220
0000
0000
0330
0000
,
0001
1000
0010
1000
0001
1000
0010
1000
,
0001
0010
0001
0010
0002
0000
0000
0003
,
0110
0110
1001
0011
,
1100
0000
0000
1001
0000
0000
0000
0000
,
0001
0000
0001
0000
,
0001
0000
0001
0000
,
1000
0000
1000
0000
,
1000
0000
1000
0000
,
0010
0000
0010
0000
,
0010
0000
0010
0000
,
1010
1010
0101
0101
,
2020
0000
0000
0000
0000
0000
0000
3030
;

//---------------dance-single - ----------------
#NOTEDATA:;
#CHARTNAME:;
#STEPSTYPE:dance-single;
#DESCRIPTION:;
#CHARTSTYLE:;
#DIFFICULTY:Medium;
#METER:5;
#RADARVALUES:0.284834,0.373747,0.078190,0.250207,0.000000,255.000000,245.000000,10.000000,32.000000,0.000000,0.000000,0.000000,0.000000,0.000000,0.284834,0.373747,0.078190,0.250207,0.000000,255.000000,245.000000,10.000000,32.000000,0.000000,0.000000,0.000000,0.000000,0.000000;
#CREDIT:DubStepManiac;
#OFFSET:-0.530000;
#BPMS:0.000000=114.000000
,172.000000=228.000000
,176.000000=114.000000
;
#STOPS:172.000000=0.131500
,172.500000=0.131500
,173.000000=0.131500
,173.500000=0.131500
,174.000000=0.131500
,174.500000=0.131500
,175.000000=0.131500
,175.500000=0.131500
;
#DELAYS:;
#WARPS:;
#TIMESIGNATURES:0.000000=4=4
;
#TICKCOUNTS:0.000000=0
;
#COMBOS:0.000000=1
;
#SPEEDS:0.000000=1.000000=0.000000=0
;
#SCROLLS:0.000000=1.000000
;
#FAKES:;
#LABELS:0.000000=Song Start
;
#DISPLAYBPM:114.000000;
#NOTES:
// measure 0
0000
0000
0000
0000
,  // measure 1
0000
0000
0000
0000
,  // measure 2
0000
0000
0000
0000
,  // measure 3
0000
0000
0000
0000
,  // measure 4
1000
1000
1000
1000
,  // measure 5
0001
0001
0001
0001
,  // measure 6
0000
0010
0010
0000
0010
0000
0010
0000
,  // measure 7
0100
0000
0100
0000
0200
0000
0000
0300
,  // measure 8
0000
1000
1000
0000
0020
0030
0000
0100
,  // measure 9
0010
0010
0200
0300
,  // measure 10
0000
1000
1000
0000
1000
0000
0010
0000
,  // measure 11
1000
0000
0000
0001
1000
0000
0000
0000
,  // measure 12
1000
0000
0001
0000
0100
0000
0100
0010
,  // measure 13
1000
0000
0010
0100
0010
0000
0000
0000
,  // measure 14
0100
0000
0010
0000
0100
0000
0100
0010
,  // measure 15
0100
0000
0000
0001
1000
0000
0001
0000
,  // measure 16
0010
0000
0010
0000
0010
0001
0100
0000
,  // measure 17
0100
0010
0100
0000
0010
0001
0010
0000
,  // measure 18
1000
0000
0001
0000
1000
0000
0010
2000
,  // measure 19
0000
0000
3000
0010
0010
0000
0000
0000
,  // measure 20
0010
0000
1000
0000
0100
0000
0010
0100
,  // measure 21
0010
0000
1000
0010
1000
0000
0001
0100
,  // measure 22
0001
0100
0010
0100
,  // measure 23
1000
0001
1000
0000
0001
0000
0100
0000
,  // measure 24
1000
0010
0001
0100
1000
0010
0001
0100
,  // measure 25
1000
0010
0001
0100
1000
0020
0030
0000
,  // measure 26
0010
0100
0010
0100
,  // measure 27
0020
0000
0030
0100
0010
0100
0000
0000
,  // measure 28
0001
0010
0100
1000
,  // measure 29
0010
1000
0100
1000
,  // measure 30
0001
0010
0001
0100
,  // measure 31
0010
1000
0001
1000
,  // measure 32
0200
0000
0300
0020
0000
0030
0002
0000
0003
0020
0000
0030
,  // measure 33
0200
0000
0300
2000
0000
3000
0002
0000
0000
0003
0000
0000
,  // measure 34
1001
0110
1000
0001
,  // measure 35
0010
0100
0010
0000
0000
0000
0000
0000
,  // measure 36
2000
0000
3000
0200
0000
0000
0300
2000
,  // measure 37
0000
0000
3000
0002
0000
0000
0000
0003
,  // measure 38
0020
0000
0030
0200
0000
0000
0300
2000
,  // measure 39
0000
0000
3000
0002
0000
0000
0000
0003
,  // measure 40
0000
0110
0000
1001
,  // measure 41
0000
0110
0000
1001
,  // measure 42
0010
0100
0010
0100
,  // measure 43
0010
0100
0010
0100
0001
1000
0001
1000
,  // measure 44
0020
0030
0200
0300
2000
3000
0200
0300
,  // measure 45
0100
1000
0010
1000
,  // measure 46
0100
0010
0001
0010
0001
0100
0001
1000
,  // measure 47
0001
1000
0001
0010
,  // measure 48
0001
0010
0100
1000
0100
0010
0001
0010
,  // measure 49
0100
0010
0001
0010
0001
0010
0100
0000
,  // measure 50
1000
1000
0110
0000
,  // measure 51
1001
0000
0000
0000
0010
0100
0010
0000
,  // measure 52
0001
1000
0001
0000
1000
0001
1000
0000
,  // measure 53
0001
1000
0001
0000
0010
0100
0010
0000
,  // measure 54
0001
0010
0100
0000
0010
0100
1000
0000
,  // measure 55
0010
0100
0010
0000
0001
1000
0001
0000
,  // measure 56
0200
0000
0300
0020
0000
0030
0002
0000
0003
0020
0000
0030
,  // measure 57
0200
0000
0300
2000
0000
3000
0002
0000
0000
0003
0000
0000
,  // measure 58
1001
0110
1000
0001
,  // measure 59
0010
0100
0010
0100
1000
0100
1000
0000
;

//---------------dance-single - ----------------
#NOTEDATA:;
#CHARTNAME:;
#STEPSTYPE:dance-single;
#DESCRIPTION:;
#CHARTSTYLE:;
#DIFFICULTY:Challenge;
#METER:8;
#RADARVALUES:0.399885,0.408151,0.242388,0.570785,0.473048,358.000000,327.000000,31.000000,73.000000,6.000000,0.000000,0.000000,0.000000,0.000000,0.399885,0.408151,0.242388,0.570785,0.473048,358.000000,327.000000,31.000000,73.000000,6.000000,0.000000,0.000000,0.000000,0.000000;
#CREDIT:DubStepManiac;
#OFFSET:-0.530000;
#BPMS:0.000000=114.000000
,78.000000=228.000000
,80.000000=114.000000
,144.000000=57.000000
,152.000000=114.000000
,164.000000=228.000000
,168.000000=114.000000
;
#STOPS:78.000000=0.526000
,164.000000=0.131500
,164.500000=0.131500
,165.000000=0.131500
,165.500000=0.131500
,166.000000=0.131500
,166.500000=0.131500
,167.000000=0.131500
,167.500000=0.131500
;
#DELAYS:;
#WARPS:;
#TIMESIGNATURES:0.000000=4=4
;
#TICKCOUNTS:0.000000=0
;
#COMBOS:0.000000=1
;
#SPEEDS:0.000000=1.000000=0.000000=0
;
#SCROLLS:0.000000=1.000000
;
#FAKES:;
#LABELS:0.000000=Song Start
;
#DISPLAYBPM:114.000000;
#NOTES:
0000
0000
0000
0000
,
0000
0000
0000
0000
,
0000
0000
0000
0000
,
0000
0000
0000
0000
,
0000
0001
2000
3000
0001
1000
0010
0001
,
1000
0001
1000
0001
0020
0030
0000
0000
,
0000
0000
0010
0000
0010
0000
0000
0000
0010
0000
0100
0010
0000
0000
0100
0010
,
0100
0000
0001
0010
0001
0000
0010
0000
0200
0000
0000
0000
0000
0000
0300
0000
,
0000
0000
1000
0000
1000
0000
0001
0100
0020
0000
1030
0100
0000
0000
0100
0000
,
0001
0000
0100
0001
0010
0000
0010
0200
0000
0000
0000
0000
0300
0000
0000
0000
,
0000
0000
1000
0000
1000
0000
0100
0010
0100
0010
0000
0200
0000
0300
1000
0000
,
0001
0000
0001
1000
0100
1000
0001
0000
0010
0000
0000
0000
MMMM
0000
0000
0000
,
1000
0000
0001
0000
0100
0000
0100
0010
,
1000
0000
0000
0020
0000
0030
0100
0000
0010
0100
0000
0000
0MM0
0000
0000
0000
,
0110
0000
0010
0000
0100
0000
0100
0010
,
0100
0000
0010
0200
0000
0300
0001
0000
1000
0001
0000
0000
0000
0000
0000
0000
,
0010
0000
0000
0000
0010
0000
0000
0000
0010
0000
1000
0020
0030
0000
1000
0000
,
0100
0000
0010
0200
0000
0300
0010
0000
0100
0000
1000
0002
0000
0003
0010
0000
,
2000
0000
3000
0002
0000
0000
1003
0000
1000
0010
0000
1000
0000
0000
0002
0000
,
0003
0000
0110
0000
0000
1000
0010
0000
0010
0000
0000
0000
0000
0000
0000
0000
,
0010
0000
0000
0000
1000
0000
0000
0000
0100
0000
0000
0000
0010
0000
0100
0010
,
0000
0010
0001
0000
0000
0000
0200
0000
0000
0300
0000
0100
0001
0100
0000
0000
,
1001
0000
0000
0000
1100
0000
0000
0000
0011
0000
0000
0000
0100
0000
1000
0001
,
0000
0000
0000
0001
0000
0000
0100
0000
0000
0000
0000
0000
0000
0000
0000
0000
0000
0000
0020
0000
0000
0000
0000
0000
0030
0000
0000
0000
0000
0000
1001
0000
0000
0000
0000
0000
0000
0000
0000
0000
0000
0000
0000
0000
0000
0000
1000
0000
,
0000
0000
0010
0000
0000
0001
0000
0000
0100
0000
0000
1000
0000
0000
0010
0000
0000
0001
0000
0000
0100
0000
0000
1000
,
0000
0000
0000
0000
0010
0000
0000
0000
0000
0000
0001
0000
0000
0000
0000
0000
0100
0000
0000
0000
0000
0000
1000
0000
0000
0000
0000
0000
0000
0000
0000
0000
0000
0100
0000
0000
0010
0000
0000
0100
0000
0000
0000
0000
0000
0000
0000
0000
,
1001
0101
1010
0101
,
2200
0000
0000
0000
3300
0000
0000
0000
0000
2000
0000
0000
3020
0000
0000
2030
0000
0000
3000
0000
0000
0000
0000
0000
,
0001
0010
0100
0010
,
0100
0000
0000
0000
0000
0000
1000
0200
0300
0100
1000
0000
0000
0000
0000
0000
,
0001
0010
0001
0100
,
0010
0000
0000
0000
0000
0000
0000
0000
0000
0000
0000
0000
0000
0000
0000
0000
0000
0000
1000
0000
0000
0002
0000
0000
0003
0000
0000
0001
0000
0000
1000
0000
0000
0000
0000
0000
0000
0000
0000
0000
0000
0000
0000
0000
0000
0000
0002
0000
,
0000
0003
0020
0000
0030
0200
0000
0300
2000
0000
3000
0200
0000
0300
0020
0000
0030
0002
0000
0003
0020
0000
0030
0200
,
0000
0000
0300
0000
2000
0000
0000
0000
3000
0000
0200
0000
0000
0000
0300
0000
0020
0000
0000
0000
0030
0000
0002
0000
0000
0000
0003
0000
0000
0000
0000
0000
0000
0100
0000
0000
0010
0000
0000
0100
0000
0000
0000
0000
0000
0000
0000
0000
,
1001
0000
0000
0000
0110
0000
0000
0000
1000
0000
0000
0000
0100
0000
0000
0001
,
0000
0001
0100
0000
0000
0000
0020
0000
0230
0000
0320
0000
0030
0000
0000
0000
,
1002
0000
0100
0000
0010
0000
0200
0000
0000
0000
0303
2020
0000
0000
3030
0000
,
2001
0000
0010
0000
0100
0000
0020
0000
0000
0000
3030
0202
0000
0000
0303
0000
,
0020
0100
0000
0100
,
0030
0000
0000
0000
0110
0000
0000
0000
0000
0000
0000
0100
0010
0100
0000
0000
,
1001
0100
0010
1001
,
0010
0100
0010
0100
0001
1000
0001
1000
,
0010
0000
0000
0000
1000
0000
0000
0000
0100
0000
0000
0000
0010
0000
0100
0010
,
0000
0010
0001
0000
0000
0000
0200
0000
0000
0300
0000
0100
0001
0100
0000
0000
,
1001
0000
0000
0000
1100
0000
0000
0000
0011
0000
0000
0000
0100
0000
1000
0001
,
0000
0000
0000
0001
0000
0000
0100
0000
0000
0000
0000
0000
0000
0000
0000
0000
0000
0000
0020
0000
0000
0000
0000
0000
0030
0000
0000
0000
0000
0000
1001
0000
0000
0000
0000
0000
0000
0000
0000
0000
0000
0000
0000
0000
0000
0000
1000
0000
,
0000
0000
0010
0000
0000
0001
0000
0000
0100
0000
0000
1000
0000
0000
0010
0000
0000
0001
0000
0000
0100
0000
0000
1000
,
0000
0000
0000
0000
0010
0000
0000
0000
0000
0000
0001
0000
0000
0000
0000
0000
0100
0000
0000
0000
0000
0000
1000
0000
0000
0000
0000
0000
0000
0000
0000
0000
0000
0100
0000
0000
0010
0000
0000
0100
0000
0000
0000
0000
0000
0000
0000
0000
,
1001
0101
1010
0101
,
2200
0000
0000
0000
3300
0000
0000
0000
0000
2000
0000
0000
3020
0000
0000
2030
0000
0000
3000
0000
0000
0000
0000
0000
,
0001
0000
1000
0001
1000
0000
0010
0100
0000
0100
0010
0000
1000
0000
0001
1000
,
0002
0000
0003
0000
0001
0000
0010
0100
0000
0100
0020
0000
0030
0000
0000
0000
,
1000
0000
0001
1000
0001
0000
0100
0010
0000
0010
0100
0000
0001
0000
1000
0001
,
2000
0000
0000
0000
0000
0000
3000
0000
0000
0000
0000
0000
1000
0000
0000
0000
0000
0000
0100
0000
0000
0010
0000
0000
0000
0000
0000
0010
0000
0000
0200
0000
0000
0000
0000
0000
0300
0000
0000
0000
0000
0000
0000
0000
0000
0000
0002
0000
,
0000
0003
0020
0000
0030
0200
0000
0300
2000
0000
3000
0200
0000
0300
0020
0000
0030
0002
0000
0003
0020
0000
0030
0200
,
0000
0000
0300
0000
2000
0000
0000
0000
3000
0000
0200
0000
0000
0000
0300
0000
0020
0000
0000
0000
0030
0000
0002
0000
0000
0000
0003
0000
0000
0000
0000
0000
0000
0100
0000
0000
0010
0000
0000
0100
0000
0000
0000
0000
0000
0000
0000
0000
,
1001
0000
0000
0000
0110
0000
0000
0000
1000
0000
0000
0000
0100
0000
0000
0001
,
0000
0001
0100
0000
0010
0000
0100
0000
0000
0010
0100
0010
0200
0000
0000
0000
,
0300
0000
0000
0000
;

//---------------dance-single - ----------------
#NOTEDATA:;
#CHARTNAME:;
#STEPSTYPE:dance-single;
#DESCRIPTION:;
#CHARTSTYLE:;
#DIFFICULTY:Hard;
#METER:7;
#RADARVALUES:0.336216,0.375506,0.125104,0.555147,0.109466,301.000000,285.000000,16.000000,71.000000,4.000000,0.000000,0.000000,0.000000,0.000000,0.336216,0.375506,0.125104,0.555147,0.109466,301.000000,285.000000,16.000000,71.000000,4.000000,0.000000,0.000000,0.000000,0.000000;
#CREDIT:DubStepManiac;
#OFFSET:-0.530000;
#BPMS:0.000000=114.000000
,78.000000=228.000000
,80.000000=114.000000
,144.000000=57.000000
,157.000000=114.000000
,158.000000=228.000000
,162.000000=114.000000
;
#STOPS:78.000000=0.526000
,157.000000=0.526000
,158.000000=0.131500
,158.500000=0.131500
,159.000000=0.131500
,159.500000=0.131500
,160.000000=0.131500
,160.500000=0.131500
,161.000000=0.131500
,161.500000=0.131500
;
#DELAYS:;
#WARPS:;
#TIMESIGNATURES:0.000000=4=4
;
#TICKCOUNTS:0.000000=0
;
#COMBOS:0.000000=1
;
#SPEEDS:0.000000=1.000000=0.000000=0
;
#SCROLLS:0.000000=1.000000
;
#FAKES:;
#LABELS:0.000000=Song Start
;
#DISPLAYBPM:114.000000;
#NOTES:
0000
0000
0000
0000
,
0000
0000
0000
0000
,
0000
0000
0000
0000
,
0000
0000
0000
0000
,
1000
0000
2000
3000
0001
0000
0002
0000
,
1003
0001
1000
0001
0020
0030
0000
0000
,
0001
0000
0010
0000
0010
0100
0010
0100
,
0100
0000
1000
0000
0200
0000
0000
0300
,
1000
0000
1000
0001
0020
0030
0000
0100
,
1000
0100
0010
0000
2000
0000
3000
0000
,
0000
1000
1000
0100
0200
0000
0300
1000
,
0001
0001
0100
0001
0010
0000
MMMM
0000
,
1000
0000
0001
0000
0100
0000
0100
0010
,
1000
0000
0000
0020
0000
0030
0100
0000
0020
0000
0030
0000
0000
0000
0000
0000
,
0110
0000
0010
0000
0100
0000
0100
0010
,
0100
0000
0010
0200
0000
0300
0001
0000
2000
0000
3000
0000
0000
0000
0000
0000
,
0010
0000
0010
0000
0010
1000
0010
1000
,
0100
0000
0010
0000
0100
0000
0010
0000
0100
0000
1000
0002
0000
0003
0010
0000
,
2000
0000
3000
0002
0000
0000
1003
0000
1000
0010
0000
1000
0000
0000
0002
0000
,
0000
0003
0110
0000
,
1001
0000
0000
0000
1000
0000
0000
0000
0100
0000
0000
0000
0010
0000
0100
0010
,
0000
0010
0001
0000
0000
0000
0200
0000
0000
0000
0300
0000
0001
0000
0000
0000
,
1001
0000
0000
0000
0100
0000
0000
0000
0010
0000
0000
0000
0100
0000
1000
0001
,
0000
0001
0100
0000
0000
0000
0020
0000
0030
0000
0000
0000
0000
0000
0000
0000
,
1000
0010
0001
0100
1000
0010
0001
0100
,
1000
0010
0001
0100
1000
0000
0010
0000
,
1001
0100
1000
0001
,
2200
0000
0000
0000
3300
0000
0000
0000
0000
2000
0000
0000
3020
0000
0000
2030
0000
0000
3000
0000
0000
0000
0000
0000
,
0001
1000
0010
1000
0100
1000
0010
1000
,
0100
0000
0000
0000
0000
0000
1000
0200
0300
0100
1000
0000
0000
0000
0000
0000
,
0001
0100
0010
0100
0001
1000
0100
1000
,
0010
0000
0000
0000
0000
0000
1000
0002
0003
0001
1000
0000
0000
0000
0000
0000
,
0002
0000
0003
0020
0000
0030
0200
0000
0300
2000
0000
3000
0200
0000
0300
0020
0000
0030
0002
0000
0003
0020
0000
0030
,
0200
0000
0300
2000
0000
3000
0200
0000
0300
0020
0000
0030
0002
0000
0003
0000
0000
0000
0010
0000
0000
0000
0000
0000
,
1001
0000
0000
0000
0010
0000
0000
0000
1000
0000
0000
0000
0100
0000
0000
0001
,
0000
0001
0100
0000
0000
0000
0020
0000
0230
0000
0320
0000
0030
0000
0000
0000
,
0002
0000
1000
0000
1000
0000
2000
0000
0003
0000
3000
0020
0000
0000
0030
0000
,
0200
0000
0010
0000
0010
0000
0020
0000
0300
0000
0030
2000
0000
0000
3000
0000
,
0020
0100
0000
0100
0000
0100
0000
0130
,
2002
0000
0000
3003
0010
0100
0010
0100
,
0001
1000
0001
1000
0010
0000
1000
0000
,
0100
0000
0000
0000
0010
0000
0100
0010
0000
0010
0001
0000
0000
0000
0200
0000
,
0000
0300
0000
0000
0001
0100
0000
0000
1001
0000
0000
0000
1100
0000
0000
0000
,
0001
0000
0000
0000
0100
0000
1000
0001
0000
0001
0100
0000
0000
0000
0020
0000
,
0030
1001
0000
0000
1000
0010
0001
0100
,
1000
0010
0001
0100
1000
0010
0001
0100
,
1000
0000
0000
0000
0010
0100
0000
0000
1001
0000
0000
0000
0100
0000
0000
0000
,
0010
0000
0000
0000
0000
0000
0101
0000
0000
0000
0000
0000
2200
0000
0000
0000
3300
0000
0000
0000
0000
2000
0000
0000
,
3020
2030
3000
0000
0001
1000
0001
0000
,
1000
0001
1000
0000
0001
1000
0001
0000
,
0010
0100
0010
0000
0001
0010
0100
0000
,
0010
0000
0100
0000
1000
0000
0000
0000
0010
0000
0100
0000
0000
0000
1000
0002
,
0003
0000
0000
0001
0000
0000
1000
0000
0000
0000
0000
0000
0000
0000
0000
0000
0000
0000
0000
0000
0000
0000
0000
0000
0002
0000
0000
0000
0003
0000
0020
0000
0000
0000
0030
0000
0200
0000
0000
0000
0300
0000
2000
0000
0000
0000
3000
0000
,
0200
0000
0300
0020
0000
0030
0002
0000
0003
0020
0000
0030
0200
0000
0300
2000
0000
3000
0200
0000
0300
0020
0000
0030
,
0002
0003
1001
0110
,
1000
0000
0000
0000
0100
0000
0000
0001
0000
0001
0100
0000
0010
0000
0100
0000
,
1000
0200
0000
0000
0300
0000
0000
0000
;
