#TITLE:Dessert;
#SUBTITLE:(ft. Loopy, SOYEON (G)I-DLE);
#ARTIST:HYO;
#TITLETRANSLIT:;
#SUBTITLETRANSLIT:;
#ARTISTTRANSLIT:;
#GENRE:;
#CREDIT:DubStepManiac;
#BANNER:Dessert.png;
#BACKGROUND:Dessert-bg.png;
#LYRICSPATH:;
#CDTITLE:cdtitle.png;
#MUSIC:Dessert.mp3;
#OFFSET:-1.571312;
#SAMPLESTART:57.970001;
#SAMPLELENGTH:19.100000;
#SELECTABLE:YES;
#BPMS:0.000000=114.987999
;
#STOPS:
;
#BGCHANGES:0.000=Dessert.mp4=1.000=0=0=0=StretchNoLoop====,
99999=-nosongbg-=1.000=0=0=0 // don't automatically add -songbackground-
;
#KEYSOUNDS:;
#ATTACKS:;

//---------------dance-single - ----------------
#NOTES:
     dance-single:
     :
     Medium:
     4:
     0.268362,0.339965,0.000000,0.029724,0.000000,316.000000,316.000000,0.000000,5.000000,0.000000,0.000000,0.268362,0.339965,0.000000,0.029724,0.000000,316.000000,316.000000,0.000000,5.000000,0.000000,0.000000:
0000
0000
0000
0000
,
0000
1000
0010
1000
,
0001
0100
0010
0001
,
0000
1000
0010
1000
,
1000
0000
0010
0100
,
0001
0010
0100
0010
,
0000
1000
1000
0010
,
0000
1000
0001
1000
,
0000
1000
1000
0010
,
1000
0000
0000
0001
,
1000
0000
0000
0001
,
0001
0000
0000
1000
,
1000
0000
0000
0001
,
1000
0000
0000
0001
,
0001
0020
0000
0100
,
0000
0030
0100
0010
,
0001
0000
0010
0000
0001
1000
0001
0000
,
0001
0001
0000
0100
,
1000
0000
0010
0100
0001
0000
0100
0000
,
1000
0010
1000
0000
0100
0010
0001
1000
,
0001
0100
0001
0000
0010
0100
1000
0001
,
1000
0000
0010
1000
0010
1000
0010
0000
,
1000
0010
1000
0000
0100
0010
0001
1000
,
1000
0010
1000
0100
0010
0000
0100
0010
,
1000
0010
1000
0000
0100
0010
0001
1000
,
1000
0000
0010
1000
0010
1000
0010
0000
,
0001
1000
0100
0001
,
1000
0000
0000
0001
,
0001
0000
0000
1000
,
1000
0000
0000
0001
,
0000
1000
0001
1000
,
0000
1000
0010
1000
,
1000
1000
0001
0000
,
0000
1000
0010
1000
,
1000
0000
0010
0100
0010
0000
1000
0000
,
0001
0000
0010
0100
0010
0000
0001
0000
,
1000
0000
0100
0010
0100
0000
1000
0000
,
1000
0000
0100
1000
0001
0000
0100
0010
,
0001
0000
0100
0001
1000
0000
0100
0010
,
0001
0000
0100
0001
1000
0000
0100
0010
,
0001
0000
0010
0001
1000
0000
0010
0100
,
0001
0000
0000
0001
,
0000
0200
0000
1000
,
0000
2300
0000
0001
,
0000
3000
0000
1000
,
0001
0000
1000
0100
,
1000
0000
0000
0001
,
0001
0000
0000
1000
,
0001
0001
0000
0100
,
0001
0000
0010
0000
0001
1000
0001
0000
,
0001
0010
0000
0100
,
1000
0000
0010
0100
0001
0000
0100
0000
,
1000
0010
1000
0000
0100
0010
0001
1000
,
1000
0010
0100
0000
0010
1000
0010
1000
,
1000
0000
0010
1000
0010
1000
0010
0000
,
1000
0010
1000
0000
0100
0010
0001
1000
,
0001
0010
0001
0000
0100
0010
1000
0001
,
0001
0100
0001
0000
0010
0100
1000
0001
,
1000
0010
0100
0000
0010
1000
0010
1000
,
0001
1000
0100
0001
,
0001
0001
0000
0100
,
0001
0001
0000
0100
,
0001
0010
0100
0010
,
0001
0010
0001
0000
0100
0000
0001
0000
,
0001
0010
0001
0000
0100
0000
0001
0000
,
1000
0100
1000
0000
0010
0000
1000
0000
,
0001
0000
0010
0000
0100
0010
0001
0010
,
0001
0000
0010
0000
0001
1000
0001
0000
,
1000
0001
1000
0000
0010
0000
1000
0000
,
0001
0100
0010
0001
,
0001
1000
0100
0001
,
1000
0010
0100
0010
,
0001
0100
0100
0100
0001
0000
0100
0000
,
1000
0000
0010
0000
1000
0000
0001
0100
,
1000
0001
1000
0000
0010
0000
1000
0000
,
1000
0200
0000
0300
,
2000
3000
0000
0000
;

//---------------dance-single - ----------------
#NOTES:
     dance-single:
     :
     Hard:
     6:
     0.326961,0.362629,0.047558,0.029724,0.000000,385.000000,377.000000,8.000000,5.000000,0.000000,0.000000,0.326961,0.362629,0.047558,0.029724,0.000000,385.000000,377.000000,8.000000,5.000000,0.000000,0.000000:
0000
0000
0000
0000
,
0000
0000
0100
0000
1000
0000
0001
0010
,
0001
0000
0100
0001
0100
0000
0001
0100
,
1000
0000
0100
0000
1000
0000
0001
0010
,
0001
0000
0010
0001
0010
0000
0100
1000
,
1000
0000
0100
0000
0010
0000
0100
0010
,
0100
0000
1000
0001
0001
0000
0100
0010
,
1000
0000
0001
0000
1000
0100
0010
0000
,
1000
0100
1000
0001
0001
0010
0100
1000
,
0001
0100
0000
0010
,
0001
0100
0000
0010
,
0001
0100
0000
0010
,
1000
0100
0000
0010
,
0001
0100
0000
0010
,
1000
0020
0000
1000
,
0000
0130
0010
0100
,
1000
0000
0010
0000
0100
0010
1000
1000
,
1000
1000
0100
1000
,
0000
0000
0001
0100
0010
0100
0010
1000
,
1000
0100
0010
0000
0100
0010
0001
1000
,
0001
0010
0100
0000
0010
0100
1000
0000
,
1010
0000
0001
1000
0001
0100
0010
0100
,
1000
0100
0010
0000
0100
0010
0001
0000
,
0011
0000
0001
1000
0100
0010
0100
1000
,
1000
0100
0010
0000
0100
0010
0001
0000
,
1010
0000
0001
1000
0001
0100
0010
0100
,
0001
1000
0001
0000
0100
0000
0001
0000
,
0001
0100
0010
0010
,
1000
0010
0001
0100
,
1000
0100
0001
0010
,
1000
0001
1000
0010
,
1000
0100
1000
0001
,
1000
0001
0001
0000
0100
0000
0010
0000
,
1000
0100
1000
0001
,
1000
0010
0100
0010
0100
0000
0010
0000
,
1000
0100
0010
0100
0010
0000
0100
0000
,
0001
0100
0010
0100
0010
0000
0100
0000
,
0001
0000
0010
0100
0010
0001
0100
0010
,
1000
0000
0010
0100
0010
1000
0100
0010
,
1000
0000
0100
0010
0100
1000
0010
0100
,
1000
0000
0010
0100
0010
1000
0100
0010
,
0001
0020
0000
0001
,
0000
0030
0000
1000
,
0000
0002
0000
0010
,
0000
0103
0000
0010
,
0001
0000
0100
0001
,
0001
0100
0000
0010
,
1000
0100
0000
0010
,
1000
1000
0100
1000
,
1000
0000
0010
0000
0100
0010
1000
1000
,
0001
0100
0001
0000
0000
0000
0010
0000
,
0000
0000
0001
0100
0010
0100
0010
1000
,
1000
0100
0010
0000
0100
0010
0001
0000
,
1100
0000
0010
0001
0100
0001
1000
0000
,
1010
0000
0001
1000
0001
0100
0010
0100
,
1000
0100
0010
0000
0100
0010
0001
1000
,
0001
0100
0010
0000
0100
0010
1000
0001
,
1000
0010
0100
0000
0010
0100
0001
0000
,
1100
0000
0010
0001
0100
0001
1000
0010
,
0001
1000
0001
0000
0100
0000
0001
0000
,
1000
1000
0100
1000
,
1000
1000
0100
1000
,
1000
0100
0010
0100
,
1000
0100
1000
0000
0100
0000
1000
0010
,
1000
0010
1000
0000
0010
0000
1000
0100
,
1000
0100
1000
0000
0100
0000
1000
0010
,
1000
0001
0100
0000
0001
0100
0010
0100
,
1000
0000
0010
0000
0100
0010
1000
1000
,
1000
0101
0010
0100
,
0001
0000
0100
0001
0100
0000
0001
0000
,
0001
1000
0001
0000
0100
0000
0001
0000
,
1000
0000
0100
0000
0010
0000
0001
0010
,
0001
0010
0010
0010
0001
0000
0100
0010
,
0001
0000
0010
0010
0001
0000
0100
0001
,
1000
0101
0010
0100
,
0000
2000
0000
3000
,
0002
0003
0000
0000
;

//---------------dance-single - ----------------
#NOTES:
     dance-single:
     :
     Challenge:
     8:
     0.447554,0.390346,0.148618,0.023779,0.000000,527.000000,502.000000,25.000000,4.000000,0.000000,0.000000,0.447554,0.390346,0.148618,0.023779,0.000000,527.000000,502.000000,25.000000,4.000000,0.000000,0.000000:
// measure 0
0000
0000
0000
0000
,  // measure 1
0000
0000
0100
1000
0010
0100
0001
0010
,  // measure 2
0001
0000
0010
0100
1000
0010
0100
0001
,  // measure 3
1000
1000
0100
1000
0010
0100
0001
0000
,  // measure 4
1000
0001
1000
0010
1000
0010
1000
0010
,  // measure 5
1000
0001
0010
0000
0001
0010
0001
2000
,  // measure 6
0000
3100
0001
0100
0100
0001
0010
0001
,  // measure 7
0100
1000
0001
1000
0100
1000
0010
0100
,  // measure 8
0000
1000
0001
0100
0100
0001
0010
0100
,  // measure 9
0001
1000
0010
0010
0001
0100
1000
0010
,  // measure 10
0001
1000
0010
0010
0010
0010
1000
0010
,  // measure 11
1000
0001
0010
0010
0010
0010
0001
0010
,  // measure 12
1000
0001
0100
0100
0100
0100
0001
0100
,  // measure 13
1000
0001
0010
0010
0010
0010
0001
0010
,  // measure 14
1000
0001
0000
0000
0010
0000
1000
0000
,  // measure 15
1000
0000
0010
0000
0001
0010
0001
1000
,  // measure 16
0001
0100
0010
1000
0010
0100
0010
0010
,  // measure 17
1000
0001
0001
0000
0010
0100
1000
0001
,  // measure 18
0000
0000
0101
0000
0100
0010
0100
0000
,  // measure 19
1010
0000
0100
0001
0100
0001
0100
0000
,  // measure 20
1100
0000
0010
0001
0010
0001
0010
0000
,  // measure 21
1100
0000
1000
0010
1000
0100
0010
0000
,  // measure 22
1010
0000
0100
0001
0100
0001
0100
0000
,  // measure 23
0101
0000
0100
0010
0100
1000
0100
0000
,  // measure 24
1010
0000
0100
0001
0100
0001
0100
0000
,  // measure 25
1100
0000
1000
0010
1000
0100
0010
0100
,  // measure 26
1000
0100
0010
0100
0010
0010
0100
0010
,  // measure 27
0001
1000
0010
0010
0010
0010
1000
0010
,  // measure 28
1000
0001
0100
0100
0100
0100
0001
0100
,  // measure 29
1000
0001
0100
0100
0100
0100
0001
0100
,  // measure 30
0000
1000
0001
1000
0100
1000
0010
0100
,  // measure 31
1000
1000
0100
1000
0010
0100
0001
0000
,  // measure 32
1000
0001
0001
0010
0100
1000
0001
0100
,  // measure 33
1000
1000
0100
1000
0010
0100
0001
0000
,  // measure 34
0000
0000
0110
0000
0010
0100
0001
0010
,  // measure 35
0100
0000
0110
0000
0100
0010
1000
0100
,  // measure 36
0010
0000
0110
0000
0010
0100
0001
0000
,  // measure 37
1010
0000
0100
0001
1000
0001
1000
0000
,  // measure 38
0101
0000
0010
1000
0001
1000
0001
0000
,  // measure 39
1100
0000
0010
0001
1000
0001
1000
0000
,  // measure 40
0101
0000
0010
1000
0001
1000
0001
1000
,  // measure 41
0001
0000
1000
0100
,  // measure 42
0001
0200
1000
0010
,  // measure 43
0001
0300
0010
1000
,  // measure 44
1000
0000
0100
0100
0100
0100
0001
0100
,  // measure 45
0001
0000
1000
0001
0010
0010
0100
0000
,  // measure 46
0001
1000
0010
0010
0010
0010
1000
0010
,  // measure 47
1000
0001
0100
0100
0100
0100
0001
0100
,  // measure 48
1000
0001
0001
0000
0010
0100
1000
0001
,  // measure 49
0001
0100
0010
1000
0010
0100
0010
0010
,  // measure 50
1000
0100
1000
0010
1000
0001
0010
0100
,  // measure 51
0000
0000
0101
0000
0100
0010
0100
0000
,  // measure 52
1010
0000
0100
0001
0100
0001
0100
0000
,  // measure 53
0110
0000
0001
0100
0001
0010
0100
0000
,  // measure 54
1100
0000
1000
0010
1000
0100
0010
0000
,  // measure 55
1010
0000
0100
0001
0100
0001
0100
0000
,  // measure 56
0101
0000
0010
1000
0010
1000
0010
0000
,  // measure 57
0011
0000
0100
1000
0100
1000
0100
0000
,  // measure 58
0110
0000
0001
0100
0001
0010
0100
0010
,  // measure 59
1000
0100
0010
0100
0010
0010
0100
0010
,  // measure 60
1000
0001
0001
0000
0010
0100
1000
0001
,  // measure 61
0001
1000
1000
0000
0100
0010
0001
1000
,  // measure 62
1000
0001
0010
0000
0001
0010
0001
1000
,  // measure 63
1000
0010
0100
0000
1000
0100
0001
1000
,  // measure 64
0001
0010
0100
0000
0001
0100
1000
0001
,  // measure 65
0001
0010
0100
0000
0001
0100
1000
0001
,  // measure 66
0001
0000
0100
0000
0001
1000
0010
0001
,  // measure 67
0001
0100
0010
1000
0010
0100
0010
0010
,  // measure 68
0001
0000
1100
0000
0010
0001
0100
0001
,  // measure 69
0001
0000
0010
0100
1000
0010
0100
0001
,  // measure 70
1000
0100
0010
0100
0010
0010
0100
0010
,  // measure 71
1000
0100
1000
1000
0100
0010
0001
0100
,  // measure 72
1000
0100
0100
0100
1000
0000
0010
0000
,  // measure 73
1000
0010
0100
0100
0010
1000
0100
1000
,  // measure 74
0001
0000
1100
0000
0010
0001
0100
0001
,  // measure 75
0000
2000
0100
3000
,  // measure 76
2000
0000
3000
0010
1000
0100
0100
0100
,  // measure 77
0000
1000
0000
0000
;

//---------------dance-single - ----------------
#NOTES:
     dance-single:
     :
     Easy:
     2:
     0.200423,0.203979,0.000000,0.029724,0.000000,236.000000,236.000000,0.000000,5.000000,0.000000,0.000000,0.200423,0.203979,0.000000,0.029724,0.000000,236.000000,236.000000,0.000000,5.000000,0.000000,0.000000:
0000
0000
0000
0000
,
0000
1000
0000
0010
,
0000
0100
0000
0001
,
0000
1000
0000
0010
,
0000
1000
0010
0100
,
0001
0010
0100
0000
,
0010
0000
1000
0000
,
0010
0000
1000
0100
,
0001
1000
0000
0010
,
1000
0000
0000
0001
,
0000
1000
0000
0001
,
0000
0001
0000
1000
,
0000
1000
0000
0001
,
0000
1000
0000
0001
,
0000
0001
0000
0020
,
0000
0130
0000
0001
,
0000
0100
0000
0010
,
0001
0001
0000
0100
,
1000
0010
0001
0100
,
1000
1000
0100
0001
,
0001
0001
0010
1000
,
1000
0010
0010
0010
,
1000
1000
0100
0001
,
1000
1000
0010
0100
,
1000
1000
0100
0001
,
1000
0010
0010
0010
,
0001
1000
0100
0001
,
1000
0000
0000
0001
,
0001
0000
0000
1000
,
1000
0000
0000
0001
,
0000
1000
0001
1000
,
0000
1000
0010
1000
,
1000
1000
0001
0000
,
0000
1000
0010
1000
,
1000
0100
0010
1000
,
0001
0010
0010
0001
,
1000
0100
0100
1000
,
1000
0100
0001
0100
,
0001
0100
1000
0100
,
0001
0100
1000
0100
,
0001
0010
1000
0010
,
0001
0000
0000
0001
,
0000
0200
0000
1000
,
0000
2300
0000
0001
,
0000
3000
0000
1000
,
0001
0000
1000
0100
,
1000
0000
0000
0001
,
0001
0000
0000
1000
,
0001
0001
0000
0100
,
0001
0010
0001
0000
,
0001
0010
0000
0100
,
1000
0010
0001
0100
,
1000
1000
0100
0001
,
1000
0100
0010
0010
,
1000
0010
0000
0010
,
1000
1000
0100
0001
,
0000
0001
0100
1000
,
0001
0001
0010
1000
,
0000
0100
0010
0010
,
0001
1000
0100
0001
,
0000
0001
0000
0100
,
0001
0001
0000
0100
,
0001
0010
0100
0010
,
0001
0001
0100
0001
,
0000
0001
0100
0001
,
1000
1000
0010
1000
,
0001
0010
0100
0010
,
0010
1000
0001
0001
,
1000
1000
0100
0001
,
1000
0100
0010
0001
,
0001
1000
0100
0001
,
1000
0100
0010
0100
,
0001
0100
0001
0100
,
1000
0010
0100
0001
,
1000
1000
0010
0001
,
0001
0020
0030
0000
,
0200
0300
0000
0000
;
