#TITLE:AYA;
#SUBTITLE:;
#ARTIST:MAMAMOO;
#TITLETRANSLIT:;
#SUBTITLETRANSLIT:;
#ARTISTTRANSLIT:;
#GENRE:;
#CREDIT:DubStepManiac;
#BANNER:Aya.png;
#BACKGROUND:Aya-bg.png;
#LYRICSPATH:;
#CDTITLE:cdtitle.png;
#MUSIC:AYA.mp3;
#OFFSET:-0.367823;
#SAMPLESTART:32.977802;
#SAMPLELENGTH:12.000000;
#SELECTABLE:YES;
#BPMS:0.000000=183.992996
,28.000000=91.995003
,29.000000=367.985992
,30.500000=183.992996
;
#STOPS:
;
#BGCHANGES:0.000=AYA.mp4=1.000=0=0=0=StretchNoLoop====,
99999=-nosongbg-=1.000=0=0=0 // don't automatically add -songbackground-
;
#KEYSOUNDS:;
#ATTACKS:;

//---------------dance-single - Basic----------------
#NOTES:
     dance-single:
     Basic:
     Easy:
     3:
     0.218256,0.302721,0.033110,0.080410,0.018920,323.000000,316.000000,7.000000,17.000000,12.000000,0.000000,0.218256,0.302721,0.033110,0.080410,0.018920,323.000000,316.000000,7.000000,17.000000,12.000000,0.000000:
// measure 0
1000
0000
0010
0000
,  // measure 1
0001
0000
0000
0000
,  // measure 2
1000
0000
0010
0000
,  // measure 3
0000
0000
1000
0000
,  // measure 4
1000
0000
0010
0000
,  // measure 5
0001
0000
0000
0000
,  // measure 6
1000
0000
0010
0000
,  // measure 7
0000
0000
0000
0000
,  // measure 8
0001
0000
0100
0000
,  // measure 9
0000
0000
1000
0000
,  // measure 10
0001
0000
0100
0000
,  // measure 11
0000
1000
0000
0010
,  // measure 12
1000
0000
0000
0000
,  // measure 13
0000
0000
1000
0000
,  // measure 14
1000
0000
0000
0000
,  // measure 15
0000
0000
1000
0001
,  // measure 16
0001
0000
0100
0000
,  // measure 17
0001
0000
0010
0000
,  // measure 18
1000
0000
0100
0000
,  // measure 19
0000
1000
0010
0000
,  // measure 20
1000
0000
0000
0000
,  // measure 21
0000
0000
1000
0000
,  // measure 22
1000
0000
0000
0000
,  // measure 23
0000
0000
0001
1000
,  // measure 24
1000
0000
0010
0000
,  // measure 25
0001
0000
0000
0100
,  // measure 26
1000
0000
0000
0010
,  // measure 27
0000
1000
0100
1000
,  // measure 28
1000
0010
0000
0000
,  // measure 29
1000
0000
0000
0010
,  // measure 30
0001
0000
0000
0000
,  // measure 31
0000
1000
0100
1000
,  // measure 32
0001
0000
0000
1000
,  // measure 33
1000
0010
0000
0000
,  // measure 34
0001
0000
0000
1000
,  // measure 35
0000
1000
0000
0010
,  // measure 36
0001
0000
0000
1000
,  // measure 37
1000
0010
0000
0000
,  // measure 38
1000
0000
0000
0010
,  // measure 39
1000
0010
0000
0000
,  // measure 40
0000
0001
0000
1000
,  // measure 41
0000
1000
0000
0001
,  // measure 42
0000
1000
0000
0001
,  // measure 43
0000
1000
0000
0001
,  // measure 44
0000
1000
0010
0100
,  // measure 45
1000
0000
0010
0200
,  // measure 46
0000
0000
0000
0000
,  // measure 47
0300
0000
0000
1000
,  // measure 48
1000
0100
0000
0010
,  // measure 49
0001
0010
0000
0000
,  // measure 50
0011
1000
0000
0000
,  // measure 51
1100
0001
0000
1000
,  // measure 52
1000
0100
0000
0010
,  // measure 53
0001
0010
0000
0000
,  // measure 54
0000
1000
0001
0000
,  // measure 55
0000
0000
0000
1000
,  // measure 56
1000
0000
0001
0100
,  // measure 57
1000
0000
0001
0100
,  // measure 58
0001
0000
1000
0010
,  // measure 59
1001
0000
0001
0010
,  // measure 60
1000
0000
0001
0100
,  // measure 61
0001
0000
1000
0100
,  // measure 62
2000
0000
0000
0000
,  // measure 63
0000
0000
3000
0000
0000
MMMM
0000
0000
,  // measure 64
1000
0000
0010
1000
,  // measure 65
1000
0100
0000
0010
,  // measure 66
1000
0000
0000
0001
,  // measure 67
1000
0000
0010
0001
,  // measure 68
1000
0100
0000
0010
,  // measure 69
1000
0000
0010
0001
,  // measure 70
1000
0000
0000
0010
,  // measure 71
0000
0000
1000
0100
,  // measure 72
1000
0000
0000
0001
,  // measure 73
1000
0000
0010
0001
,  // measure 74
1000
0000
0000
0001
,  // measure 75
1000
0000
0010
0001
,  // measure 76
1000
0000
0000
0001
,  // measure 77
1000
0000
0010
0001
,  // measure 78
1000
0000
0000
0000
,  // measure 79
1000
0000
0010
0001
,  // measure 80
0001
0000
0000
0100
,  // measure 81
1000
0000
0000
0010
,  // measure 82
0001
0000
0000
0100
,  // measure 83
0000
0001
0000
1000
,  // measure 84
0001
0000
0000
0100
,  // measure 85
1000
0010
0000
0000
,  // measure 86
0001
0000
0000
0000
,  // measure 87
0000
1000
0010
1000
,  // measure 88
1000
0000
0000
0010
,  // measure 89
1000
0010
0000
0000
,  // measure 90
0001
0000
0000
1000
,  // measure 91
1000
0010
0000
0000
,  // measure 92
0001
0000
0000
1000
,  // measure 93
1000
0010
0000
0000
,  // measure 94
0001
0000
0000
1000
,  // measure 95
1000
0010
0000
0000
,  // measure 96
0000
0001
0000
1000
,  // measure 97
0000
1000
0000
0001
,  // measure 98
0000
0001
0000
1000
,  // measure 99
0000
0001
0000
1000
,  // measure 100
0000
1000
0010
0100
,  // measure 101
1000
0000
0010
0002
,  // measure 102
0003
0000
0000
0000
,  // measure 103
M00M
0000
0000
0000
,  // measure 104
1000
0100
0000
0010
,  // measure 105
0001
0010
0000
0000
,  // measure 106
0011
1000
0000
0000
,  // measure 107
1100
0001
0000
1000
,  // measure 108
1000
0100
0000
0010
,  // measure 109
0001
0010
0000
0000
,  // measure 110
0000
1000
0001
0000
,  // measure 111
0000
0000
0000
1000
,  // measure 112
1000
0000
0001
0100
,  // measure 113
1000
0000
0001
0100
,  // measure 114
1000
0000
0001
0100
,  // measure 115
1001
0000
0001
0010
,  // measure 116
1000
0000
0001
0100
,  // measure 117
0001
0000
1000
0010
,  // measure 118
1000
0000
0000
0000
,  // measure 119
0000
0001
0000
0000
,  // measure 120
0200
0000
0000
0000
,  // measure 121
0000
0000
0000
0000
,  // measure 122
0000
0300
2000
0000
,  // measure 123
0000
3000
0002
0000
,  // measure 124
0000
0000
1003
0000
,  // measure 125
1000
0000
0010
0000
,  // measure 126
0100
0000
1000
0000
,  // measure 127
1000
0000
0010
0000
,  // measure 128
0000
0001
0010
0000
,  // measure 129
1000
0000
0010
0000
,  // measure 130
0000
0001
0010
0000
,  // measure 131
0001
0000
1000
0001
,  // measure 132
0001
0000
1000
0010
,  // measure 133
0000
0100
0000
0000
,  // measure 134
0000
0000
0000
0000
,  // measure 135
0MM0
0000
0000
1000
,  // measure 136
0002
0000
0003
0000
,  // measure 137
0000
0000
0000
0000
,  // measure 138
1000
0000
2000
0000
,  // measure 139
3000
0000
0000
0000
0000
0000
0000
0000
0001
0000
0000
0000
0000
0010
0000
0000
,  // measure 140
0001
0000
0000
0000
,  // measure 141
1000
0000
0000
0001
0000
0000
0010
0000
0000
0000
0000
0000
0000
0000
0000
0000
,  // measure 142
0000
0000
0000
0000
1000
0000
0000
0001
0000
0000
0000
0000
0000
0000
0000
0000
,  // measure 143
0000
0000
0000
0000
0000
0000
0000
0000
0001
0000
0000
0000
0010
0000
0000
1000
,  // measure 144
0000
1000
0000
0000
0000
0000
0000
0000
,  // measure 145
1000
0000
0000
0100
0000
0000
0000
0000
0000
0000
0000
0000
0000
0000
0000
0000
,  // measure 146
0000
0001
0000
0000
,  // measure 147
1000
0000
1000
0000
0020
0030
0000
0000
,  // measure 148
0002
0003
0200
0300
0000
0000
0000
0000
,  // measure 149
0002
0000
0000
0000
0003
0100
0000
0000
,  // measure 150
0001
0000
0000
0000
0000
0000
0000
0000
0000
0000
1000
0000
0000
0010
0000
0000
,  // measure 151
0001
0100
0000
0000
,  // measure 152
0000
0000
0000
0200
0000
0000
0301
0000
,  // measure 153
0000
0000
0000
0000
0000
0000
0000
0000
0000
0000
0000
0000
1000
0000
0000
0100
,  // measure 154
0000
0000
0000
0000
0001
0000
0000
0001
0000
0000
0000
0000
1000
0000
0000
0000
,  // measure 155
0000
0001
0000
0000
0001
0000
1000
0000
,  // measure 156
0000
0010
0000
0000
0001
0000
0000
0000
,  // measure 157
0000
0000
0000
0002
0000
0003
0000
0000
,  // measure 158
0000
0000
1100
0000
0200
0300
0000
0020
,  // measure 159
0030
0000
0200
0000
0000
0300
0000
0000
,  // measure 160
MMMM
0000
0000
0000
;

//---------------dance-single - Standard----------------
#NOTES:
     dance-single:
     Standard:
     Medium:
     5:
     0.310829,0.529761,0.113520,0.037840,0.002365,460.000000,436.000000,24.000000,8.000000,14.000000,0.000000,0.310829,0.529761,0.113520,0.037840,0.002365,460.000000,436.000000,24.000000,8.000000,14.000000,0.000000:
// measure 0
1000
0000
0100
0000
,  // measure 1
0001
0000
0000
0000
,  // measure 2
1000
0000
0100
0000
,  // measure 3
0000
0000
1000
0000
,  // measure 4
1000
0000
0100
0000
,  // measure 5
0001
0000
0000
0000
,  // measure 6
1000
0000
0100
0000
,  // measure 7
0000
0000
0000
0000
,  // measure 8
0001
0000
0100
0000
,  // measure 9
0000
0000
1000
0000
,  // measure 10
1000
0000
0001
0000
,  // measure 11
0000
1000
0000
0010
,  // measure 12
1000
0000
0000
0000
,  // measure 13
0000
0000
1000
0000
,  // measure 14
1000
0000
0000
0000
,  // measure 15
0000
0000
1000
0100
,  // measure 16
1000
0000
0001
0000
,  // measure 17
0001
0000
1000
0000
,  // measure 18
0001
0000
1000
0000
,  // measure 19
0000
1000
0100
0000
,  // measure 20
1000
0000
0100
0000
,  // measure 21
0000
0000
1000
0000
,  // measure 22
1000
0000
0000
0000
,  // measure 23
0000
0000
0000
0000
0001
0000
0010
0010
,  // measure 24
1000
0000
0100
0000
,  // measure 25
1000
0001
0000
1000
,  // measure 26
1000
0000
0001
0100
,  // measure 27
0000
1000
0010
0100
,  // measure 28
0001
0100
0000
0001
,  // measure 29
1000
0000
0001
0100
,  // measure 30
1000
0000
0000
0001
,  // measure 31
0000
1000
0010
0100
,  // measure 32
0001
0001
0000
0010
,  // measure 33
1000
0010
0000
0000
,  // measure 34
0001
0001
0000
0010
,  // measure 35
0000
1000
0000
0010
,  // measure 36
0001
0001
0000
0010
,  // measure 37
1000
0010
0000
0000
,  // measure 38
1000
0000
1000
0001
,  // measure 39
1000
0010
0000
0000
,  // measure 40
1000
0010
0000
0001
,  // measure 41
1000
0010
0000
0001
,  // measure 42
0001
0100
0000
1000
,  // measure 43
0001
0100
0000
1000
,  // measure 44
1000
0001
1000
0010
,  // measure 45
1000
0100
1000
0200
,  // measure 46
0000
0000
0000
0300
,  // measure 47
0MM0
0000
0000
0001
,  // measure 48
0001
0100
0001
1000
,  // measure 49
0011
0000
0001
1000
0000
0000
0000
0000
,  // measure 50
0101
1000
0000
1000
,  // measure 51
1001
0000
1000
0100
0000
0000
0110
0000
,  // measure 52
0001
0100
0001
1000
,  // measure 53
0011
0000
0001
1000
0000
0000
0000
0000
,  // measure 54
0000
0001
0010
0001
,  // measure 55
0000
0000
0000
0001
,  // measure 56
0011
0000
0001
0010
0100
0000
1000
0000
,  // measure 57
0011
0000
0001
0010
0100
0000
1000
0000
,  // measure 58
1010
0000
1000
0010
0100
0000
0001
0000
,  // measure 59
0101
1000
0100
1000
,  // measure 60
0011
0000
0001
0010
0100
0000
1000
0000
,  // measure 61
0011
0000
0001
0010
0100
0000
1000
0000
,  // measure 62
2000
0000
0000
0000
,  // measure 63
0000
0000
3000
0000
0000
MMMM
0000
0000
,  // measure 64
0101
0001
1000
0100
,  // measure 65
0001
0100
0001
1000
,  // measure 66
1000
0000
0100
0010
,  // measure 67
1000
0100
1000
0001
,  // measure 68
0001
0100
0001
1000
,  // measure 69
1000
0100
1000
0001
,  // measure 70
1000
0000
0001
0100
,  // measure 71
0001
0000
0010
0001
,  // measure 72
1000
0000
0100
0010
,  // measure 73
1000
0100
1000
0001
,  // measure 74
1000
0000
0100
0010
,  // measure 75
1000
0100
1000
0001
,  // measure 76
1000
0000
0100
0010
,  // measure 77
1000
0100
1000
0001
,  // measure 78
1000
0000
0000
0000
,  // measure 79
1000
0100
1000
0001
,  // measure 80
1000
0001
0000
1000
,  // measure 81
0001
1000
0000
0001
,  // measure 82
1000
0001
0000
1000
,  // measure 83
1000
0010
0000
0001
,  // measure 84
1000
0001
0000
1000
,  // measure 85
0001
0100
0000
0001
,  // measure 86
1000
0000
0000
0001
,  // measure 87
0001
0100
0001
1000
,  // measure 88
1000
0000
1000
0001
,  // measure 89
1000
0010
0000
0000
,  // measure 90
0001
0001
0000
0010
,  // measure 91
1000
0010
0000
0000
,  // measure 92
0001
0001
0000
0010
,  // measure 93
1000
0010
0000
0000
,  // measure 94
0001
0001
0000
0010
,  // measure 95
1000
0010
0000
0000
,  // measure 96
1000
0010
0000
0001
,  // measure 97
0001
0010
0000
1000
,  // measure 98
1000
0010
0000
0001
,  // measure 99
0001
0100
0000
1000
,  // measure 100
1000
0001
1000
0010
,  // measure 101
1000
0100
1000
0200
,  // measure 102
0300
0000
0000
0000
,  // measure 103
0MM0
0000
0000
0000
,  // measure 104
0001
0100
0001
1000
,  // measure 105
0011
0000
0001
1000
0000
0000
0000
0000
,  // measure 106
0101
1000
0000
1000
,  // measure 107
1001
0000
1000
0100
0000
0000
0110
0000
,  // measure 108
0001
0100
0001
1000
,  // measure 109
0011
0000
0001
1000
0000
0000
0000
0000
,  // measure 110
0000
0001
0010
0001
,  // measure 111
0000
0000
0000
0001
,  // measure 112
0011
0000
0001
0010
0100
0000
1000
0000
,  // measure 113
1010
0000
1000
0010
0100
0000
0001
0000
,  // measure 114
0101
0000
0001
0100
0010
0000
1000
0000
,  // measure 115
0101
1000
0100
1000
,  // measure 116
0011
0000
0001
0010
0100
0000
1000
0000
,  // measure 117
0011
0000
0001
0010
0100
0000
1000
0000
,  // measure 118
1000
0000
0000
0000
,  // measure 119
1000
0000
0010
0000
,  // measure 120
0001
0000
0200
0000
,  // measure 121
0000
0000
0000
0000
,  // measure 122
0000
0000
0300
0000
,  // measure 123
1000
0000
0020
0000
,  // measure 124
0000
0000
0000
0030
,  // measure 125
1000
0010
0000
0000
,  // measure 126
0000
0000
1000
0000
,  // measure 127
0001
0000
0010
1000
,  // measure 128
0000
1000
0001
0100
,  // measure 129
0001
0000
0010
1000
,  // measure 130
0000
1000
0001
0100
,  // measure 131
1000
0010
0100
0001
,  // measure 132
0001
0000
0010
0000
0001
0100
0001
0000
,  // measure 133
0000
0000
0000
0000
,  // measure 134
0000
0000
0000
0000
,  // measure 135
M00M
0000
0000
0000
0000
0000
0001
0010
,  // measure 136
0001
0000
0000
0010
,  // measure 137
1000
0001
0000
0000
0000
0000
0000
0000
,  // measure 138
1000
0001
1000
0010
,  // measure 139
0000
0000
1000
0100
,  // measure 140
1000
0000
0000
0100
,  // measure 141
1000
0100
0010
0000
,  // measure 142
0000
1000
0100
0010
,  // measure 143
0001
0000
1000
0100
,  // measure 144
1000
0100
0100
0000
0000
0000
0000
0000
,  // measure 145
1000
0100
0000
0000
,  // measure 146
0000
1000
0000
0000
,  // measure 147
0001
0001
0020
0030
,  // measure 148
1000
1000
0200
0300
,  // measure 149
0002
0000
0100
0000
0003
0000
0001
0001
,  // measure 150
0001
0000
0010
0000
0001
0100
0001
0000
,  // measure 151
0001
0010
0100
0000
,  // measure 152
0000
0000
0001
0000
0100
0010
0010
0000
,  // measure 153
0001
0000
0010
0000
0001
0100
0001
0000
,  // measure 154
0000
0000
1000
0001
0001
0000
1000
0000
,  // measure 155
0000
0000
1000
0001
0001
0000
1000
0000
,  // measure 156
0001
1000
0010
0000
,  // measure 157
1000
0000
0000
0000
0000
0000
0100
0000
0000
0000
1000
0000
0000
0000
0000
0001
,  // measure 158
0000
0000
0010
0000
0100
0000
0000
0010
,  // measure 159
0000
0000
0100
0000
0000
0110
0000
0000
,  // measure 160
MMMM
0000
0000
0000
;

//---------------dance-single - ----------------
#NOTES:
     dance-single:
     :
     Challenge:
     7:
     0.441242,0.567601,0.302721,0.042570,0.073315,653.000000,589.000000,64.000000,9.000000,14.000000,0.000000,0.441242,0.567601,0.302721,0.042570,0.073315,653.000000,589.000000,64.000000,9.000000,14.000000,0.000000:
// measure 0
0001
0000
0100
0100
,  // measure 1
1000
0000
0000
0000
,  // measure 2
0001
0000
0100
0100
,  // measure 3
1000
0000
1000
0000
,  // measure 4
0001
0000
0100
0100
,  // measure 5
1000
0000
0000
0000
,  // measure 6
0001
0000
0100
0100
,  // measure 7
1000
0000
0000
0000
,  // measure 8
0110
0000
0000
1000
0010
0000
0000
0000
,  // measure 9
1000
0000
1000
0000
,  // measure 10
1000
0001
1000
0000
,  // measure 11
0000
1000
1000
0010
,  // measure 12
0001
0000
0001
0000
,  // measure 13
1000
0000
1000
0000
,  // measure 14
0001
0000
0001
0000
,  // measure 15
0000
0000
0000
1000
0100
0000
0010
0000
,  // measure 16
1000
0001
1000
0000
,  // measure 17
0001
1000
0001
0000
,  // measure 18
0001
1000
0001
0000
,  // measure 19
0000
1000
0010
0000
0001
0000
0000
0000
,  // measure 20
0001
0000
0001
0000
,  // measure 21
1000
0000
1000
0000
,  // measure 22
0002
0000
0003
0000
,  // measure 23
0100
1000
0000
0000
0010
0001
0000
0000
0100
0000
0000
0000
0001
0000
0001
0000
,  // measure 24
0001
0000
0100
0100
,  // measure 25
0001
0000
1000
0000
0000
0000
0001
0010
,  // measure 26
1000
0000
0000
0100
0010
0000
0100
0000
,  // measure 27
0000
0000
1000
0010
0100
0000
0001
0000
,  // measure 28
1000
0001
0000
0100
,  // measure 29
1000
0000
0000
0100
0010
0000
0100
0000
,  // measure 30
0110
0000
0000
0001
,  // measure 31
0000
0000
1000
0010
0100
0000
0001
0000
,  // measure 32
0001
0000
0001
1000
0000
0000
0100
0000
,  // measure 33
0001
0010
0000
0100
,  // measure 34
0001
0000
0001
1000
0000
0000
0100
0000
,  // measure 35
0000
1000
1000
0010
,  // measure 36
0001
0000
0001
1000
0000
0000
0100
0000
,  // measure 37
0001
0010
0000
0100
,  // measure 38
1000
0000
0001
0010
0000
0000
0100
0000
,  // measure 39
0001
0010
0000
0100
,  // measure 40
1000
0100
0010
0100
,  // measure 41
0001
0010
0100
0010
,  // measure 42
1000
0010
0100
0010
,  // measure 43
0001
0100
0010
0100
,  // measure 44
1000
0000
0100
1000
0100
0000
1000
0000
,  // measure 45
0110
0000
0001
0010
0001
0000
0100
0000
,  // measure 46
1000
0000
0000
0000
,  // measure 47
0MM0
0000
0000
0000
0000
0001
0010
0000
,  // measure 48
0110
0000
0001
0010
0100
0000
1000
0000
,  // measure 49
1001
0000
0010
0001
0000
0000
0110
0000
,  // measure 50
0011
0000
0001
1000
0000
0000
1000
0000
,  // measure 51
1010
0000
1000
0100
0000
0000
0011
0000
,  // measure 52
0110
0000
0001
0010
0100
0000
1000
0000
,  // measure 53
1001
0000
0010
0001
0000
0000
0110
0000
,  // measure 54
0001
1000
0100
1000
,  // measure 55
0000
0000
0000
0000
0000
0001
0010
0000
,  // measure 56
0110
0000
0010
0001
0100
0000
0001
0000
,  // measure 57
0110
0000
0100
0001
0010
0000
0001
0000
,  // measure 58
0110
0000
0100
1000
0010
0000
1000
0000
,  // measure 59
1001
0000
0001
0010
0001
0000
1000
0000
,  // measure 60
0110
0000
0010
0001
0100
0000
0001
0000
,  // measure 61
0110
0000
0010
0001
0100
0000
0001
0000
,  // measure 62
0002
0000
0000
0000
,  // measure 63
0000
0000
1003
0000
0000
MMMM
0000
0000
,  // measure 64
1001
0000
0001
1000
0001
0000
0010
0000
,  // measure 65
0110
0000
0001
0010
0100
0000
1000
0000
,  // measure 66
0001
1000
0000
0100
1000
0000
0001
0000
,  // measure 67
0110
0000
0001
0010
0001
0000
0100
0000
,  // measure 68
0110
0000
0001
0010
0100
0000
1000
0000
,  // measure 69
0110
0000
0001
0010
0001
0000
0100
0000
,  // measure 70
1000
0000
0000
0100
0010
0000
0100
0000
,  // measure 71
0001
0000
0000
1000
0001
0000
1100
0000
,  // measure 72
0001
1000
0100
0000
1000
0000
0001
0000
,  // measure 73
0110
0000
0001
0010
0001
0000
0100
0000
,  // measure 74
0001
1000
0100
0000
1000
0000
0001
0000
,  // measure 75
0110
0000
0001
0010
0001
0000
0100
0000
,  // measure 76
0001
1000
0000
0100
1000
0000
0001
0000
,  // measure 77
0110
0000
0001
0010
0001
0000
0100
0000
,  // measure 78
0001
0000
0001
0000
,  // measure 79
0110
0000
0001
0010
0001
0000
0100
0000
,  // measure 80
0001
0000
1000
0000
1100
0000
0001
0010
,  // measure 81
0001
0000
1000
0000
1010
0000
0001
0100
,  // measure 82
1000
0000
0001
0000
0101
0000
1000
0100
,  // measure 83
1000
0100
0010
0100
,  // measure 84
0001
0000
1000
0000
0100
0000
0001
0010
,  // measure 85
1000
0001
0010
0100
,  // measure 86
0110
0000
0000
0001
,  // measure 87
0100
1000
0000
0000
0010
0100
0000
0000
0001
0000
0000
0000
1000
0000
1000
0000
,  // measure 88
1000
0001
0001
0100
,  // measure 89
0001
0010
0000
0100
,  // measure 90
0001
0000
0001
1000
0000
0000
0100
0000
,  // measure 91
0001
0010
0000
0100
,  // measure 92
0001
0000
0001
1000
0000
0000
0100
0000
,  // measure 93
0001
0010
0000
0100
,  // measure 94
0001
0000
0001
1000
0000
0000
0100
0000
,  // measure 95
0001
0010
0000
0100
,  // measure 96
1000
0100
0010
0100
,  // measure 97
0001
0100
0010
0100
,  // measure 98
1000
0100
0010
0100
,  // measure 99
1000
0100
0010
0100
,  // measure 100
1000
0000
0100
1000
0100
0000
1000
0000
,  // measure 101
0110
0000
0001
0010
0001
0000
0200
0000
,  // measure 102
1300
0000
0000
0000
,  // measure 103
0MM0
0000
0000
0000
,  // measure 104
0110
0000
0001
0010
0100
0000
1000
0000
,  // measure 105
1001
0000
0010
0001
0000
0000
0110
0000
,  // measure 106
0011
0000
0001
1000
0000
0000
1000
0000
,  // measure 107
1010
0000
1000
0100
0000
0000
0011
0000
,  // measure 108
0110
0000
0001
0010
0100
0000
1000
0000
,  // measure 109
1001
0000
0010
0001
0000
0000
0110
0000
,  // measure 110
0001
0000
0000
0000
1000
0100
0000
0000
0100
0010
0000
0000
1000
0100
0000
0000
,  // measure 111
0000
0000
0000
0000
0000
0001
0010
0000
,  // measure 112
0110
0000
0010
0001
0100
0000
0001
0000
,  // measure 113
0110
0000
0100
0001
0010
0000
0001
0000
,  // measure 114
0110
0000
0010
1000
0100
0000
1000
0000
,  // measure 115
1001
0000
0001
0010
0001
0000
1000
0000
,  // measure 116
0110
0000
0010
0001
0100
0000
0001
0000
,  // measure 117
0110
0000
0010
1000
0100
0000
1000
0000
,  // measure 118
0002
0000
0000
0000
,  // measure 119
0000
1003
0000
0000
,  // measure 120
0101
0000
0001
0000
,  // measure 121
0011
0000
0010
0000
,  // measure 122
1001
0000
1000
0000
,  // measure 123
0101
0000
0100
0000
,  // measure 124
1010
0000
1001
0000
,  // measure 125
0001
0010
0000
0100
,  // measure 126
1000
0000
1010
0000
,  // measure 127
1000
0000
0001
0000
1000
0000
0001
0010
,  // measure 128
1000
0101
0001
0100
,  // measure 129
1000
0000
0001
0000
1000
0000
0001
0010
,  // measure 130
1000
0101
0001
0100
,  // measure 131
1000
0000
0100
0000
0010
0100
0010
0001
,  // measure 132
0001
0000
0010
0001
1000
0000
1000
0100
,  // measure 133
1000
0001
0010
0001
0010
0000
0100
0000
,  // measure 134
2000
0000
0000
3000
,  // measure 135
0MM0
0000
0000
0000
,  // measure 136
0001
0100
0000
0000
0000
0000
0000
0000
,  // measure 137
0010
0000
1000
0010
0100
0000
0000
0000
,  // measure 138
1000
0000
0000
0000
1000
0100
0000
0000
,  // measure 139
1000
0000
0000
0000
0000
0000
0000
0000
0010
0000
0000
0001
0000
0000
0010
0000
,  // measure 140
0000
0001
0000
0000
0100
0000
0001
0000
0000
0010
0000
0000
0110
0000
0000
0000
,  // measure 141
0000
0000
0000
0000
0100
0000
1000
0000
0000
0000
0000
0110
0000
0000
0000
0000
,  // measure 142
1000
0000
0000
0100
0000
0000
1000
0000
0000
0100
0000
0000
0010
0000
0000
0100
,  // measure 143
0000
0000
0010
0000
0000
0001
0000
0000
1001
0000
0000
0000
0010
0000
0000
1000
,  // measure 144
0000
0000
0001
0000
0000
0010
0000
0000
0010
0000
0000
0000
0000
0000
0000
0000
,  // measure 145
1000
0000
0000
0010
0000
0000
0100
0000
0000
0010
0000
0000
0001
0000
0100
0000
,  // measure 146
0000
0010
0000
0000
1000
0000
0000
0000
0000
0000
0000
0000
0001
0000
0000
1010
,  // measure 147
0000
0000
0000
0000
0001
0000
0000
0000
0020
0000
0000
0000
0030
0000
0000
0001
,  // measure 148
0100
0000
0000
0010
0100
0000
0000
0000
0200
0000
0000
0000
0300
0000
0000
0000
,  // measure 149
0002
0000
1003
0000
0000
1001
0000
0000
,  // measure 150
0001
0000
0000
0000
0010
0000
0000
0000
0000
0000
1000
0000
0000
0100
0000
0000
,  // measure 151
0001
0000
0000
0000
0000
0000
0000
0010
0100
0000
0000
0000
0000
0000
1000
0000
,  // measure 152
0000
0010
0000
0100
0000
0001
0000
0001
,  // measure 153
0000
0000
0000
0000
0010
0000
0001
0000
0000
0000
0000
0000
1000
0000
0000
0100
,  // measure 154
0000
1000
0000
0000
2000
0000
3100
0000
,  // measure 155
0000
0101
0000
0000
0010
0000
1000
0000
,  // measure 156
0000
0000
0010
0000
0000
1000
0000
0000
0001
0000
0000
0000
1000
0000
0000
0000
,  // measure 157
0100
0000
0000
0000
0000
0000
1000
0000
0000
0000
0100
0000
0000
0000
0000
0010
,  // measure 158
0000
0000
0000
0000
1001
0000
0000
0000
0100
0010
0000
0000
0000
0000
0010
0100
,  // measure 159
0000
0000
0000
0000
0010
0001
0000
0000
0000
0000
1000
0000
0000
0000
0000
0000
,  // measure 160
MMMM
0000
0000
0000
;

//---------------dance-single - ----------------
#NOTES:
     dance-single:
     :
     Hard:
     6:
     0.358805,0.491921,0.184470,0.321641,0.042570,531.000000,492.000000,39.000000,68.000000,14.000000,0.000000,0.358805,0.491921,0.184470,0.321641,0.042570,531.000000,492.000000,39.000000,68.000000,14.000000,0.000000:
// measure 0
0001
0000
0200
0000
,  // measure 1
1300
0000
0000
0000
,  // measure 2
0001
0000
0200
0000
,  // measure 3
1300
0000
0100
0000
,  // measure 4
0001
0000
0020
0000
,  // measure 5
1030
0000
0010
0000
,  // measure 6
0001
0000
0200
0000
,  // measure 7
1300
0000
0000
0000
,  // measure 8
0100
0000
0010
0000
,  // measure 9
1000
0000
1000
0000
,  // measure 10
1000
0001
1000
0000
,  // measure 11
0000
1000
1000
0010
,  // measure 12
0001
0000
0001
0000
,  // measure 13
1000
0000
1000
0000
,  // measure 14
0001
0000
0001
0000
,  // measure 15
0000
0000
0000
1000
0100
0000
0010
0000
,  // measure 16
1000
0001
1000
0000
,  // measure 17
0010
1000
0010
0000
,  // measure 18
0001
1000
0001
0000
,  // measure 19
0000
2000
0000
0000
3001
0000
0000
0000
,  // measure 20
0001
0000
0001
0000
,  // measure 21
1000
0000
1000
0000
,  // measure 22
0002
0000
0003
0000
,  // measure 23
0200
0300
0020
0030
0200
0300
0001
0000
,  // measure 24
0001
0000
0100
0100
,  // measure 25
0001
0010
0000
0001
,  // measure 26
1000
0100
0010
0100
,  // measure 27
0000
0000
1000
0100
0010
0000
0001
0000
,  // measure 28
1000
0001
0000
0010
,  // measure 29
1000
0010
0100
0010
,  // measure 30
1001
0000
0000
0001
,  // measure 31
0000
0100
1000
0100
,  // measure 32
0001
0001
1000
0100
,  // measure 33
0001
0010
0000
0100
,  // measure 34
0001
0001
1000
0100
,  // measure 35
0000
1000
1000
0010
,  // measure 36
0001
0001
1000
0100
,  // measure 37
0001
0010
0000
0010
,  // measure 38
1000
0001
0100
1000
,  // measure 39
0001
0010
0000
0100
,  // measure 40
1000
0100
0010
0100
,  // measure 41
0001
0010
0100
0010
,  // measure 42
1000
0010
0100
0010
,  // measure 43
0001
0100
0010
0100
,  // measure 44
1000
0000
0100
0010
0100
0000
1000
0000
,  // measure 45
0010
0000
0001
0010
0001
0000
0100
0000
,  // measure 46
1000
0000
0000
0000
,  // measure 47
M00M
0000
0000
0000
,  // measure 48
0110
0002
1003
0100
,  // measure 49
0001
0010
0000
0100
,  // measure 50
0010
0001
0100
1000
,  // measure 51
0020
0000
0000
0130
0000
0000
0010
0000
,  // measure 52
0100
0001
0100
1000
,  // measure 53
0002
0000
0010
0003
0000
0000
0110
0000
,  // measure 54
0001
1000
0100
1000
,  // measure 55
0000
0000
0000
0000
,  // measure 56
0100
0010
0100
0001
,  // measure 57
0020
0130
0010
0001
,  // measure 58
0200
0310
0100
1000
,  // measure 59
0002
1003
0001
1000
,  // measure 60
0200
0310
0100
0001
,  // measure 61
0020
0130
0100
0001
,  // measure 62
0020
0000
0000
0000
,  // measure 63
0000
0000
0130
0000
0000
MMMM
0000
0000
,  // measure 64
1001
0000
0001
0100
0001
0000
0100
0000
,  // measure 65
0010
0000
0001
0010
0100
0000
1000
0000
,  // measure 66
0002
0000
0003
2000
0000
3000
0001
0000
,  // measure 67
0110
0001
0001
0100
,  // measure 68
0110
0000
0001
0010
0001
0000
1000
0000
,  // measure 69
0110
0002
0103
0010
,  // measure 70
1000
0000
0000
0110
0000
0000
0000
0000
,  // measure 71
0002
0000
0000
2003
3000
0000
1000
0000
,  // measure 72
0002
0103
1000
0001
,  // measure 73
0100
0002
0000
0103
,  // measure 74
0200
0310
1000
0001
,  // measure 75
0100
0002
0013
0100
,  // measure 76
0002
0000
1003
0001
,  // measure 77
0110
0200
0010
0300
,  // measure 78
0001
0000
0001
0000
,  // measure 79
0110
0002
0013
0100
,  // measure 80
0001
0100
1000
0010
,  // measure 81
0001
1000
1010
0001
,  // measure 82
1000
0001
0101
1000
,  // measure 83
0100
0010
0110
1000
,  // measure 84
0100
0001
0010
1000
,  // measure 85
0001
1000
0100
0010
,  // measure 86
0200
0300
0000
0001
,  // measure 87
0200
0000
0000
0300
0020
0000
0000
0030
0002
0000
0000
0003
1000
0000
0000
0000
,  // measure 88
0010
0001
0001
0100
,  // measure 89
0001
0010
0000
0100
,  // measure 90
0001
0001
0000
0100
,  // measure 91
0001
0010
0000
0100
,  // measure 92
0001
0001
0000
0100
,  // measure 93
0001
0010
0000
0100
,  // measure 94
0001
0001
0000
0100
,  // measure 95
0001
0010
0000
0100
,  // measure 96
1000
0100
0010
0100
,  // measure 97
0001
0100
0010
0100
,  // measure 98
1000
0100
0010
0100
,  // measure 99
1000
0100
0001
0010
,  // measure 100
0100
0000
1000
0100
1000
0000
0001
0000
,  // measure 101
0100
0000
0001
0010
0001
0000
0200
0000
,  // measure 102
1300
0000
0000
0000
,  // measure 103
M00M
0000
0000
0000
,  // measure 104
0110
0002
0103
1000
,  // measure 105
2000
3001
0000
0110
,  // measure 106
0002
0013
0000
1000
,  // measure 107
2000
3010
0000
0001
,  // measure 108
0110
0002
0103
1000
,  // measure 109
0002
0000
0010
0003
0000
0000
0110
0000
,  // measure 110
0001
0000
0000
0000
2000
0000
0000
3000
0200
0000
0000
0300
2000
0000
0000
3000
,  // measure 111
0000
0000
0000
0000
,  // measure 112
0110
0020
0130
0001
,  // measure 113
0110
0200
0310
0001
,  // measure 114
0110
0020
0130
1000
,  // measure 115
1001
0200
0301
1000
,  // measure 116
0110
0020
0130
0001
,  // measure 117
0110
0200
1300
0001
,  // measure 118
0020
0000
0000
0000
,  // measure 119
0000
1030
0000
0000
,  // measure 120
0101
0000
0001
0000
,  // measure 121
0011
0000
0010
0000
,  // measure 122
1001
0000
1000
0000
,  // measure 123
0101
0000
0100
0000
,  // measure 124
1010
0000
0001
0000
,  // measure 125
0001
0000
0110
0000
,  // measure 126
1000
0000
1010
0000
,  // measure 127
1000
0001
1000
0002
,  // measure 128
1003
0100
0001
0100
,  // measure 129
1000
0001
1000
0002
,  // measure 130
1003
0100
0001
0100
,  // measure 131
1000
0000
0100
0000
0010
0000
0001
0010
,  // measure 132
0004
0000
0000
0000
,  // measure 133
0000
0000
0003
0100
,  // measure 134
2000
0000
0000
3000
,  // measure 135
0MM0
0000
0000
0000
,  // measure 136
0220
0330
0000
0000
,  // measure 137
0010
2000
3100
0000
,  // measure 138
1000
0000
2000
0000
,  // measure 139
3010
0000
0000
0000
0000
0000
0000
0000
0010
0000
0000
0001
0000
0000
0100
0000
,  // measure 140
0000
0010
0000
0000
1000
0000
0001
0000
0000
0010
0000
0000
0100
0000
0000
0000
,  // measure 141
0000
0000
0000
0000
0100
0000
1000
0000
0000
0000
0000
0110
0000
0000
0000
0000
,  // measure 142
0000
1000
0000
0100
0000
0000
1000
0000
0000
0100
0000
0000
0010
0000
0000
0100
,  // measure 143
0000
0000
0010
0000
0000
0001
0000
0000
1001
0000
0000
0000
0010
0000
0000
1000
,  // measure 144
0000
0000
0001
0000
0000
0010
0000
0000
0010
0000
0000
0000
0000
0000
0000
0000
,  // measure 145
1000
0000
0000
0010
0000
0000
0100
0000
0000
0010
0000
0000
0001
0000
0100
0000
,  // measure 146
0000
0010
0000
0000
1000
0000
0000
0000
0000
0000
0000
0000
0001
0000
1010
0000
,  // measure 147
0000
0000
0001
0000
0020
0030
0000
0000
,  // measure 148
0002
0003
0200
0300
0000
0000
0000
0000
,  // measure 149
0002
0000
1003
0000
0000
1001
0000
0000
,  // measure 150
0002
0000
0000
0000
0003
0000
0000
0000
0000
0000
1000
0000
0000
0100
0000
0000
,  // measure 151
0001
0000
0000
0000
0110
0000
0000
1000
,  // measure 152
0000
0010
0000
0200
0000
0000
0301
0000
,  // measure 153
0000
0000
0000
0000
0000
0000
0001
0000
0000
0000
0000
0000
1000
0000
0000
0100
,  // measure 154
0000
1000
0000
0000
2000
0000
3100
0000
,  // measure 155
0000
0101
0000
0000
0010
0000
1000
0000
,  // measure 156
0000
0000
0010
0000
0000
1000
0000
0000
0001
0000
0000
0000
0000
0000
0000
0000
,  // measure 157
0100
0000
0000
0000
0000
0000
1000
0000
0000
0000
0100
0000
0000
0000
0000
0001
,  // measure 158
0000
0000
0110
0000
0200
0300
0000
0020
,  // measure 159
0030
0000
0200
0300
0000
1001
0000
0000
,  // measure 160
MMMM
0000
0000
0000
;
