#TITLE:Aura;
#SUBTITLE:;
#ARTIST:GOT7;
#TITLETRANSLIT:;
#SUBTITLETRANSLIT:;
#ARTISTTRANSLIT:;
#GENRE:;
#CREDIT:DubStepManiac;
#BANNER:Aura.png;
#BACKGROUND:Aura-bg.png;
#LYRICSPATH:;
#CDTITLE:cdtitle.png;
#MUSIC:Aura.mp3;
#OFFSET:-0.498277;
#SAMPLESTART:33.838409;
#SAMPLELENGTH:12.000000;
#SELECTABLE:YES;
#BPMS:0.000000=179.962997
;
#STOPS:
;
#BGCHANGES:0.000=Aura.mp4=1.000=0=0=0=StretchNoLoop====,
99999=-nosongbg-=1.000=0=0=0 // don't automatically add -songbackground-
;
#KEYSOUNDS:;
#ATTACKS:;

//---------------dance-single - ----------------
#NOTES:
     dance-single:
     :
     Easy:
     3:
     0.205329,0.313160,0.012129,0.036387,0.000000,237.000000,235.000000,2.000000,6.000000,0.000000,0.000000,0.205329,0.313160,0.012129,0.036387,0.000000,237.000000,235.000000,2.000000,6.000000,0.000000,0.000000:
0000
0000
0000
0000
,
0000
0000
0000
0000
,
0000
0000
1000
0000
,
1000
0010
0000
0000
,
0000
1000
0001
0000
,
0001
0001
1000
0000
,
0000
1000
0001
0000
,
1000
0010
0000
0000
,
0000
1000
0001
0000
,
0001
0001
1000
0000
,
0000
1000
0001
0000
,
1000
0010
0000
0000
,
0000
1000
0001
0000
,
0001
0001
1000
0000
,
0000
1000
0001
0000
,
0001
0001
0000
0000
,
0000
1000
0001
0000
,
0001
0001
1000
0000
,
0000
1000
0001
0000
,
0002
0000
0000
0000
,
0000
0000
0023
0000
,
0000
0000
2030
0000
,
0000
0000
0000
0000
,
0000
0000
0000
0000
,
0000
0000
0000
0000
,
3002
0000
0000
0000
,
0000
0000
0000
0000
,
0003
1000
0010
0000
,
1000
0000
0100
0000
,
0001
0000
0100
0000
,
1000
0000
0010
0000
,
0001
0100
0010
1000
,
1000
0010
0100
0001
,
0001
0010
0001
0100
,
0000
0000
1000
0000
,
1000
0010
0000
0000
,
0000
1000
0001
0000
,
0001
0001
1000
0000
,
0000
1000
0001
0000
,
1000
0010
0000
0000
,
0000
1000
0001
0000
,
0001
0001
1000
0000
,
0000
1000
0001
0000
,
1000
0010
0000
0000
,
0000
1000
0001
0000
,
0001
0001
1000
0000
,
0000
0001
1000
0010
,
1000
0010
0000
0000
,
0000
1000
0001
0000
,
0001
0001
1000
0000
,
0000
0001
1000
0010
,
1000
0010
0000
0000
,
0000
1000
0001
0000
,
0001
0001
1000
0000
,
0000
1000
0010
0000
,
1000
0010
0000
0000
,
0000
1000
0001
0000
,
0001
0001
1000
0000
,
0000
2000
0000
0000
,
0000
0000
0000
3000
,
0000
1000
0001
0000
,
0001
0001
1000
0000
,
0000
1000
0000
0000
,
0001
0001
0000
0000
,
0000
1000
0001
0000
,
0001
0001
1000
0000
,
0000
1000
0001
0000
,
0000
0000
0000
0000
,
0000
0000
0000
0000
,
0000
0000
2000
0000
,
0000
0000
0000
0000
,
0000
0000
0000
0000
,
0000
0000
0000
0000
,
0000
0000
0000
0000
,
0000
0000
0000
0000
,
3000
0000
0100
0000
,
0001
0000
0010
0000
,
1000
0000
0010
0000
,
1000
0000
0100
0000
,
0001
0100
0010
1000
,
1000
0010
0100
0001
,
0001
0010
0001
0100
,
0000
0000
1000
0000
,
0000
1000
0000
0100
,
0000
0001
0000
0010
,
0001
1000
0000
0001
,
0000
0001
1000
0010
,
0000
1000
0000
0100
,
0000
0001
0000
0010
,
0001
1000
0000
0001
,
0000
1000
0000
0001
,
1000
0100
0000
0001
,
0000
1000
0000
0100
,
0001
1000
0000
0001
,
0000
0001
1000
0010
,
1000
0010
1000
0010
,
1000
0010
0010
0100
,
0000
0000
0000
0000
,
0000
0000
1000
0000
,
1000
0010
0000
0000
,
0000
0001
1000
0010
,
0001
0001
1000
0000
,
0000
0001
1000
0010
,
1000
0010
0000
0000
,
0000
0001
1000
0010
,
0011
1000
0001
0000
,
0000
0001
1000
0010
,
1000
0010
0000
0000
,
0000
0001
1000
0010
,
0011
1000
0001
0000
,
0001
0010
0100
0000
,
1000
0010
0000
0000
,
0000
1000
0001
0000
,
0001
0001
1000
0000
,
0000
0001
1000
0010
;

//---------------dance-single - ----------------
#NOTES:
     dance-single:
     :
     Medium:
     5:
     0.291966,0.452341,0.103098,0.030323,0.000000,337.000000,320.000000,17.000000,5.000000,0.000000,0.000000,0.291966,0.452341,0.103098,0.030323,0.000000,337.000000,320.000000,17.000000,5.000000,0.000000,0.000000:
0000
0000
0000
0000
,
0000
0000
0000
0000
,
0000
0000
1000
0000
,
1000
0000
0001
0000
0000
0000
0000
0100
,
0001
0100
0010
0000
,
1010
0000
1000
0001
0000
0000
0000
0100
,
0001
0100
0010
0000
,
1000
0000
0001
0000
0000
0000
0000
0100
,
0001
0100
0010
0000
,
1010
0000
1000
0001
0000
0000
0000
0100
,
0001
0100
0010
0000
,
1000
0000
0001
0000
0000
0000
0000
0100
,
0001
0100
0010
0000
,
1010
0000
1000
0001
0000
0000
0000
0100
,
0001
0100
0010
0000
,
0001
0000
0001
0000
0000
0000
0000
0100
,
0001
0100
0010
0000
,
1010
0000
1000
0001
0000
0000
0000
0100
,
0001
0100
0010
0000
,
0000
0000
0000
0000
,
0000
0000
2000
0000
,
0000
0000
3200
0000
,
0000
0000
0000
0000
,
0000
0000
0000
0000
,
0000
0000
0000
0000
,
0302
0000
0000
0000
,
0000
0000
0000
0000
,
0003
0010
0100
0000
,
1000
0100
0010
0000
,
0001
0010
0100
0000
,
0001
0010
0100
0000
,
0001
1000
0100
1000
,
0001
1000
0100
1000
,
0001
0000
1000
0010
1000
0000
0001
0000
,
0000
0000
1000
0000
,
1000
0000
0001
0000
0000
0000
0000
0100
,
0001
0100
0010
0000
,
1010
0000
1000
0001
0000
0000
0000
0100
,
0001
0100
0010
0000
,
1000
0000
0001
0000
0000
0000
0000
0100
,
0001
0100
0010
0000
,
1010
0000
1000
0001
0000
0000
0000
0100
,
0001
0100
0010
0000
,
1000
0000
0001
0000
0000
0000
0000
0100
,
0001
0100
0010
0000
,
1010
0000
1000
0001
0000
0000
0000
0100
,
0001
0100
0010
1000
,
1000
0000
0001
0000
0000
0000
0000
0100
,
0001
0100
0010
0000
,
1010
0000
1000
0001
0000
0000
0000
0100
,
0001
0100
0010
1000
,
1000
0000
0001
0000
0000
0000
0000
0100
,
0001
0100
0010
0000
,
1010
0000
1000
0001
0000
0000
0000
0100
,
0000
0000
1000
0100
1000
0000
0000
0000
,
1000
0000
0001
0000
0000
0000
0000
0100
,
0001
0100
0010
0000
,
1010
0000
1000
0001
0000
0000
0000
0100
,
0001
0002
0000
0000
,
0000
0000
0000
0000
0000
0000
1003
0100
,
0001
0100
0010
0000
,
1010
0000
1000
0001
0000
0000
0000
0100
,
0000
0000
0001
0000
0000
0000
0000
0010
,
0001
0000
0001
0000
0000
0000
0000
0100
,
0001
0100
0010
0000
,
1010
0000
1000
0001
0000
0000
0000
0100
,
0001
0100
0010
0000
,
0020
0000
0000
0000
,
0000
0000
0000
0000
,
0000
0000
0030
0000
,
0000
0000
0000
0001
,
0000
0000
0000
0000
,
0000
0000
0000
0000
,
0000
0000
0000
0000
,
0000
0000
0000
0001
,
0000
0100
0010
0000
,
1000
0010
0100
0000
,
0001
0100
0010
0000
,
0001
0100
0010
0000
,
0001
1000
0100
1000
,
1000
0001
0010
0001
,
0001
0000
1000
0010
1000
0000
0001
0000
,
0000
0000
1000
0000
,
0000
1000
0000
0100
,
0000
0001
0000
0010
,
0001
1000
0010
0000
0000
0000
1000
0000
,
0001
0100
0010
1000
,
0000
1000
0000
0100
,
0000
1000
0000
0100
,
0001
1000
0010
0000
0000
0000
1000
0000
,
0000
1000
0010
0100
,
0001
0010
0001
0100
,
0000
1000
0000
0100
,
0001
1000
0010
0000
0000
0000
1000
0000
,
0001
0100
0010
1000
,
1000
0000
0010
0100
0010
0000
1000
0000
,
0001
1000
0100
1000
1000
0000
0110
0000
,
0000
0000
0000
0000
,
0000
0000
1000
0000
,
1000
0000
0001
0000
0000
0000
0000
0100
,
0001
0100
0010
1000
,
1010
0000
1000
0001
0000
0000
0000
0100
,
0001
0100
0010
1000
,
1000
0000
0001
0000
0000
0000
0000
0100
,
0001
0100
0010
1000
,
0011
0000
0000
1000
0001
0000
0000
0100
,
0001
0100
0010
1000
,
1000
0000
0001
0000
0000
0000
0000
0100
,
0001
0100
0010
1000
,
0011
0000
0000
1000
0001
0000
0000
0100
,
1000
0100
0010
0001
,
1000
0000
0001
0000
0000
0000
0000
0100
,
0001
0100
0010
0000
,
1010
0000
1000
0001
0000
0000
0000
0100
,
0001
0100
0010
1000
;

//---------------dance-single - ----------------
#NOTES:
     dance-single:
     :
     Hard:
     7:
     0.527618,0.548086,0.842976,0.169808,0.000000,609.000000,470.000000,139.000000,28.000000,0.000000,0.000000,0.527618,0.548086,0.842976,0.169808,0.000000,609.000000,470.000000,139.000000,28.000000,0.000000,0.000000:
0100
0000
0000
0000
,
0001
0000
0000
0000
,
1000
0000
0000
0000
0000
0000
0000
0100
,
0000
0000
0000
0000
,
0001
0000
0000
0000
,
0010
0000
0010
0000
,
0001
0100
0000
0000
,
2000
0000
3000
0000
,
0101
0001
0010
0100
,
1000
0010
1010
0010
,
0011
0100
0010
0001
,
1000
0000
0100
0010
0100
0000
0010
0000
,
1010
1000
1100
0100
,
0110
0100
0010
0010
,
1000
0000
1000
0100
0010
0000
0001
0000
,
0010
0000
0100
0000
0100
0000
0100
0010
,
1000
0001
0011
0100
,
0010
0100
0010
0110
,
1010
1000
0011
0100
,
0101
0100
0010
0110
,
0101
0000
0001
0000
0010
0000
0010
0100
,
1000
0001
0101
1000
,
0001
0011
1001
0100
,
0010
0010
0001
1000
,
0210
0001
0010
0000
,
1000
0010
0001
0000
,
1000
0010
0001
0000
,
1000
0010
0002
0303
,
0120
1000
0100
0001
,
0100
0031
0100
1000
,
1000
0100
0010
0001
,
1000
0100
0010
0001
,
0001
1000
0011
0100
,
0100
0001
1100
0100
,
1000
0011
0100
1100
,
0010
0101
0001
0001
,
1100
0000
1000
0100
1000
0000
0100
0000
,
0001
0010
0100
0010
,
1010
0000
1000
0010
0100
0000
0010
0000
,
1001
0100
0100
0000
,
1100
1000
1010
0100
,
0011
0100
0110
0100
,
1010
1000
0011
0100
,
0101
0100
1100
0100
,
1001
1000
1100
0100
,
0011
0100
0110
0010
,
1010
1000
0101
0100
,
0011
0010
0110
0001
,
1100
0000
1000
0000
1000
0100
0001
0000
,
0011
0100
0110
1000
,
1010
0000
1000
0001
0010
0000
0100
0000
,
0101
0010
1010
0001
,
1100
1000
1001
0100
,
0011
0100
0110
0010
,
1100
1010
0011
0100
,
1001
1000
0110
0100
,
1100
1000
0200
0301
,
0011
0200
0300
0100
,
2000
3001
0010
0200
,
0301
0100
1100
0010
,
0011
2000
0100
3010
,
0011
0100
0110
0100
,
1010
0000
1000
0000
0101
0000
1000
0100
,
0001
0001
1100
0100
,
2002
0000
3003
0000
0000
0000
0000
0010
,
0001
0100
0110
0110
,
1010
0000
1000
0001
0010
0000
0100
0000
,
0011
0100
2200
3000
,
0310
0001
0011
0100
,
1100
1000
1010
0100
,
1001
0001
0101
1000
,
0110
0010
0011
0001
,
1010
0001
0010
0100
,
1100
1000
0100
0011
,
0001
0001
0110
0010
,
0101
0100
0011
0001
,
1001
0010
0100
1100
,
0001
0010
0100
1000
,
1100
0010
0100
0011
,
0001
0010
0100
1000
,
0011
1000
0110
0100
,
1010
0001
0110
0100
,
1010
0110
0101
0110
,
0010
1010
0010
0011
,
0010
0101
0011
0100
,
0110
0100
0010
0001
,
0101
0010
0001
1000
,
0001
0000
0100
1000
0100
0000
2002
0000
,
3000
0003
0110
0100
,
1000
0100
0101
0001
,
1200
0000
0310
1000
,
0010
0012
0000
0103
,
1000
0000
0001
1000
0200
0000
1000
0000
,
0310
0002
0010
0103
,
1200
0000
0301
1000
,
0011
0100
1010
0001
,
0120
0001
0000
0031
,
2000
0100
3010
1010
,
0200
1300
0020
0031
,
0100
0001
0010
0100
,
1100
0000
0100
0010
0100
0000
1000
0000
,
0110
0000
0001
0010
0001
0000
0100
0000
,
1010
0000
1000
0001
0010
0000
0100
0000
,
0001
0010
0012
0003
,
1100
0000
1000
0100
1000
0000
0100
0000
,
0011
0000
0010
0001
0010
0000
0001
0000
,
1100
0000
0001
1000
0001
0000
0010
0000
,
0011
0000
0010
0001
0010
0000
0101
0000
,
1100
0000
1000
0100
0010
0000
0100
0000
,
0101
0000
0001
0010
1100
0000
0001
0000
,
0110
0000
0001
1000
0001
0000
0010
0000
,
1100
1000
1010
1000
,
1100
0000
1000
0000
0100
0010
0001
0000
,
0011
0000
0100
0010
0100
0000
0010
0000
,
1010
0000
1000
0000
0001
0010
0100
0000
,
1001
0001
0020
0031
,
1100
0000
1000
0100
1000
0000
0100
0000
,
0011
0000
0010
0000
0110
0000
0001
0010
,
1000
0001
0011
0010
,
1100
1000
1010
1000
,
2002
0000
3003
0000
;

//---------------dance-single - ----------------
#NOTES:
     dance-single:
     :
     Challenge:
     8:
     0.580467,0.621164,0.297164,0.060646,0.000000,670.000000,621.000000,49.000000,10.000000,0.000000,0.000000,0.580467,0.621164,0.297164,0.060646,0.000000,670.000000,621.000000,49.000000,10.000000,0.000000,0.000000:
1000
0000
0000
0000
,
1000
0000
0000
0000
,
0001
0000
0000
0000
0000
0000
0000
0010
,
0000
0000
0000
0000
,
1000
0000
0000
0000
,
0100
0000
0200
0000
,
1300
0010
0000
0000
,
0002
0000
0000
0003
,
1100
0000
1000
0000
0100
0000
0010
0010
,
0001
0000
0100
0010
0100
0000
0100
0000
,
1010
0000
1000
0001
0100
0000
0100
1000
,
0001
0000
0100
0010
0100
0000
0010
0000
,
1100
0000
1000
0100
1000
0000
0100
0010
,
0001
0000
0100
0010
0100
0000
0100
0010
,
1000
0000
1000
0001
0010
0000
0100
1000
,
0001
0000
0100
0010
0100
0000
0100
0010
,
1000
0001
0001
0000
0010
0000
0100
0010
,
0001
0000
0100
0010
0100
0000
0100
0000
,
1010
0000
1000
0001
0010
0000
0100
1000
,
0001
0000
0100
0010
0100
0000
0100
0000
,
0101
0000
0001
0000
0010
0100
0010
0100
,
1000
0000
0001
0010
0100
0000
1000
0000
,
0001
0010
0001
0010
1001
0000
0100
0000
,
0010
0001
0010
0000
0010
0000
1000
0000
,
2010
0001
0010
0000
,
0010
0001
0010
0000
,
0100
0001
0010
0000
,
0100
0001
0020
3030
,
0102
1000
0100
0010
,
0103
0010
0100
1000
,
1000
0100
0010
0001
,
1000
0100
0010
0001
,
0001
0000
1000
0100
0010
0000
0100
0010
,
1000
0000
0001
0100
0010
0000
0100
0010
,
1000
0100
0010
0001
0100
0010
0100
0000
,
0010
0100
0010
0000
0001
0010
0001
0000
,
1100
0000
1000
0100
1000
0000
0100
0010
,
0001
0000
0100
0010
0100
0000
0100
0000
,
1010
0000
1000
0001
0100
0000
0010
1000
,
0001
0100
0200
0300
,
1100
0000
1000
0100
0010
0000
0100
0010
,
0001
0000
0100
0010
0100
0000
0100
0010
,
1000
0000
1000
0001
0010
0000
0100
1000
,
0001
0000
0100
0010
0100
0000
0100
0000
,
1000
0000
1000
0100
1000
0000
0100
0010
,
0001
0000
0100
0010
0100
0000
0010
0100
,
1000
0000
1000
0001
0010
0000
0100
1000
,
0001
0000
0010
0001
0010
0000
0001
0000
,
1100
0000
1000
0000
1000
0010
0001
0010
,
0001
0000
0100
0010
0100
0000
1000
0000
,
1010
0000
1000
0001
0010
0000
0100
1000
,
0001
0000
0010
0001
0010
0000
0001
0000
,
1100
0000
1000
0100
1000
0000
0100
0010
,
0001
0000
0100
0010
0100
0000
0010
0100
,
1000
0000
1000
0001
0010
0000
0100
1000
,
0001
0000
1000
0001
0100
0000
0100
0000
,
1100
0000
1000
0000
0100
0000
0001
0010
,
0001
0000
0100
0010
0100
0000
0100
0100
,
1000
0000
1000
0001
0010
0000
0100
1000
,
0001
0010
0100
1000
0100
0000
0010
0001
,
0010
0000
1000
0100
1000
0000
0001
1000
,
0001
0000
0100
0010
0100
0000
0100
0010
,
1000
0000
1000
0001
0010
0000
1000
0100
,
0001
0000
0001
1000
0100
0000
0000
0010
,
1000
0001
0001
0000
0000
0000
0000
0010
,
0001
0000
0100
0010
0100
1000
0100
0000
,
1010
0000
1000
0001
0010
0000
0100
1000
,
0001
0000
0100
0010
0200
0000
0000
0000
,
0310
0000
0001
0010
0001
0000
0100
0010
,
0100
0000
1000
0100
0010
0000
0100
0000
,
1000
0000
0001
0010
0001
0000
1000
0100
,
0010
0001
0010
0000
0001
0000
0001
0000
,
1010
0001
0010
0100
,
1100
1000
0100
0011
,
0001
0001
0110
0010
,
0101
0100
0011
0001
,
1001
0010
0100
1100
,
0001
0010
0100
1000
,
1100
0010
0100
0011
,
0001
0000
0010
0000
0100
0000
1000
0100
,
0001
0000
1000
0100
0010
0000
0100
0010
,
1000
0000
0001
0100
0010
0000
0100
0010
,
1000
0100
0010
0001
0100
0010
0100
0000
,
0010
0001
0010
0000
0010
0100
0010
0000
,
0010
0100
0001
0010
0001
0010
0100
0010
,
0100
1000
0100
1000
0100
0001
0010
0100
,
1000
0001
0100
0010
0001
0010
1000
0000
,
0001
0000
0010
0001
0010
0000
0002
0000
,
0103
0010
0001
0000
0110
0000
0100
0000
,
0010
0001
0011
0010
,
1100
0001
0100
0010
0100
0000
1000
0000
,
0010
0000
0001
0100
0001
0000
0100
0000
,
1000
0000
0001
1000
0100
0000
1100
0000
,
0100
0000
0001
0010
0001
0010
0100
0000
,
1000
0001
0100
0010
0100
0000
1000
0010
,
0001
0010
0100
0001
0010
0001
0001
1000
,
0100
0000
0010
0100
0010
0000
0001
0010
,
0001
1000
0100
0010
0010
0000
1010
0000
,
1000
0100
0100
0000
0010
0001
0010
0000
,
0100
0010
0001
0000
0010
0000
0100
0000
,
1100
0000
1000
0100
1000
0000
0100
0010
,
0001
0000
0010
0001
0010
0000
0001
0000
,
1010
0000
1000
0001
0010
0000
0100
0000
,
0001
0010
0012
0003
,
1100
0000
1000
0100
1000
0000
0100
0010
,
0001
0000
0010
0001
0010
0000
0001
0010
,
1100
0000
0001
1000
0001
0000
0010
0100
,
0011
0000
0010
0001
0010
0000
0101
0000
,
1100
0000
1000
0100
1000
0000
0100
0010
,
0001
0000
0010
0001
0110
0000
0001
0010
,
1100
0000
0001
1000
0001
0000
0010
0100
,
1000
0010
1000
0010
1000
0000
1000
0000
,
1100
0000
1000
0000
0100
0010
0001
0010
,
0011
0000
0100
0010
1100
0000
0010
0000
,
1010
0000
1000
0001
0010
0100
0010
1000
,
0001
0000
0010
0001
0010
0000
0001
0000
,
1100
0000
1000
0100
1000
0000
0100
0010
,
0001
0000
0010
0001
0110
0000
0001
0010
,
1100
0000
0001
1000
0001
0000
0010
0100
,
1000
0010
1000
0010
1000
0000
1000
0000
,
1002
0000
0003
0000
;

//---------------dance-double - ----------------
#NOTES:
     dance-double:
     :
     Challenge:
     8:
     0.579600,0.622453,0.309293,0.078839,0.000000,669.000000,618.000000,51.000000,13.000000,0.000000,0.000000,0.579600,0.622453,0.309293,0.078839,0.000000,669.000000,618.000000,51.000000,13.000000,0.000000,0.000000:
// measure 0
10000000
00000000
00000000
00000000
,  // measure 1
10000000
00000000
00000000
00000000
,  // measure 2
00000001
00000000
00000000
00000000
00000000
00000000
00000000
00000010
,  // measure 3
00000000
00000000
00000000
00000000
,  // measure 4
10000000
00000000
00000000
00000000
,  // measure 5
01000000
00000000
02000000
00000000
,  // measure 6
13000000
00100000
00000000
00000000
,  // measure 7
00002000
00000000
00000000
00003000
,  // measure 8
11000000
00000000
10000000
00000000
01000000
00000000
00100000
00100000
,  // measure 9
00010000
00000000
01000000
00100000
01000000
00000000
01000000
00000000
,  // measure 10
10100000
00000000
10000000
00010000
01000000
00000000
01000000
10000000
,  // measure 11
00010000
00000000
01000000
00100000
01000000
00000000
00100000
00000000
,  // measure 12
00001100
00000000
00001000
00000100
00001000
00000000
00000100
00000010
,  // measure 13
00000001
00000000
00000100
00000010
00000100
00000000
00000100
00000010
,  // measure 14
00001000
00000000
00001000
00000001
00000010
00000000
00000100
00001000
,  // measure 15
00000001
00000000
00000100
00000010
00000100
00000000
00000100
00000010
,  // measure 16
00001000
00010000
00010000
00000000
00100000
00000000
01000000
00100000
,  // measure 17
00010000
00000000
01000000
00100000
01000000
00000000
01000000
00000000
,  // measure 18
10100000
00000000
10000000
00010000
00100000
00000000
01000000
10000000
,  // measure 19
00010000
00000000
01000000
00100000
01000000
00000000
01000000
00000000
,  // measure 20
00010100
00000000
00000001
00000000
00000010
00000100
00000010
00000100
,  // measure 21
00001000
00000000
00000001
00000010
00000100
00000000
00001000
00000000
,  // measure 22
00000001
00000010
00000001
00000010
00001001
00000000
00000100
00000000
,  // measure 23
00000010
00000001
00000010
00000000
00000010
00000000
00001000
00000000
,  // measure 24
20100000
00010000
00100000
00000000
,  // measure 25
00100000
00010000
00100000
00000000
,  // measure 26
01000000
00010000
00100000
00000000
,  // measure 27
01000000
00010000
00200000
30300000
,  // measure 28
00000102
00001000
00000100
00000010
,  // measure 29
00000100
00000010
00000100
00001003
,  // measure 30
00002000
00000100
00000010
00000001
,  // measure 31
00000010
00000100
00000010
00003001
,  // measure 32
00010000
00000000
10000000
01000000
00100000
00000000
01000000
00100000
,  // measure 33
10000000
00000000
00010000
01000000
00100000
00000000
01000000
00100000
,  // measure 34
10000000
01000000
00100000
00010000
01000000
00100000
01000000
00000000
,  // measure 35
00100000
01000000
00100000
00000000
00010000
00100000
00010000
00000000
,  // measure 36
00000011
00000000
00000001
00000010
00000001
00000000
00000010
00000100
,  // measure 37
00001000
00000000
00000010
00000100
00000010
00000000
00000010
00000000
,  // measure 38
00000101
00000000
00000001
00001000
00000010
00000000
00000100
00000001
,  // measure 39
00001000
00000010
00000020
00000030
,  // measure 40
11000000
00000000
10000000
01000000
00100000
00000000
01000000
00100000
,  // measure 41
00010000
00000000
01000000
00100000
01000000
00000000
01000000
00100000
,  // measure 42
10000000
00000000
10000000
00010000
00100000
00000000
01000000
10000000
,  // measure 43
00010000
00000000
01000000
00100000
01000000
00000000
01000000
00000000
,  // measure 44
00000011
00000000
00000001
00000010
00000001
00000000
00000010
00000100
,  // measure 45
00001000
00000000
00000010
00000100
00000010
00000000
00000100
00000010
,  // measure 46
00000001
00000000
00000001
00001000
00000100
00000000
00000010
00001000
,  // measure 47
00000001
00000000
00000100
00001000
00000100
00000000
00001000
00000000
,  // measure 48
11000000
00000000
10000000
00000000
10000000
00100000
00010000
00100000
,  // measure 49
00010000
00000000
01000000
00100000
01000000
00000000
10000000
00000000
,  // measure 50
10100000
00000000
10000000
00010000
00100000
00000000
01000000
10000000
,  // measure 51
00010000
00000000
00100000
00010000
00100000
00000000
00010000
00000000
,  // measure 52
00000011
00000000
00000001
00000010
00000001
00000000
00000010
00000100
,  // measure 53
00001000
00000000
00000010
00000100
00000010
00000000
00000100
00000010
,  // measure 54
00000001
00000000
00000001
00001000
00000100
00000000
00000010
00000001
,  // measure 55
00001000
00000000
00000001
00001000
00000010
00000000
00000010
00000000
,  // measure 56
11000000
00000000
10000000
00000000
01000000
00000000
00010000
00100000
,  // measure 57
00010000
00000000
01000000
00100000
01000000
00000000
01000000
01000000
,  // measure 58
10000000
00000000
10000000
00010000
00100000
00000000
01000000
10000000
,  // measure 59
00010000
00100000
01000000
10000000
01000000
00000000
00100000
00010000
,  // measure 60
00001000
00000000
00000001
00000010
00000001
00000000
00001000
00000001
,  // measure 61
00001000
00000000
00000100
00000010
00000100
00000000
00000100
00000010
,  // measure 62
00001000
00000000
00001000
00000001
00000010
00000000
00001000
00000100
,  // measure 63
00000001
00000000
00000001
00001000
00000100
00000000
00000000
00000010
,  // measure 64
00000002
00001000
00000003
00000000
00000000
00000000
00000000
00100000
,  // measure 65
00010000
00000000
01000000
00100000
01000000
10000000
01000000
00000000
,  // measure 66
10100000
00000000
10000000
00010000
00100000
00000000
01000000
10000000
,  // measure 67
00010000
00000000
01000000
00100000
02000000
00000000
00000000
00000000
,  // measure 68
03100000
00000000
00010000
00100000
00010000
00000000
00000100
00000010
,  // measure 69
00000100
00000000
00001000
00000100
00000010
00000000
00000100
00000000
,  // measure 70
00001000
00000000
00000001
00000010
00000001
00000000
00001000
00000100
,  // measure 71
00000010
00000001
00000010
00000000
00000001
00000000
00000001
00000000
,  // measure 72
10100000
00010000
00100000
01000000
,  // measure 73
11000000
10000000
01000000
00110000
,  // measure 74
00010000
00010000
01100000
00100000
,  // measure 75
01010000
01000000
00110000
00010000
,  // measure 76
00001001
00000010
00000100
00001100
,  // measure 77
00000001
00000010
00000100
00001000
,  // measure 78
00001100
00000010
00000100
00000011
,  // measure 79
00000001
00000000
00000010
00000000
00000100
00000000
10000000
01000000
,  // measure 80
00010000
00000000
10000000
01000000
00100000
00000000
01000000
00100000
,  // measure 81
10000000
00000000
00010000
01000000
00100000
00000000
01000000
00100000
,  // measure 82
01000000
00000000
10000000
01000000
00100000
00000000
00100000
01000000
,  // measure 83
00100000
00000000
00100000
00010000
00100000
00000000
00011000
00000000
,  // measure 84
00000100
00000010
00001000
00000100
00001000
00000100
00000010
00000100
,  // measure 85
00000010
00000001
00000010
00000001
00000010
00001000
00000100
00000010
,  // measure 86
00000001
00001000
00000010
00000100
00001000
00000100
00000001
00000000
,  // measure 87
00010000
00000000
00100000
00010000
00100000
00000000
00020000
00000000
,  // measure 88
01030000
00100000
00010000
00000000
01100000
00000000
01000000
00000000
,  // measure 89
00100000
00010000
00110000
00100000
,  // measure 90
11000000
00010000
01000000
00100000
01000000
00000000
10000000
00000000
,  // measure 91
00100000
00000000
00010000
01000000
00010000
00000000
01000000
00000000
,  // measure 92
00001000
00000000
00000001
00001000
00000100
00000000
00001100
00000000
,  // measure 93
00000100
00000000
00000001
00000010
00000001
00000010
00000100
00000000
,  // measure 94
00001000
00000001
00000100
00000010
00000100
00000000
00001000
00000010
,  // measure 95
00000001
00000010
00000100
00000001
00000010
00000001
00000001
00001000
,  // measure 96
01000000
00000000
00100000
01000000
00100000
00000000
00010000
00100000
,  // measure 97
00010000
10000000
01000000
00100000
00100000
00000000
10100000
00000000
,  // measure 98
10000000
01000000
01000000
00000000
00100000
00010000
00100000
00000000
,  // measure 99
01000000
00100000
01000000
00000000
00100000
00000000
00010000
00000000
,  // measure 100
00001100
00000000
00001000
00000100
00001000
00000000
00000010
00000100
,  // measure 101
00001000
00000000
00000100
00001000
00000100
00000000
00001000
00000000
,  // measure 102
00000101
00000000
00000001
00001000
00000010
00000000
00000001
00000000
,  // measure 103
00000010
00001000
00120000
00030000
,  // measure 104
11000000
00000000
10000000
01000000
10000000
00000000
01000000
00100000
,  // measure 105
00010000
00000000
00100000
00010000
00100000
00000000
00010000
00100000
,  // measure 106
11000000
00000000
00010000
10000000
00010000
00000000
00100000
01000000
,  // measure 107
00110000
00000000
00100000
00010000
00100000
00000000
01010000
00000000
,  // measure 108
00000011
00000000
00000001
00000010
00000001
00000000
00000010
00000100
,  // measure 109
00001000
00000000
00000100
00001000
00000110
00000000
00001000
00000100
,  // measure 110
00000011
00000000
00001000
00000001
00001000
00000000
00000100
00000010
,  // measure 111
00000001
00000100
00000001
00000100
00000001
00000000
00000001
00000000
,  // measure 112
11000000
00000000
10000000
00000000
01000000
00100000
00010000
00100000
,  // measure 113
00110000
00000000
01000000
00100000
11000000
00000000
00100000
00000000
,  // measure 114
10100000
00000000
10000000
00010000
00100000
01000000
00100000
10000000
,  // measure 115
00010000
00000000
00100000
00010000
00100000
00000000
00010000
00000000
,  // measure 116
00000011
00000000
00000001
00000010
00000001
00000000
00000010
00000100
,  // measure 117
00001000
00000000
00000100
00001000
00000110
00000000
00001000
00000100
,  // measure 118
00000011
00000000
00001000
00000001
00001000
00000000
00000100
00000010
,  // measure 119
00001000
00100000
00001000
00100000
00001000
00000000
00001000
00000000
,  // measure 120
00022000
00000000
00003000
00030000
;
