#VERSION:0.83;
#TITLE:Any;
#SUBTITLE:;
#ARTIST:Stray Kids;
#TITLETRANSLIT:;
#SUBTITLETRANSLIT:;
#ARTISTTRANSLIT:;
#GENRE:;
#ORIGIN:;
#CREDIT:DubStepManiac;
#BANNER:Any.png;
#BACKGROUND:Any-bg.png;
#PREVIEWVID:;
#JACKET:;
#CDIMAGE:;
#DISCIMAGE:;
#LYRICSPATH:;
#CDTITLE:cdtitle.png;
#MUSIC:Any.mp3;
#OFFSET:-0.368209;
#SAMPLESTART:27.640320;
#SAMPLELENGTH:12.000000;
#SELECTABLE:YES;
#BPMS:0.000=220.005,
222.000=440.010,
224.000=110.003,
225.500=220.005;
#STOPS:;
#DELAYS:;
#WARPS:;
#TIMESIGNATURES:0.000=4=4;
#TICKCOUNTS:0.000=4;
#COMBOS:0.000=1;
#SPEEDS:0.000=1.000=0.000=0;
#SCROLLS:0.000=1.000;
#FAKES:;
#LABELS:0.000=Song Start;
#BGCHANGES:0.000=Any.mp4=1.000=0=0=0=StretchNoLoop=Any.mp4===,
99999=-nosongbg-=1.000=0=0=0 // don't automatically add -songbackground-
;
#KEYSOUNDS:;
#ATTACKS:
;

//---------------dance-single - ----------------
#NOTEDATA:;
#CHARTNAME:;
#STEPSTYPE:dance-single;
#DESCRIPTION:;
#CHARTSTYLE:;
#DIFFICULTY:Easy;
#METER:3;
#RADARVALUES:0.209331,0.316697,0.000000,0.029543,0.000000,248.000000,248.000000,0.000000,5.000000,0.000000,0.000000,0.000000,0.000000,0.000000,0.209331,0.316697,0.000000,0.029543,0.000000,248.000000,248.000000,0.000000,5.000000,0.000000,0.000000,0.000000,0.000000,0.000000;
#CREDIT:DubStepManiac;
#NOTES:
0000
0000
0000
0000
,
0000
0000
0000
0000
,
0000
0000
0000
0000
,
0000
0000
0000
0000
,
0000
0000
0000
0000
,
0000
0000
0000
0000
,
0000
0000
0000
0000
,
0000
0000
0000
0000
,
1000
0000
0000
0000
,
0000
0001
0000
0000
,
1000
0000
0000
0010
,
0000
1000
0000
0000
,
1000
0000
0000
0010
,
0000
1000
1000
0000
,
1000
0000
0000
0010
,
1000
0000
0001
0000
,
1000
0000
0000
0010
,
0000
1000
1000
0000
,
1000
0000
0000
0010
,
0000
1000
1000
0000
,
1000
0000
0000
0010
,
0000
1000
1000
0000
,
0001
0000
0000
0010
,
0001
0010
0000
0000
,
0000
0000
0001
0000
,
0000
0000
0001
0000
,
0200
0000
0000
0000
,
0000
0300
1000
0000
,
0000
0000
0001
0000
,
0000
0000
0200
0000
,
0000
0000
0000
0000
,
0000
0300
1000
0000
,
0001
0000
0010
0100
,
0001
0000
0100
0010
,
1000
0000
0100
0010
,
1000
0010
1000
0000
,
0001
0100
0000
0010
,
0000
0000
1000
0001
,
0000
1000
0000
0000
,
1000
0100
0100
0000
,
0000
1000
1000
0000
,
1000
0001
0000
0100
,
1000
0001
0100
0000
,
1000
0000
0000
0000
,
0000
1000
1000
0000
,
0001
0100
0000
0010
,
0000
1000
0000
0100
,
1000
0100
0100
0000
,
0000
1000
1000
0000
,
1000
0100
0100
0000
,
0000
0001
1000
0010
,
0001
0100
0000
0010
,
0000
0000
0000
0000
,
0001
0100
0000
0010
,
0000
0000
0001
0000
,
0000
0000
0000
0000
,
0200
0000
0000
0000
,
0300
1000
1000
0000
,
1000
0000
0000
0010
,
0000
1000
0010
0000
,
1000
0000
0000
0010
,
0000
1000
1000
0000
,
0001
0000
0000
0010
,
0000
1000
0000
0000
,
0002
0000
0000
0000
,
0000
0003
1000
0000
,
1000
0000
0000
0010
,
0000
1000
0010
0000
,
1000
0000
0000
0010
,
0000
1000
1000
0000
,
1000
0000
0000
0010
,
0000
0000
0000
0000
,
0000
0000
0000
0000
,
0001
0000
0000
0010
,
0000
0000
0000
0000
,
1000
0000
0000
0010
,
0000
0000
0000
0000
,
1000
0000
0000
0010
,
0000
0000
0000
0000
,
1000
0000
0001
0000
,
1000
0000
0010
0000
,
0001
0000
0010
0100
,
0001
0000
0100
0010
,
1000
0001
0100
0000
,
0001
0000
0010
0100
,
1000
0001
0100
0000
,
0001
1000
0010
0000
,
0001
0000
0100
0000
,
0001
0000
0010
0100
,
1000
0000
0010
0100
,
1000
0000
0100
0010
,
1000
0001
0000
0100
,
0001
0000
0100
0200
,
0000
0000
0000
0000
,
0000
0000
0300
0000
,
1000
0100
0100
0000
,
0000
1000
1000
0000
,
1000
0001
0000
0100
,
1000
0001
0100
0000
,
0001
0100
0000
0010
,
1000
0000
0000
0000
,
1000
0100
0100
0000
,
0000
1000
1000
0000
,
1000
0100
0100
0000
,
0000
1000
1000
0000
,
1000
0100
0100
0000
,
0000
1000
0010
0000
,
0001
0100
0000
0010
,
0000
0000
0001
0000
,
0001
0000
0010
0100
,
1000
0000
0000
0000
,
0000
1000
0000
0000
,
0000
0000
0001
0000
,
0000
0000
0001
0000
,
0000
0000
1000
0000
,
0000
0000
0001
0000
,
0000
1000
0000
0000
,
0000
0000
0001
0000
,
0000
0000
0001
0000
,
1000
0100
0100
0000
,
0000
1000
1000
0000
,
1000
0001
0000
0100
,
1000
0001
0100
0000
,
1000
0100
0100
0000
,
0000
1000
1000
0000
,
0001
0100
0000
0010
,
1000
0000
0001
0000
,
1000
0100
0100
0000
,
0000
1000
1000
0000
,
1000
0100
0100
0000
,
0000
1000
0010
0000
,
0001
0100
0000
0010
,
0000
1000
1000
0000
,
0001
0000
0010
0100
,
1000
0000
0000
0000
;

//---------------dance-single - ----------------
#NOTEDATA:;
#CHARTNAME:;
#STEPSTYPE:dance-single;
#DESCRIPTION:;
#CHARTSTYLE:;
#DIFFICULTY:Medium;
#METER:6;
#RADARVALUES:0.342694,0.498975,0.005909,0.017726,0.000000,406.000000,405.000000,1.000000,3.000000,0.000000,0.000000,0.000000,0.000000,0.000000,0.342694,0.498975,0.005909,0.017726,0.000000,406.000000,405.000000,1.000000,3.000000,0.000000,0.000000,0.000000,0.000000,0.000000;
#CREDIT:DubStepManiac;
#NOTES:
0000
0000
0000
1000
,
0000
0000
0000
0001
,
0000
0000
0000
0001
,
0000
0000
0000
1000
,
0000
0000
0000
0001
,
0000
0000
0000
1000
,
0000
0000
0000
0001
,
0000
0000
0000
0001
,
0001
0000
0100
0000
,
0000
0001
0000
0000
,
0001
0000
0001
0010
,
0000
0001
0000
1000
,
0001
0000
0001
0010
,
0000
1000
1000
0000
,
0001
0000
0001
0010
,
0001
0000
1000
0001
,
0001
0000
0001
0010
,
0000
1000
1000
0000
,
0001
0000
0001
0010
,
0000
1000
1000
0000
,
0001
0000
0001
0010
,
0000
1000
1000
0000
,
1000
0100
0000
0010
,
0001
0010
0000
0100
,
1000
0100
0100
0000
,
1000
0010
0010
0000
,
0000
0100
0000
0000
,
0000
0010
0010
0000
,
0001
0100
0100
0000
,
0001
0100
2000
0000
,
0000
0010
0000
0000
,
0000
3010
0010
0000
,
0001
0000
0001
0001
0010
0000
0001
0000
,
1000
0000
1000
1000
0010
0000
1000
0000
,
1000
0000
1000
1000
0100
0000
1000
0000
,
0001
0000
0100
0010
0100
0000
0100
0000
,
0001
0100
0001
0000
0000
0000
1100
0000
,
1000
0000
0000
0000
0010
0100
0010
0000
,
0000
0001
0000
1000
,
1000
0010
0010
0100
,
0000
1000
1000
0000
,
0001
0000
0100
0000
0001
0000
1000
0100
,
0001
1000
0100
1000
,
0001
0000
0100
0000
,
0000
1000
1000
0000
,
0001
1000
0010
0000
0010
0000
0100
0000
,
1000
0010
0000
0100
,
1000
0010
0010
0100
,
0000
1000
1000
0000
,
1000
0010
0010
0100
,
0001
0100
0001
0100
,
0001
1000
0010
0000
0010
0000
0100
0000
,
0000
0000
0000
1000
,
0001
1000
0010
0000
0010
0000
0100
0000
,
1000
0100
0100
0000
,
0000
0000
0000
0001
,
0020
0000
0000
0000
,
0030
1000
1000
0000
,
0001
0000
0001
0010
,
0000
1000
0100
0010
,
0001
0000
0001
0010
,
0000
1000
1000
0000
,
1000
0100
0000
0010
,
0000
0001
0000
1000
,
0002
0000
0000
0010
,
0000
1003
1000
0000
,
0001
0000
0001
0010
,
0000
1000
0100
0010
,
0001
0000
0001
0010
,
0000
1000
1000
0000
,
0001
0000
0001
0010
,
0000
0000
0000
1000
,
0000
0000
0000
1000
,
1000
0100
0000
0010
,
0000
0000
0000
1000
,
0001
0000
0001
0010
,
0000
0000
0000
1000
,
0001
0000
0001
0010
,
0000
0000
0000
1000
,
0001
0000
1000
0001
,
1000
1000
0100
0010
,
0001
0000
0001
0001
0010
0000
0001
0000
,
1000
0000
1000
1000
0010
0000
1000
0000
,
0001
1000
0100
1000
,
0001
0000
0001
0001
0010
0000
0001
0000
,
0001
1000
0100
1000
,
1000
0001
0100
0001
,
1000
0000
0000
0000
0100
0000
1000
1000
,
0001
0000
0001
0001
0010
0000
0001
0000
,
1000
0000
1000
1000
0010
0000
1000
0000
,
1000
0000
1000
1000
0010
0000
1000
0000
,
0001
0000
0100
0000
0001
0000
1000
0100
,
1000
0000
0100
0000
,
0000
0100
0000
0000
,
0000
0000
0000
1000
,
1000
0010
0010
0100
,
0000
1000
1000
0000
,
0001
0000
0100
0000
0001
0000
1000
0100
,
0001
1000
0100
1000
,
0001
1000
0010
0000
0010
0000
0100
0000
,
0001
0000
0100
0000
,
1000
0010
0010
0100
,
0000
1000
1000
0000
,
1000
0010
0010
0100
,
0000
1000
1000
0000
,
1000
0010
0010
0100
,
0000
1000
0100
0010
,
0001
1000
0010
0000
0010
0000
0100
0000
,
1000
0100
0100
0000
,
0001
0000
0001
0001
0010
0000
0001
0000
,
0001
0000
0100
0000
,
0000
0001
0000
1000
,
1000
0100
0100
0000
,
0001
0100
0100
0000
,
0001
0100
0100
0000
,
0000
0001
1000
1000
,
0000
0001
0000
1000
,
1000
0100
0100
0000
,
0001
0010
0010
0000
,
1000
0010
0010
0100
,
0000
1000
1000
0000
,
0001
0000
0100
0000
0001
0000
1000
0100
,
0001
1000
0100
1000
,
1000
0010
0010
0100
,
0000
1000
1000
0000
,
0001
1000
0010
0000
0010
0000
0100
0000
,
0001
0000
1000
0001
,
1000
0010
0010
0100
,
0000
1000
1000
0000
,
1000
0010
0010
0100
,
0000
1000
0100
0010
,
0001
1000
0010
0000
0010
0000
0100
0000
,
0000
1000
1000
0000
,
0001
0000
0001
0001
0010
0000
0001
0000
,
0001
0000
0100
0000
,
0000
0000
0000
1000
,
0000
0000
0000
1000
,
0000
0000
0000
1000
,
0000
0000
0000
1000
,
0000
0000
0000
1000
,
0000
0000
0000
1000
;

//---------------dance-single - ----------------
#NOTEDATA:;
#CHARTNAME:;
#STEPSTYPE:dance-single;
#DESCRIPTION:;
#CHARTSTYLE:;
#DIFFICULTY:Hard;
#METER:9;
#RADARVALUES:0.617019,0.723794,0.088628,0.047268,0.000000,731.000000,716.000000,15.000000,8.000000,0.000000,1.000000,0.000000,0.000000,0.000000,0.617019,0.723794,0.088628,0.047268,0.000000,731.000000,716.000000,15.000000,8.000000,0.000000,1.000000,0.000000,0.000000,0.000000;
#CREDIT:DubStepManiac;
#NOTES:
0000
0000
0000
1000
,
0000
0000
1000
0000
,
0000
0001
0000
0000
,
0001
0000
0000
1000
,
0000
0000
1000
0000
,
0000
0001
0000
0000
,
0001
0000
0000
1000
,
0000
0000
0000
0000
0001
0010
0001
0100
,
1000
0000
0100
0000
,
0000
0001
0001
0000
,
0001
0000
0001
0100
,
0000
0000
1000
0000
0000
0000
0100
1000
,
0001
0000
0001
0100
,
0000
0000
1000
0010
0010
0000
0000
0000
,
0001
0000
0001
0100
,
1000
0000
0000
0000
0010
1000
0100
0000
,
0001
0000
0001
0100
,
0000
0000
1000
0010
0010
0000
0000
0000
,
0001
0000
0001
0100
,
0000
0000
1000
0001
0010
0000
0000
0000
,
0001
0000
0001
0100
,
0000
0000
1000
0010
0010
0000
0000
0000
,
1000
0100
0100
1000
,
1000
0000
0001
0000
0010
0001
0010
0000
,
1000
0100
0100
0001
,
0001
0010
0100
0010
,
0010
0100
0100
0100
,
0001
0100
0100
0100
,
1000
0100
0100
0010
,
0010
0001
0010
0100
,
1000
0100
0010
0010
,
1000
0010
0010
0010
,
1000
0010
0010
0010
1000
0000
0001
0010
,
0001
0000
0100
0000
0001
0000
1000
0100
,
0001
0010
0010
0010
0001
0000
1000
0000
,
0110
0000
0100
0000
1000
0010
0001
0000
,
1010
0000
0100
0010
0000
0000
1100
0000
,
0001
0000
0000
0000
0011
0000
1000
0100
,
0010
0000
1000
0000
0000
0000
0100
1000
,
0011
0000
0000
0000
1000
0000
0001
0010
,
0001
0100
1000
0010
0010
0100
0001
0000
,
1000
0100
1000
0010
1000
0000
0010
0100
,
0001
0100
0001
0000
1000
0010
0001
0000
,
0001
0010
0000
0000
0100
0000
1000
0100
,
0001
0010
1000
0010
0010
0000
0100
0000
,
0001
1000
0100
1000
1000
0000
0010
1000
,
0001
0000
0100
0001
0010
0000
0001
0000
,
0001
0010
1000
0100
0100
0000
1000
0000
,
0001
0010
0001
0100
1000
0010
0010
0100
,
0001
0000
1000
0100
1000
0000
0100
0000
,
0001
0010
0010
1000
0001
0100
0010
0000
,
0001
1000
0100
0001
0001
0000
1000
0100
,
0001
0010
1000
0010
0010
0000
0100
0000
,
0001
1000
0100
1000
1000
0000
0010
1000
,
1100
0100
0000
0000
0001
0001
0000
0000
,
0100
0100
0000
0000
2002
0000
0000
0000
,
0000
0000
0000
0000
,
3003
0000
1000
0010
0010
0000
0001
0000
,
0001
0000
0001
0100
,
0000
0000
1000
0000
0010
0100
0010
0000
,
0001
0000
0001
0100
,
0100
0000
1000
0010
0010
0100
1000
0000
,
1000
0000
0010
0100
0010
0000
1000
0000
,
0100
0010
1000
0000
0001
0000
0100
1000
,
2000
0000
0000
0000
0001
0010
0100
0000
,
0001
0000
3000
0010
0010
0000
0100
0000
,
0001
0000
0100
0010
0001
0000
0100
0000
,
1000
0000
1000
0000
0010
0100
0010
0000
,
0001
0010
0001
0010
0100
0000
0010
0000
,
1000
0000
1000
0010
0010
0000
0100
0000
,
0001
0000
0100
0010
0001
0000
0100
0000
,
1000
0000
0100
0010
0100
0000
1000
0000
,
0001
0000
0010
0000
0010
0100
1000
0000
,
1000
0000
0010
0100
0010
0000
0100
0000
,
1000
0000
0000
1000
,
0011
0000
0001
0100
,
0000
1000
0000
1000
,
0101
0000
0001
0100
,
0000
1000
0000
1000
,
1001
0000
0000
0000
0010
1000
0100
0000
,
1000
0001
0001
0000
1000
0100
0001
0000
,
1000
0010
1000
0001
,
0010
0100
0100
0100
0001
0000
1000
0010
,
0001
0100
0001
0000
1000
0010
0001
0000
,
1000
0010
0010
0010
1000
0000
0001
0000
,
0001
0100
0001
0000
1000
0010
0001
0000
,
1000
0010
1000
0000
0001
0000
1000
0000
,
1000
0010
0010
0000
1000
0000
0100
0100
,
1000
0010
0010
0010
1000
0000
0001
0010
,
1000
0010
0010
0010
1000
0100
0001
0000
,
1000
0000
0010
0000
1000
0000
0001
0010
,
1000
0100
1000
0010
1000
0000
0010
0100
,
1000
0000
0010
0000
1000
0000
0001
0010
,
1000
0100
1000
0010
1000
0000
0010
0100
,
2000
0000
0000
3000
0000
0000
1000
0000
,
0110
0000
0000
0000
1000
0100
0001
0020
,
0000
0030
1000
0010
1000
0100
1000
0010
,
1000
0000
0000
0000
1000
0000
0001
0010
,
0001
0100
1000
0010
0010
0100
0001
0000
,
1000
0100
1000
0010
1000
0000
0010
0100
,
0001
0100
0001
0000
1000
0010
0001
0000
,
0001
0010
0100
0000
0100
0000
1000
0100
,
0001
0010
1000
0010
0010
0000
0100
0000
,
0001
1000
0100
1000
1000
0000
0010
1000
,
0001
0000
0100
0001
0010
0000
0001
0000
,
0001
0010
1000
0100
0100
0000
1000
0000
,
0001
0010
0001
0100
1000
0010
0010
0100
,
0001
0000
1000
0100
1000
0010
1000
0000
,
0010
0100
0001
0100
0001
0000
1000
0010
,
0001
0000
0001
0010
0100
0000
0100
0000
,
1000
0100
0001
0010
1000
0010
0010
0000
,
0100
0000
0001
1000
0100
0000
0100
1000
,
1000
0100
0100
0100
,
0001
0100
0100
0100
,
1000
0100
0100
0100
,
0001
0010
0100
0100
,
0010
0000
1000
0000
0000
0000
0100
1000
,
1000
0100
0100
0100
,
0001
0100
0100
0100
,
0001
0010
0100
1000
1000
0000
0001
0000
,
0000
0000
1000
0010
0010
0000
0000
0000
,
1000
0100
1000
0010
1000
0000
0010
0100
,
0001
0100
0001
0000
1000
0010
0001
0000
,
0001
0010
0100
1000
1000
0000
0001
0000
,
0000
0000
1000
0010
0010
0000
0000
0000
,
0001
1000
0100
1000
1000
0000
0010
1000
,
1000
0000
0000
0000
0010
1000
0100
0000
,
0001
0010
0100
1000
1000
0000
0001
0000
,
0000
0000
1000
0010
0010
0000
0000
0000
,
0001
0010
0100
1000
1000
0000
0002
0000
,
0000
0000
0000
0000
,
0000
0000
0003
1000
,
0001
0010
0001
0100
1000
0010
0010
0100
,
0001
0000
1000
0100
1000
0010
1000
0000
,
0010
0100
0001
0100
0001
0000
1000
0010
,
0001
0000
0001
0010
0100
0000
0100
0000
,
1000
0100
0001
0010
1000
0010
0010
0000
,
0100
0000
0001
1000
0100
1000
1000
0000
,
0010
1000
0001
0000
0100
0001
1010
0000
,
0001
0000
0001
0010
1000
0100
0100
0000
,
1000
0000
0001
0010
0001
0100
1000
0010
,
0010
0100
0001
0000
1000
0100
1000
0010
,
1000
0000
0010
0100
0001
0100
0001
0000
,
1000
0010
0001
0000
0001
0010
0100
0000
,
0100
0000
1000
0100
0001
0010
1000
0010
,
0010
0000
0100
0000
0001
1000
0100
1000
,
1100
0100
0000
0000
0001
0001
0000
0000
,
0100
0100
0000
0000
2002
0000
0000
0000
,
3103
0000
0000
0100
0000
0000
0100
0000
,
0000
0100
0000
0000
0010
0000
0000
0100
,
0000
0000
1000
0000
0000
0001
0010
0000
,
0100
0000
1000
0100
,
0000
0001
0100
0010
0000
0000
0010
0000
,
0000
0110
0000
0000
0000
0000
0000
0000
;

//---------------dance-single - ----------------
#NOTEDATA:;
#CHARTNAME:;
#STEPSTYPE:dance-single;
#DESCRIPTION:;
#CHARTSTYLE:;
#DIFFICULTY:Challenge;
#METER:10;
#RADARVALUES:0.623771,0.723794,0.094536,0.047268,0.008863,739.000000,723.000000,16.000000,8.000000,0.000000,1.000000,0.000000,0.000000,0.000000,0.623771,0.723794,0.094536,0.047268,0.008863,739.000000,723.000000,16.000000,8.000000,0.000000,1.000000,0.000000,0.000000,0.000000;
#CREDIT:;
#NOTES:
// measure 0
0000
0000
0000
1000
,  // measure 1
0000
0000
1000
0000
,  // measure 2
0000
0001
0000
0000
,  // measure 3
0001
0000
0000
1000
,  // measure 4
0010
0001
0000
0000
1000
0000
0100
0000
,  // measure 5
0101
0001
0000
0000
,  // measure 6
0001
0000
0000
1000
,  // measure 7
0000
0000
0000
0000
0000
0000
0000
0000
0001
0010
0001
0010
0001
0010
0100
0000
,  // measure 8
1000
0000
0100
0000
,  // measure 9
0000
0001
0001
0000
,  // measure 10
0001
0000
0001
0100
,  // measure 11
0000
0000
1000
0000
0000
0000
0100
1000
,  // measure 12
0001
0000
0001
0100
,  // measure 13
0000
0000
1000
0010
0010
0000
0000
0000
,  // measure 14
0001
0000
0001
0100
,  // measure 15
1000
0000
0000
0000
0010
1000
0100
0000
,  // measure 16
0001
0000
0001
0100
,  // measure 17
0000
0000
1000
0010
0010
0000
0000
0000
,  // measure 18
0001
0000
0001
0100
,  // measure 19
0000
0000
1000
0001
0010
0000
0000
0000
,  // measure 20
0001
0000
0001
0100
,  // measure 21
0000
0000
1000
0010
0010
0000
0000
0000
,  // measure 22
1000
0100
0100
1000
,  // measure 23
1000
0000
0001
0000
0010
0001
0010
0000
,  // measure 24
1000
0100
0100
0001
,  // measure 25
0001
0010
0100
0010
,  // measure 26
0010
0100
0100
0100
,  // measure 27
0001
0100
0100
0100
,  // measure 28
1000
0100
0100
0010
,  // measure 29
0010
0001
0010
0100
,  // measure 30
1000
0100
0010
0010
,  // measure 31
1000
0010
0010
0010
,  // measure 32
1000
0010
0010
0010
1000
0000
0001
0010
,  // measure 33
0001
0000
0100
0000
0001
0000
1000
0100
,  // measure 34
0001
0010
0010
0010
0001
0000
1000
0000
,  // measure 35
0110
0000
0100
0000
1000
0010
0001
0000
,  // measure 36
1010
0000
0100
0010
0000
0000
1100
0000
,  // measure 37
0001
0000
0000
0000
0011
0000
1000
0100
,  // measure 38
0010
0000
1000
0000
0000
0000
0100
1000
,  // measure 39
0011
0000
0000
0000
1000
0000
0001
0010
,  // measure 40
0001
0100
1000
0010
0010
0100
0001
0000
,  // measure 41
1000
0100
1000
0010
1000
0000
0010
0100
,  // measure 42
0001
0100
0001
0000
1000
0010
0001
0000
,  // measure 43
0001
0010
0000
0000
0100
0000
1000
0100
,  // measure 44
0001
0010
1000
0010
0010
0000
0100
0000
,  // measure 45
0001
1000
0100
1000
1000
0000
0010
1000
,  // measure 46
0001
0000
0100
0001
0010
0000
0001
0000
,  // measure 47
0001
0010
1000
0100
0100
0000
1000
0000
,  // measure 48
0001
0010
0001
0100
1000
0010
0010
0100
,  // measure 49
0001
0000
1000
0100
1000
0000
0100
0000
,  // measure 50
0001
0010
0010
1000
0001
0100
0010
0000
,  // measure 51
0001
1000
0100
0001
0001
0000
1000
0100
,  // measure 52
0001
0010
1000
0010
0010
0000
0100
0000
,  // measure 53
0001
1000
0100
1000
1000
0000
0010
1000
,  // measure 54
1100
0100
0000
0000
0001
0001
0000
0000
,  // measure 55
0100
0100
0000
0000
2002
0000
0000
0000
,  // measure 56
0000
0000
0000
0000
,  // measure 57
3003
0000
1000
0010
0010
0000
0001
0000
,  // measure 58
0001
0000
0001
0100
,  // measure 59
0000
0000
1000
0000
0010
0100
0010
0000
,  // measure 60
0001
0000
0001
0100
,  // measure 61
0100
0000
1000
0010
0010
0100
1000
0000
,  // measure 62
1000
0000
0010
0100
0010
0000
1000
0000
,  // measure 63
0100
0010
1000
0000
0001
0000
0100
1000
,  // measure 64
2000
0000
0000
0000
0001
0010
0100
0000
,  // measure 65
0001
0000
3000
0010
0010
0000
0100
0000
,  // measure 66
0001
0000
0100
0010
0001
0000
0100
0000
,  // measure 67
1000
0000
1000
0000
0010
0100
0010
0000
,  // measure 68
0001
0010
0001
0010
0100
0000
0010
0000
,  // measure 69
1000
0000
1000
0010
0010
0000
0100
0000
,  // measure 70
0001
0000
0100
0010
0001
0000
0100
0000
,  // measure 71
1000
0000
0100
0010
0100
0000
1000
0000
,  // measure 72
0001
0000
0010
0000
0010
0100
1000
0000
,  // measure 73
1000
0000
0010
0100
0010
0000
0100
0000
,  // measure 74
1000
0000
0000
1000
,  // measure 75
0011
0000
0001
0100
,  // measure 76
0000
1000
0000
1000
,  // measure 77
0101
0000
0001
0100
,  // measure 78
0000
1000
0000
1000
,  // measure 79
1001
0000
0000
0000
0010
1000
0100
0000
,  // measure 80
1000
0001
0001
0000
1000
0100
0001
0000
,  // measure 81
1000
0010
1000
0001
,  // measure 82
0010
0100
0100
0100
0001
0000
1000
0010
,  // measure 83
0001
0100
0001
0000
1000
0010
0001
0000
,  // measure 84
1000
0010
0010
0010
1000
0000
0001
0000
,  // measure 85
0001
0100
0001
0000
1000
0010
0001
0000
,  // measure 86
1000
0010
1000
0000
0001
0000
1000
0000
,  // measure 87
1000
0010
0010
0000
1000
0000
0100
0100
,  // measure 88
1000
0010
0010
0010
1000
0000
0001
0010
,  // measure 89
1000
0010
0010
0010
1000
0100
0001
0000
,  // measure 90
1000
0000
0010
0000
1000
0000
0001
0010
,  // measure 91
1000
0100
1000
0010
1000
0000
0010
0100
,  // measure 92
1000
0000
0010
0000
1000
0000
0001
0010
,  // measure 93
1000
0100
1000
0010
1000
0000
0010
0100
,  // measure 94
2000
0000
0000
3000
0000
0000
1000
0000
,  // measure 95
0110
0000
0000
0000
1000
0100
0001
0020
,  // measure 96
0000
0030
1000
0010
1000
0100
1000
0010
,  // measure 97
1000
0000
0000
0000
1000
0000
0001
0010
,  // measure 98
0001
0100
1000
0010
0010
0100
0001
0000
,  // measure 99
1000
0100
1000
0010
1000
0000
0010
0100
,  // measure 100
0001
0100
0001
0000
1000
0010
0001
0000
,  // measure 101
0001
0010
0100
0000
0100
0000
1000
0100
,  // measure 102
0001
0010
1000
0010
0010
0000
0100
0000
,  // measure 103
0001
1000
0100
1000
1000
0000
0010
1000
,  // measure 104
0001
0000
0100
0001
0010
0000
0001
0000
,  // measure 105
0001
0010
1000
0100
0100
0000
1000
0000
,  // measure 106
0001
0010
0001
0100
1000
0010
0010
0100
,  // measure 107
0001
0000
1000
0100
1000
0010
1000
0000
,  // measure 108
0010
0100
0001
0100
0001
0000
1000
0010
,  // measure 109
0001
0000
0001
0010
0100
0000
0100
0000
,  // measure 110
1000
0100
0001
0010
1000
0010
0010
0000
,  // measure 111
0100
0000
0001
1000
0100
0000
0100
1000
,  // measure 112
1000
0100
0100
0100
,  // measure 113
0001
0100
0100
0100
,  // measure 114
1000
0100
0100
0100
,  // measure 115
0001
0010
0100
0100
,  // measure 116
0010
0000
1000
0000
0000
0000
0100
1000
,  // measure 117
1000
0100
0100
0100
,  // measure 118
0001
0100
0100
0100
,  // measure 119
0001
0010
0100
1000
1000
0000
0001
0000
,  // measure 120
0000
0000
1000
0010
0010
0000
0000
0000
,  // measure 121
1000
0100
1000
0010
1000
0000
0010
0100
,  // measure 122
0001
0100
0001
0000
1000
0010
0001
0000
,  // measure 123
0001
0010
0100
1000
1000
0000
0001
0000
,  // measure 124
0000
0000
1000
0010
0010
0000
0000
0000
,  // measure 125
0001
1000
0100
1000
1000
0000
0010
1000
,  // measure 126
1000
0000
0000
0000
0010
1000
0100
0000
,  // measure 127
0001
0010
0100
1000
1000
0000
0001
0000
,  // measure 128
0000
0000
1000
0010
0010
0000
0000
0000
,  // measure 129
0001
0010
0100
1000
1000
0000
0002
0000
,  // measure 130
0000
0000
0000
0000
,  // measure 131
0000
0000
0003
1000
,  // measure 132
0001
0010
0001
0100
1000
0010
0010
0100
,  // measure 133
0001
0000
1000
0100
1000
0010
1000
0000
,  // measure 134
0010
0100
0001
0100
0001
0000
1000
0010
,  // measure 135
0001
0000
0001
0010
0100
0000
0100
0000
,  // measure 136
1000
0100
0001
0010
1000
0010
0010
0000
,  // measure 137
0100
0000
0001
1000
0100
1000
1000
0000
,  // measure 138
0010
1000
0001
0000
0100
0001
1010
0000
,  // measure 139
0001
0000
0001
0010
1000
0100
0100
0000
,  // measure 140
1000
0000
0001
0010
0001
0100
1000
0010
,  // measure 141
0010
0100
0001
0000
1000
0100
1000
0010
,  // measure 142
1000
0000
0010
0100
0001
0100
0001
0000
,  // measure 143
1000
0010
0001
0000
0001
0010
0100
0000
,  // measure 144
0100
0000
1000
0100
0001
0010
1000
0010
,  // measure 145
0010
0000
0100
0000
0001
1000
0100
1000
,  // measure 146
1100
0100
0000
0000
0001
0001
0000
0000
,  // measure 147
0100
0100
0000
0000
2002
0000
0000
0000
,  // measure 148
3103
0000
0000
0100
0000
0000
0100
0000
,  // measure 149
0000
0100
0000
0000
0010
0000
0000
0100
,  // measure 150
0000
0000
1000
0000
0000
0001
0010
0000
,  // measure 151
0100
0000
1000
0100
,  // measure 152
0000
0001
0100
0010
0000
0000
0010
0000
,  // measure 153
0000
0110
0000
0000
0000
0000
0000
0000
;
