#VERSION:0.83;
#TITLE:Alien;
#SUBTITLE:;
#ARTIST:Lee Suhyun;
#TITLETRANSLIT:;
#SUBTITLETRANSLIT:;
#ARTISTTRANSLIT:;
#GENRE:;
#ORIGIN:;
#CREDIT:DubStepManiac;
#BANNER:Alien.png;
#BACKGROUND:Alien-bg.jpg;
#PREVIEWVID:;
#JACKET:jacket.png;
#CDIMAGE:;
#DISCIMAGE:;
#LYRICSPATH:;
#CDTITLE:cdtitle.png;
#MUSIC:Alien.mp3;
#OFFSET:-1.239728;
#SAMPLESTART:48.115009;
#SAMPLELENGTH:12.000000;
#SELECTABLE:YES;
#BPMS:0.000=127.999,
13.000=64.000,
13.333=255.998,
14.000=127.999,
45.000=64.000,
45.333=255.998,
46.000=127.999,
251.500=64.000,
251.833=255.998,
252.500=127.999,
348.000=64.000,
349.000=127.999;
#STOPS:;
#DELAYS:;
#WARPS:;
#TIMESIGNATURES:0.000=4=4;
#TICKCOUNTS:0.000=4;
#COMBOS:0.000=1;
#SPEEDS:0.000=1.000=0.000=0;
#SCROLLS:0.000=1.000;
#FAKES:;
#LABELS:0.000=Song Start;
#BGCHANGES:0.000=Alien.mp4=1.000=0=0=0=StretchNoLoop====,
99999=-nosongbg-=1.000=0=0=0 // don't automatically add -songbackground-
;
#KEYSOUNDS:;
#ATTACKS:
;

//---------------dance-single - ----------------
#NOTEDATA:;
#CHARTNAME:;
#STEPSTYPE:dance-single;
#DESCRIPTION:;
#CHARTSTYLE:;
#DIFFICULTY:Easy;
#METER:3;
#RADARVALUES:0.240911,0.260922,0.230710,0.038452,0.000000,307.000000,265.000000,42.000000,7.000000,0.000000,0.000000,0.000000,0.000000,0.000000,0.240911,0.260922,0.230710,0.038452,0.000000,307.000000,265.000000,42.000000,7.000000,0.000000,0.000000,0.000000,0.000000,0.000000;
#CREDIT:DubStepManiac;
#NOTES:
// measure 0
0000
0000
0000
0000
,  // measure 1
0000
0000
0000
0000
,  // measure 2
0000
0000
0000
0001
,  // measure 3
0000
0000
0011
1000
,  // measure 4
0001
1000
0100
0000
,  // measure 5
0001
0010
0100
0010
,  // measure 6
1010
0001
0100
0000
,  // measure 7
1100
1000
0100
0000
,  // measure 8
0001
1000
0100
0000
,  // measure 9
0001
0010
0100
0010
,  // measure 10
1010
0001
0100
0000
,  // measure 11
0011
1000
0100
0010
,  // measure 12
0001
1000
0100
0000
,  // measure 13
0001
0010
0100
0010
,  // measure 14
1010
0001
0100
0000
,  // measure 15
1100
1000
0100
0000
,  // measure 16
0001
1000
0100
0000
,  // measure 17
1100
1000
0100
0000
,  // measure 18
1010
0001
0100
0000
,  // measure 19
1001
0001
0100
0000
,  // measure 20
0000
0002
0000
0003
,  // measure 21
0002
0003
1000
0000
,  // measure 22
0000
0000
0000
0000
,  // measure 23
0000
0000
1000
0000
,  // measure 24
0000
0002
0000
0003
,  // measure 25
2000
3000
0001
0000
,  // measure 26
0000
0000
0000
0000
,  // measure 27
0000
0000
1010
0001
,  // measure 28
0001
1000
0100
0000
,  // measure 29
0001
0010
0100
0010
,  // measure 30
0001
1000
0100
0000
,  // measure 31
1001
1000
0100
0001
,  // measure 32
1010
0001
0100
0000
,  // measure 33
0001
0010
0100
0010
,  // measure 34
1010
0001
0100
0000
,  // measure 35
1100
1000
0100
0000
,  // measure 36
1010
0001
0100
0000
,  // measure 37
0001
0010
0100
0010
,  // measure 38
1010
0001
0100
0000
,  // measure 39
1000
0010
0000
0000
,  // measure 40
0000
1000
0010
1000
,  // measure 41
0001
0010
0100
0010
,  // measure 42
1010
0001
0100
0000
,  // measure 43
1100
1000
0100
0000
,  // measure 44
0001
1000
0100
0000
,  // measure 45
1010
0001
0100
0000
,  // measure 46
0101
1000
0010
0000
,  // measure 47
0011
1000
0100
0010
,  // measure 48
0001
1000
0100
0000
,  // measure 49
0001
0010
0100
0010
,  // measure 50
1010
0001
0100
0000
,  // measure 51
0101
1000
0010
0000
,  // measure 52
1100
0001
0010
0000
,  // measure 53
0011
1000
0100
0000
,  // measure 54
1010
0001
0100
0000
,  // measure 55
1001
0001
0100
0000
,  // measure 56
2000
3000
0001
0000
,  // measure 57
0002
0003
1000
0000
,  // measure 58
0000
0000
0000
0000
,  // measure 59
0000
0000
0001
0010
,  // measure 60
0000
0001
0010
0100
,  // measure 61
0000
0001
0100
0000
,  // measure 62
0002
0003
1000
0000
,  // measure 63
0000
0000
1010
0001
,  // measure 64
0001
1000
0100
0000
,  // measure 65
0001
0010
0100
0010
,  // measure 66
1010
0001
0100
0000
,  // measure 67
1100
1000
0100
0000
,  // measure 68
1010
0001
0100
0000
,  // measure 69
0001
1000
0100
0000
,  // measure 70
1000
0001
0010
0000
,  // measure 71
1010
0001
0100
0000
,  // measure 72
1000
0010
1000
0000
,  // measure 73
1010
0001
0100
0000
,  // measure 74
0001
0010
0100
0010
,  // measure 75
1100
1000
0100
0000
,  // measure 76
0011
1000
0100
0010
,  // measure 77
0001
1000
0000
0000
,  // measure 78
0000
0000
0001
0000
,  // measure 79
0000
1000
0100
1000
,  // measure 80
0001
1000
0100
0000
,  // measure 81
0001
0010
0100
0010
,  // measure 82
1010
0001
0100
0000
,  // measure 83
1100
1000
0100
0000
,  // measure 84
0001
1000
0100
0000
,  // measure 85
1000
0010
1000
0000
,  // measure 86
0001
0010
0001
0000
,  // measure 87
1010
0100
0000
0001
,  // measure 88
0100
0000
0001
1000
,  // measure 89
0100
0000
1010
0001
,  // measure 90
0100
0000
0001
1000
,  // measure 91
0100
0000
1100
1000
,  // measure 92
0100
0000
1010
0001
,  // measure 93
0100
0000
0001
0010
,  // measure 94
0100
0010
0001
0010
,  // measure 95
0001
0000
0000
0000
;

//---------------dance-single - ----------------
#NOTEDATA:;
#CHARTNAME:;
#STEPSTYPE:dance-single;
#DESCRIPTION:;
#CHARTSTYLE:;
#DIFFICULTY:Medium;
#METER:5;
#RADARVALUES:0.329585,0.339198,0.373530,0.038452,0.000000,420.000000,352.000000,68.000000,7.000000,0.000000,0.000000,0.000000,0.000000,0.000000,0.329585,0.339198,0.373530,0.038452,0.000000,420.000000,352.000000,68.000000,7.000000,0.000000,0.000000,0.000000,0.000000,0.000000;
#CREDIT:DubStepManiac;
#NOTES:
// measure 0
1000
0000
0000
0000
,  // measure 1
0001
0000
0000
0000
,  // measure 2
0000
0000
0000
1000
,  // measure 3
0000
0000
1010
0001
,  // measure 4
1010
0000
1000
0000
0010
0000
1000
0100
,  // measure 5
0001
1000
0010
1000
,  // measure 6
0011
0001
0100
0010
,  // measure 7
1100
0000
1000
0010
1000
0000
0010
0000
,  // measure 8
1010
0000
1000
0000
0010
0000
1000
0100
,  // measure 9
0001
1000
0010
1000
,  // measure 10
0011
0001
0100
0010
,  // measure 11
0011
0100
0010
0001
,  // measure 12
1010
0000
1000
0000
0010
0000
1000
0100
,  // measure 13
0001
1000
0010
1000
,  // measure 14
0011
0001
0100
0010
,  // measure 15
1100
0000
1000
0010
1000
0000
0010
0000
,  // measure 16
1010
1000
0010
1000
,  // measure 17
1100
0000
1000
0010
1000
0000
0010
0000
,  // measure 18
0011
0001
0100
0010
,  // measure 19
0101
1000
0100
0000
,  // measure 20
0000
0002
0000
0003
,  // measure 21
2000
3000
0100
0000
,  // measure 22
1000
0000
0000
0000
,  // measure 23
0001
0000
0100
0000
,  // measure 24
0000
0002
0000
0003
,  // measure 25
2000
3000
0010
0000
,  // measure 26
1000
0000
0000
0000
,  // measure 27
0000
1000
1100
1000
,  // measure 28
1010
0000
1000
0000
0010
0000
1000
0100
,  // measure 29
0001
1000
0010
1000
,  // measure 30
1010
1000
0010
1000
,  // measure 31
1001
0000
1000
0001
0100
0000
0010
0000
,  // measure 32
0011
0000
0001
0000
0100
0000
0010
1000
,  // measure 33
0001
1000
0010
1000
,  // measure 34
0011
0001
0100
0010
,  // measure 35
1100
0000
1000
0010
1000
0000
0010
0000
,  // measure 36
0011
0000
0001
0000
0100
0000
0010
1000
,  // measure 37
0001
1000
0010
1000
,  // measure 38
0011
0001
0100
0010
,  // measure 39
1010
0000
1000
0100
0000
0000
0000
0000
,  // measure 40
0000
0000
0011
0000
1000
0000
0100
0010
,  // measure 41
0001
1000
0010
1000
,  // measure 42
0011
0001
0100
0010
,  // measure 43
1100
0000
1000
0010
1000
0000
0010
0000
,  // measure 44
1010
1000
0010
1000
,  // measure 45
0011
0001
0100
0010
,  // measure 46
0101
0001
0010
0100
,  // measure 47
0011
0100
0010
0001
,  // measure 48
1010
0000
1000
0000
0010
0000
1000
0100
,  // measure 49
0001
1000
0010
1000
,  // measure 50
0011
0001
0100
0010
,  // measure 51
0101
0001
0010
0100
,  // measure 52
0011
0001
0100
0010
,  // measure 53
0101
0001
0010
0100
,  // measure 54
0011
0001
0100
0010
,  // measure 55
0101
1000
0100
0000
,  // measure 56
2000
3000
0010
0000
,  // measure 57
0002
0003
0010
0000
,  // measure 58
1000
0000
0000
0000
,  // measure 59
1000
0000
0100
1100
,  // measure 60
0000
1001
0010
0101
,  // measure 61
0001
1010
0001
0000
,  // measure 62
2000
3000
0100
0000
,  // measure 63
0000
1000
1100
1000
,  // measure 64
1010
0000
1000
0000
0010
0000
1000
0100
,  // measure 65
0001
1000
0010
1000
,  // measure 66
0011
0001
0100
0010
,  // measure 67
1100
0000
1000
0010
1000
0000
0010
0000
,  // measure 68
0011
0001
0100
0010
,  // measure 69
1010
1000
0010
1000
,  // measure 70
0011
0001
0010
0001
,  // measure 71
0011
0001
0100
0010
,  // measure 72
0011
0001
0100
0010
,  // measure 73
0011
0000
0001
0000
0100
0000
0010
1000
,  // measure 74
0001
1000
0010
1000
,  // measure 75
1100
0000
1000
0010
1000
0000
0010
0000
,  // measure 76
0011
0100
0010
0001
,  // measure 77
1000
0000
0001
1000
0000
0000
0000
0000
,  // measure 78
0000
0000
0001
1000
,  // measure 79
0001
0100
0011
0001
,  // measure 80
1010
0000
1000
0000
0010
0000
1000
0100
,  // measure 81
0001
1000
0010
1000
,  // measure 82
0011
0001
0100
0010
,  // measure 83
1100
0000
1000
0010
1000
0000
0010
0000
,  // measure 84
1010
1000
0010
1000
,  // measure 85
0011
0001
0100
0010
,  // measure 86
0101
0001
0010
0100
,  // measure 87
0011
0100
0000
0001
,  // measure 88
0100
0010
1010
1000
,  // measure 89
0010
1000
0011
0001
,  // measure 90
0100
0010
1010
1000
,  // measure 91
0010
0000
1000
0000
1100
0000
1000
0010
,  // measure 92
1000
0010
0011
0001
,  // measure 93
0100
0000
0010
1000
0001
0000
1000
0000
,  // measure 94
0010
1000
0101
0001
,  // measure 95
0010
0000
0000
0000
;

//---------------dance-single - ----------------
#NOTEDATA:;
#CHARTNAME:;
#STEPSTYPE:dance-single;
#DESCRIPTION:;
#CHARTSTYLE:;
#DIFFICULTY:Hard;
#METER:6;
#RADARVALUES:0.380592,0.391382,0.455926,0.060424,0.000000,485.000000,402.000000,83.000000,11.000000,6.000000,0.000000,1.000000,0.000000,0.000000,0.380592,0.391382,0.455926,0.060424,0.000000,485.000000,402.000000,83.000000,11.000000,6.000000,0.000000,1.000000,0.000000,0.000000;
#CREDIT:DubStepManiac;
#NOTES:
// measure 0
0000
0000
0000
M000
,  // measure 1
0000
0M00
0000
000M
,  // measure 2
0000
00M0
0000
0MM0
,  // measure 3
0000
1001
1100
0100
,  // measure 4
1010
0001
0010
0001
,  // measure 5
1100
0000
0001
1000
0010
0000
0100
0000
,  // measure 6
0101
0000
1000
0001
0010
0000
0100
0000
,  // measure 7
1001
0000
0001
0010
0100
0000
0010
0000
,  // measure 8
1010
0001
0010
0001
,  // measure 9
1100
0000
0001
1000
0010
0000
0100
0000
,  // measure 10
0101
0000
1000
0001
0010
0000
0100
0000
,  // measure 11
1010
1000
0100
0010
,  // measure 12
1010
0001
0010
0001
,  // measure 13
1100
0000
0001
1000
0010
0000
0100
0000
,  // measure 14
0101
0000
1000
0001
0010
0000
0100
0000
,  // measure 15
1001
0000
0001
0010
0100
0000
0010
0000
,  // measure 16
1010
0001
0010
0001
,  // measure 17
1001
0000
0001
0010
0100
0000
0010
0000
,  // measure 18
0101
0000
1000
0001
0010
0000
0100
0000
,  // measure 19
0110
0000
1000
0100
0020
0000
0030
0000
,  // measure 20
0000
0002
0000
0010
0000
0000
0003
0000
,  // measure 21
0000
2000
0000
3100
0010
0000
0000
0001
,  // measure 22
0010
0000
0000
1000
0100
0000
0000
1000
,  // measure 23
0001
1000
0000
0000
0020
0000
0000
0030
,  // measure 24
0000
0002
0000
0010
0000
0000
0003
0000
,  // measure 25
0000
2000
0000
0100
3010
0000
0000
0001
,  // measure 26
0010
0000
0000
1000
0100
0000
0000
1000
,  // measure 27
0001
1000
0101
1000
,  // measure 28
1010
0001
0010
0001
,  // measure 29
1100
0000
0001
1000
0010
0000
0100
0000
,  // measure 30
1010
0001
0010
0001
,  // measure 31
1100
0000
0001
1000
0001
0000
0101
0000
,  // measure 32
1000
0000
1010
0001
0010
0000
1100
0000
,  // measure 33
0100
0000
0001
1000
0010
0000
0100
0000
,  // measure 34
0101
0000
1000
0001
0010
0000
0100
0000
,  // measure 35
0001
0000
1001
0010
0100
0000
0010
0000
,  // measure 36
0101
0000
1000
0001
0010
0000
0100
0000
,  // measure 37
1100
0000
0001
1000
0010
0000
0100
0000
,  // measure 38
0101
0000
1000
0001
0010
0000
0100
0000
,  // measure 39
1400
0000
0300
0000
,  // measure 40
0000
0011
0010
0001
,  // measure 41
1100
0000
0001
1000
0010
0000
0100
0000
,  // measure 42
0101
0000
1000
0001
0010
0000
0100
0000
,  // measure 43
1001
0000
0001
0010
0100
0000
0010
0000
,  // measure 44
1010
0001
0010
0001
,  // measure 45
0101
0000
1000
0001
0010
0000
0100
0000
,  // measure 46
1010
0000
0001
1000
0100
0000
0010
0000
,  // measure 47
1010
1000
0100
0010
,  // measure 48
1010
0001
0010
0001
,  // measure 49
1100
0000
0001
1000
0010
0000
0100
0000
,  // measure 50
0101
0000
1000
0001
0010
0000
0100
0000
,  // measure 51
0101
0000
1000
0001
0010
0000
0100
0000
,  // measure 52
0011
0000
1000
0001
0100
0000
0010
0000
,  // measure 53
1100
0000
0001
1000
0010
0000
0100
0000
,  // measure 54
0101
0000
1000
0001
0010
0000
0100
0000
,  // measure 55
0110
0000
1000
0020
0000
0000
0000
0000
,  // measure 56
0030
0000
2000
0000
0000
0100
3000
0000
,  // measure 57
0000
0000
0002
0000
0000
0000
0000
0010
,  // measure 58
0103
0000
0000
1000
0100
0000
0000
1000
,  // measure 59
1000
0000
0010
0011
,  // measure 60
0000
1010
0001
1010
,  // measure 61
1000
0000
1001
0000
0020
0000
0000
0030
,  // measure 62
2000
0000
3000
0100
0010
0000
1000
0001
,  // measure 63
0000
1000
0101
1000
,  // measure 64
1010
0001
0010
0001
,  // measure 65
1100
0000
0001
1000
0010
0000
0100
0000
,  // measure 66
0101
0000
1000
0001
0010
0000
0100
0000
,  // measure 67
1001
0000
0001
0010
0100
0000
0010
0000
,  // measure 68
0101
0000
1000
0001
0010
0000
0100
0000
,  // measure 69
1010
0001
0010
0001
,  // measure 70
1010
0001
0010
0001
,  // measure 71
0101
0000
1000
0001
0010
0000
0100
0000
,  // measure 72
0011
0000
1000
0001
0100
0001
0100
0000
,  // measure 73
0101
0000
1000
0001
0010
0000
0100
0000
,  // measure 74
1100
0000
0001
1000
0010
0000
0100
0000
,  // measure 75
1001
0000
0001
0010
0100
0000
0010
0000
,  // measure 76
1010
1000
0100
0010
,  // measure 77
0110
0000
0010
0001
0000
0000
0000
0000
,  // measure 78
0000
0000
0000
0000
0001
0000
1000
0001
,  // measure 79
0001
1000
0010
0000
1001
0000
0001
0000
,  // measure 80
1010
0001
0010
0001
,  // measure 81
1100
0000
0001
1000
0010
0000
0100
0000
,  // measure 82
0101
0000
1000
0001
0010
0000
0100
0000
,  // measure 83
1001
0000
0001
0010
0100
0000
0010
0000
,  // measure 84
1010
0001
0010
0001
,  // measure 85
0011
0000
1000
0001
0100
0000
0100
0000
,  // measure 86
1001
0000
0010
1000
0010
0000
1000
0000
,  // measure 87
0101
0000
1000
0000
0100
0000
1000
0001
,  // measure 88
0010
0000
0100
0000
1010
0000
0010
0001
,  // measure 89
0010
0000
0001
0000
0101
0000
1000
0001
,  // measure 90
0010
0100
1010
0001
,  // measure 91
0010
0000
0001
0000
1001
0000
0001
0010
,  // measure 92
0100
0000
0010
0000
0101
0000
1000
0001
,  // measure 93
0010
0000
0100
0000
1100
0000
0001
1000
,  // measure 94
0010
0000
0100
0000
1001
0000
0010
1000
,  // measure 95
0010
0000
0000
0000
;

//---------------dance-single - ----------------
#NOTEDATA:;
#CHARTNAME:;
#STEPSTYPE:dance-single;
#DESCRIPTION:;
#CHARTSTYLE:;
#DIFFICULTY:Challenge;
#METER:7;
#RADARVALUES:0.394718,0.417475,0.428461,0.065917,0.002747,503.000000,425.000000,78.000000,12.000000,6.000000,0.000000,1.000000,0.000000,0.000000,0.394718,0.417475,0.428461,0.065917,0.002747,503.000000,425.000000,78.000000,12.000000,6.000000,0.000000,1.000000,0.000000,0.000000;
#CREDIT:;
#NOTES:
// measure 0
0000
0000
0000
000M
,  // measure 1
0000
00M0
0000
M000
,  // measure 2
0000
0M00
0000
M00M
,  // measure 3
0000
1001
1100
0100
,  // measure 4
1010
0001
0010
0001
,  // measure 5
1100
0010
0001
1000
0100
0000
0010
0000
,  // measure 6
0011
0100
1000
0001
0010
0000
0100
0000
,  // measure 7
1001
0000
0001
0000
0100
0010
0100
0000
,  // measure 8
1000
0010
0001
0010
0000
0001
0000
0010
,  // measure 9
1100
0000
0001
1000
0010
0000
0100
0000
,  // measure 10
0011
0100
1000
0001
0010
0000
0100
0000
,  // measure 11
1000
1010
0100
0010
,  // measure 12
1000
0010
0001
0000
0010
0000
0001
0000
,  // measure 13
1100
0010
0001
1000
0010
0000
0100
0000
,  // measure 14
0001
0100
1000
0001
0010
0000
0100
0000
,  // measure 15
1001
0010
0100
0010
0000
0100
0000
0100
,  // measure 16
1000
0000
0001
0010
0001
0000
0010
0000
,  // measure 17
1001
0000
0001
0100
0010
0100
1000
0000
,  // measure 18
0101
0000
1000
0010
0001
0100
0000
0010
,  // measure 19
0100
0000
1000
0020
0100
0000
0030
0000
,  // measure 20
0000
0002
0000
0010
0000
0000
0003
0000
,  // measure 21
0000
2000
0000
3100
0010
0100
0010
0002
,  // measure 22
0000
0013
0000
1000
0100
0000
0010
1000
,  // measure 23
0000
0001
0000
0000
0020
0000
0000
0030
,  // measure 24
0000
0002
0000
0010
0000
0000
0003
0000
,  // measure 25
0000
2000
0000
0100
3010
0001
0000
0001
,  // measure 26
0100
0010
0100
1000
0100
0000
0010
1000
,  // measure 27
0000
1000
0101
1000
,  // measure 28
1010
0001
0010
0001
,  // measure 29
1100
0000
0001
1000
0010
0000
0100
0000
,  // measure 30
1010
0001
0010
0001
,  // measure 31
1100
0000
0001
1000
0001
0000
0101
0000
,  // measure 32
1000
0000
1010
0001
0010
0000
1100
0000
,  // measure 33
0100
0000
0001
1000
0010
0000
0100
0000
,  // measure 34
0101
0000
1000
0001
0010
0000
0100
0000
,  // measure 35
0001
0000
1001
0010
0100
0000
0010
0000
,  // measure 36
0101
0000
1000
0001
0010
0000
0100
0000
,  // measure 37
1100
0000
0001
1000
0010
0000
0100
0000
,  // measure 38
0101
0000
1000
0001
0010
0000
0100
0000
,  // measure 39
1400
0000
0300
0000
,  // measure 40
0000
0011
0010
0001
,  // measure 41
1100
0000
0001
1000
0010
0000
0100
0000
,  // measure 42
0101
0000
1000
0001
0010
0000
0100
0000
,  // measure 43
1001
0000
0001
0010
0100
0000
0010
0000
,  // measure 44
1010
0001
0010
0001
,  // measure 45
0101
0000
1000
0001
0010
0000
0100
0000
,  // measure 46
1010
0000
0001
1000
0100
0000
0010
0000
,  // measure 47
1010
1000
0100
0010
,  // measure 48
1010
0001
0010
0001
,  // measure 49
1100
0000
0001
1000
0010
0000
0100
0000
,  // measure 50
0101
0000
1000
0001
0010
0000
0100
0000
,  // measure 51
0101
0000
1000
0001
0010
0000
0100
0000
,  // measure 52
0011
0000
1000
0001
0100
0000
0010
0000
,  // measure 53
1100
0000
0001
1000
0010
0000
0100
0000
,  // measure 54
0101
0000
1000
0001
0010
0000
0100
0000
,  // measure 55
0110
0000
1000
0100
0020
0000
0000
0030
,  // measure 56
0000
2000
0000
0100
0000
0000
0000
0000
,  // measure 57
0000
3002
0000
0000
0010
0100
0010
0100
,  // measure 58
0003
0010
0000
1000
0100
0001
0000
1000
,  // measure 59
1000
0100
0000
0000
0010
0000
0011
0000
,  // measure 60
0000
1010
0001
1010
,  // measure 61
1000
0000
0000
0000
1001
0000
0000
0000
0020
0000
0000
0000
0000
0000
0030
2000
,  // measure 62
0000
0000
3000
0100
0010
0000
1000
0001
,  // measure 63
0000
1000
0101
1000
,  // measure 64
1010
0001
0010
0001
,  // measure 65
1100
0000
0001
1000
0010
0000
0100
0000
,  // measure 66
0101
0000
1000
0001
0010
0000
0100
0000
,  // measure 67
1001
0000
0001
0010
0100
0000
0010
0000
,  // measure 68
0101
0000
1000
0001
0010
0000
0100
0000
,  // measure 69
1010
0001
0010
0001
,  // measure 70
1010
0001
0010
0001
,  // measure 71
0101
0000
1000
0001
0010
0000
0100
0000
,  // measure 72
0011
0000
1000
0001
0100
0001
0100
0000
,  // measure 73
0101
0000
1000
0001
0010
0000
0100
0000
,  // measure 74
1100
0000
0001
1000
0010
0000
0100
0000
,  // measure 75
1001
0000
0001
0010
0100
0000
0010
0000
,  // measure 76
1010
1000
0100
0010
,  // measure 77
0110
0000
0010
0001
0000
0000
0000
0000
,  // measure 78
0000
0000
0000
0000
0001
0000
1000
0001
,  // measure 79
0001
1000
0010
0000
1001
0000
0001
0000
,  // measure 80
1010
0001
0010
0001
,  // measure 81
1100
0000
0001
1000
0010
0000
0100
0000
,  // measure 82
0101
0000
1000
0001
0010
0000
0100
0000
,  // measure 83
1001
0000
0001
0010
0100
0000
0010
0000
,  // measure 84
1010
0001
0010
0001
,  // measure 85
0011
0000
1000
0001
0100
0000
0100
0000
,  // measure 86
1001
0000
0010
1000
0010
0000
1000
0000
,  // measure 87
0101
0000
1000
0000
0100
0000
1000
0001
,  // measure 88
0010
0000
0100
0000
1010
0000
0010
0001
,  // measure 89
0010
0000
0001
0000
0101
0000
1000
0001
,  // measure 90
0010
0100
1010
0001
,  // measure 91
0010
0000
0001
0000
1001
0000
0001
0010
,  // measure 92
0100
0000
0010
0000
0101
0000
1000
0001
,  // measure 93
0010
0000
0100
0000
1100
0000
0001
1000
,  // measure 94
0010
0000
0100
0000
1001
0000
0010
1000
,  // measure 95
0010
0000
0000
0000
;
