#TITLE:chaplet;
#SUBTITLE:;
#ARTIST:DJ TOTTO;
#TITLETRANSLIT:;
#SUBTITLETRANSLIT:;
#ARTISTTRANSLIT:;
#GENRE:;
#CREDIT:;
#BANNER:chaplet-banner.png;
#BACKGROUND:;
#LYRICSPATH:;
#CDTITLE:;
#MUSIC:chaplet.mp3;
#OFFSET:-0.012000;
#SAMPLESTART:21.011999;
#SAMPLELENGTH:11.400003;
#SELECTABLE:YES;
#BPMS:0.000000=200.000000
;
#STOPS:
;
#BGCHANGES:;
#KEYSOUNDS:;
#ATTACKS:;

//---------------dance-single - ----------------
#NOTES:
     dance-single:
     :
     Hard:
     16:
     0.705886,0.930565,0.129126,0.232426,1.000000,532.000000,15.000000,27.000000,0.000000,0.000000,0.000000,0.705886,0.930565,0.129126,0.232426,1.000000,532.000000,15.000000,27.000000,0.000000,0.000000,0.000000:
// measure 0
0000
0000
0000
0000
,  // measure 1
0000
0000
0000
0000
,  // measure 2
0000
0000
0000
0000
,  // measure 3
0000
0000
0000
0000
,  // measure 4
0000
0000
0000
0000
,  // measure 5
0000
0000
0000
0000
,  // measure 6
0000
0000
0000
0000
,  // measure 7
0000
0000
0000
0000
,  // measure 8
0000
0000
0000
0000
,  // measure 9
0010
1000
1001
0001
,  // measure 10
0100
0010
0101
0001
,  // measure 11
0010
0100
1010
0010
,  // measure 12
0100
0001
0011
0001
,  // measure 13
1000
0010
0101
0001
,  // measure 14
0010
0001
1100
1000
,  // measure 15
0010
0100
1001
0100
,  // measure 16
0010
0001
1010
0001
,  // measure 17
0020
0000
0000
0030
,  // measure 18
0100
0000
0100
1000
0000
1000
0010
0000
0010
0100
0000
0100
,  // measure 19
0001
0000
0001
0010
0001
0010
0100
1000
0100
1000
0001
1000
,  // measure 20
0001
0100
0001
0100
0010
0100
0010
1000
0010
1000
0001
1000
,  // measure 21
0001
0000
0001
0010
0000
0010
0100
0000
0100
1000
0000
1000
,  // measure 22
0001
0100
0001
0100
0000
0100
0010
1000
0010
1000
0000
1000
,  // measure 23
0100
1000
0100
1000
0000
1000
0001
0100
0001
0100
0000
0100
,  // measure 24
0010
0000
0010
1000
0001
1000
0001
0000
0001
0010
0100
0010
,  // measure 25
0100
1000
0100
0010
0001
0010
0100
1000
0100
1000
0000
1000
,  // measure 26
0001
0000
0001
0100
0000
0100
0010
0000
0010
1000
0000
1000
,  // measure 27
0100
0000
0100
0010
0001
0010
0100
1000
0100
1000
0001
1000
,  // measure 28
0001
0100
0001
0100
0010
0100
0010
1000
0010
1000
0001
1000
,  // measure 29
0001
0000
0011
0000
0110
0000
1100
0000
1001
0000
0110
0000
,  // measure 30
0010
0000
0010
1000
0100
1000
0100
0000
0100
0010
0000
0010
,  // measure 31
0001
0000
0001
1000
0010
1000
0010
0000
0010
0100
0000
0100
,  // measure 32
0001
0000
0001
0010
0001
0010
0001
0000
0001
0100
0001
0100
,  // measure 33
0010
1000
0010
1000
0001
1000
0010
1000
0010
0100
0001
0100
,  // measure 34
0001
0000
0001
0010
0000
0010
0100
0000
0100
1000
0000
1000
,  // measure 35
0001
0000
0001
0100
0000
0100
0010
0000
0010
1000
0000
1000
,  // measure 36
0001
0000
0001
0010
0000
0010
0100
0000
0100
1000
0000
1000
,  // measure 37
0001
0000
0001
0100
0000
0100
1000
0000
1000
0100
0000
0100
,  // measure 38
0010
0000
0010
1000
0000
1000
0100
0000
0100
0001
0000
0001
,  // measure 39
1000
0000
1000
0010
0000
0010
0001
0000
0001
1000
0000
1000
,  // measure 40
0010
0000
0010
0100
0000
0100
0001
0000
0001
0010
0000
0010
,  // measure 41
0100
0000
0000
1000
0100
1000
0100
0000
0000
0010
0001
0010
,  // measure 42
0001
0000
0001
0100
0000
0100
1000
0000
1000
0100
0000
0100
,  // measure 43
0010
0000
0010
1000
0000
1000
0100
0000
0100
0001
0000
0001
,  // measure 44
1000
0000
1000
0010
0000
0010
0001
0000
0001
0100
0000
0100
,  // measure 45
0010
0000
0010
1000
0000
1000
0100
0000
0100
0001
0000
0001
,  // measure 46
1000
0000
1000
0010
0000
0010
0100
0000
0100
1000
0000
1000
,  // measure 47
0001
0100
0001
0100
0000
0100
0010
1000
0010
1000
0000
1000
,  // measure 48
0001
0000
0001
0010
0000
0010
0100
0000
0100
1000
0000
1000
,  // measure 49
0002
0000
0000
0000
,  // measure 50
0023
0000
0000
0000
,  // measure 51
0230
0000
0000
0000
,  // measure 52
2300
0000
0000
0000
,  // measure 53
3002
0000
0203
0000
,  // measure 54
0302
0000
0000
0000
,  // measure 55
0023
0000
0000
0000
,  // measure 56
0230
0000
0000
0000
,  // measure 57
2300
0000
3020
0000
,  // measure 58
0230
0000
1000
0000
,  // measure 59
0302
0000
1000
0000
,  // measure 60
0023
0000
0001
0000
,  // measure 61
0230
0000
0010
0000
,  // measure 62
2300
0000
0100
0000
,  // measure 63
3002
0000
1000
0000
,  // measure 64
0203
0000
0010
0000
,  // measure 65
0320
0000
0000
0000
,  // measure 66
1030
0100
0010
0001
,  // measure 67
1000
0000
1000
0010
0000
0010
0100
0000
0100
0001
0000
0001
,  // measure 68
1000
0000
1000
0100
0000
0100
0001
0000
0001
0010
0000
0010
,  // measure 69
2000
0000
3002
0000
,  // measure 70
1003
0000
1000
0010
0000
0000
0010
0000
0010
0100
0000
0000
,  // measure 71
0100
0000
0100
0001
0000
0000
0001
0000
0001
1000
0000
1000
,  // measure 72
0200
0000
0320
0000
,  // measure 73
0032
0000
2003
0000
,  // measure 74
3001
0000
0001
0100
0000
0100
0010
0000
0010
1000
0000
1000
,  // measure 75
0001
0000
0001
0010
0001
0010
0100
1000
0100
1000
0001
1000
,  // measure 76
0001
0100
0001
0100
0010
0100
0010
1000
0010
1000
0001
1000
,  // measure 77
0001
0000
0010
0000
0100
0000
1000
0000
0010
0000
0100
0000
,  // measure 78
0001
0000
0001
0010
0000
0010
0001
0000
0001
1000
0000
1000
,  // measure 79
0010
0000
0010
0100
0000
0100
0001
0000
0001
1000
0000
1000
,  // measure 80
0100
0000
0100
0010
0001
0010
0001
0000
0001
1000
0100
1000
,  // measure 81
0100
0010
0100
0010
0001
0010
0001
1000
0001
0100
0010
1000
,  // measure 82
0001
0011
0100
1100
,  // measure 83
0010
0000
0010
0100
0001
0100
0001
0010
0001
1000
0100
1000
,  // measure 84
0001
0100
0001
0100
0001
0000
1000
0100
1000
0100
1000
0000
,  // measure 85
0010
0000
0010
0100
0000
0100
0001
1000
0001
0100
0010
0100
,  // measure 86
0001
0010
0001
0010
0001
0000
1000
0100
1000
0100
1000
0000
,  // measure 87
0010
0100
0010
1000
0001
1000
0001
0010
0100
1000
0100
0010
,  // measure 88
0001
0100
0001
0100
0000
0100
0010
1000
0010
1000
0000
1000
,  // measure 89
0001
0010
0001
0010
0100
0010
0100
1000
0100
1000
0001
1000
,  // measure 90
0020
0000
0000
0000
,  // measure 91
0000
0000
0000
0000
,  // measure 92
0000
0000
0000
0000
,  // measure 93
0000
0000
0000
0000
,  // measure 94
0030
0000
0000
0000
;
